&title=玩具狂奏曲 -終焉-
&wholebpm=130
&artist=きくお
&des=サファ太
&shortid=11028
&genre=オンゲキCHUNITHM
&cabinet=DX
&version=maimai DX
&chartconverter=Neskol
&lv_2=5
&des_2=-
&lv_3=8
&des_3=-
&lv_4=13
&des_4=シチミヘルツ
&lv_5=13+
&des_5=サファ太
&des_6=
&inote_2=
(130){1},
{1},
{1},
{1},
{2},4xh[4:3],
{1},
{1}5xh[4:3],
{8},,,,4,,,4,
{8},,5,,,5,,,
{4}4b/5b,,,4,
{8},4,,,3,,,3,
{8},,2,,,2,,,
{8}1,,,1,,,8,,
{8},8,,,7,,,7,
{8},,6,,,6,,,
{4}4/5,,,B4,
{2},B3,
{4},B4,,,
{4}B5,,,B6,
{2},E6,
{4},E5,,,
{4}E4,,,B4/B5,
{2},B5/B6,
{4},B4/B5,,,
{4}E3/E4,,,B4/B5/E5,
{2},E6/E7,
{4},4h[8:9]/5h[8:9],,,
{4},,,C1hf[4:3],
{1},
{4},1xh[8:3],,,
{4}2xh[8:3],,,3,
{8}4,4,,5,5xh[8:3],,,,
{8},,4/5,,5,5,,6,
{4}6xh[8:3],,,4/5,
{8}4,4,,3,3xh[8:3],,,,
{4},5xh[8:3],,,
{4}6xh[8:3],,,7,
{8}8,8,,1,1xh[8:3],,,,
{8},,1/8,,1,1,,2,
{4}2xh[8:3],,,1/8,
{8}8,8,,7,7xh[8:3],,,,
{4},1-5[2:1],,,
{4},,,8-4[2:1],
{1},
{4},3-7[2:1],,,
{4},,,5-1[2:1],
{1},
{8},,4,,,3x/4x,,,
{8}5,,,5x/6x,,,4,,
{8},3x/4x,,,5,,,5x/6x,
{4},4h[8:3]/6h[8:3],,,
{4}3h[8:3]/5h[8:3],,,4,
{8},5,,,3x/6x,,,,
{4},B7,,,
{4}B8,,,B1,
{2},B2,
{4},B3,,,
{4}B4,,,4xh[4:3]/5xh[4:3],
{1},
{8},,E4,,,C1,,,
{8}E3,,,C1,,,E2,,
{8},C1,,,E1,,,C1,
{8},,E8,,,C1,,,
{8}E7,,,C1,,,E6,,
{8},C1,,,E5,,,C1,
{4},1xh[4:3]/8xh[4:3],,,
{4},,,C1hf[4:3],
{1},
{8},,1x/8x,,2,2,,1,
{8}1x,,8,8,,7,7x,,
{8}8,8x,,1,1xh[8:3],,,,
{8},,1x/2x,,3,3,,4,
{8}4x,,5,5,,6,6x,,
{8}7,7x,,8,1x,1,8,8b,
{8},,1x/8x,,7,7,,8,
{8}8x,,1,1,,2,2x,,
{8}1,1x,,8,8xh[8:3],,,,
{8},,7x/8x,,6,6,,5,
{8}5x,,4,4,,3,3x,,
{8}2,2x,,1,8x,8,1,1b,
{4},8x-4[4:5],,,
{1},
{1},
{1},
E
&inote_3=
(130){1},
{2},C1xh[4:3],
{1},
{8}C1f,,,,,,,1x/7x,
{16},,,,,,,,6,,,6,,,5/6,,
{16},,,,4,,,4,,,4/5,,,,,,
{16}3,,,3,,,3/4,,,,,,2,,,2,
{16},,2/4,,,,,,7,,,6,,,5/6,,
{16},,,,2,,,3,,,3/4,,,,,,
{4}4xh[16:3]/5xh[8:3],,,3x/4x,
{8}2,2,,3,3,,4,4/5,
{8},,5/6,,7,7,,6,
{8}6,,5,4/5,,,3x/4x,,
{8}2,2,,1,1,,8,2/8,
{4},5h[8:3]/6h[8:3],,,
{4}3h[8:3]/4h[8:3],,,B4,
{8},B6/E6,,,B5,,,B2/B3,
{8},,C1,,,B7/E7,,,
{8}E1,,,E2/B2,,,C1,,
{8},B7/E8,,,C1,,,B2/E3,
{8},,B4/B5,,,B3/B6,,,
{16}C1xh[8:3],,,,,,,,,,,,E2,,,B1,
{16},,B8,,,,,,B6,,,B7,,,E8,,
{16},,,,B4,,,C1,,,B1,,,,,,
{16}B5,,,C1,,,B8,,,,,,B4,,,B3,
{16},,E2/E3,,,,,,B5,,,B6,,,E7/E8,,
{4},C1xh[4:3],,,
{4},,,2x/4x,
{8},5x/7x,,,3/6,3/6,3/6,3b/6b,
{8},,3,,2/4,2/4,,1,
{8}1,,2/8,2/8,,7,7h[8:3],,
{8},6h[4:3],,,5h[8:3],,,,
{8},,3/4,,2,2,,1/8,
{8}1/8,,7,7,,5/6,5x/6x,,
{8},3x/4x,,,4x/5x,,3x/6x,3x/6x,
{8},,7,,6/8,6/8,,5,
{8}5,,4/6,4/6,,3,3h[8:3],,
{8},2h[4:3],,,1h[8:3],,,,
{8},,3,3,3,3/4,,,
{8}7,7,7,5/7,,,1h[8:3],,
{8},8<4[8:5],,,,,,,
{8},,3xh[4:3],,,4h[4:3],,,
{4},,,2h[4:3],
{8},1h[4:3],,,,,,,
{8},,7h[4:3],,,8h[4:3],,,
{4},,,6h[4:3],
{8},5h[4:3],,,,,,,
{8},,3/4h[4:3],,2,2h[8:3],,,
{8},,3,3,,,5h[4:3]/6,,
{8}7,7h[8:3],,,,,6,6,
{8},,1h[4:3]/2,,3,3h[8:3],,,
{8},,2,2,,,1h[4:3]/8,,
{8}7,7h[8:3],,,,,8,8b,
{4},6q4[4:3],,,
{4},,,3p5[4:3],
{1},
{4},4q2[4:3],,,
{4},,,3v8[4:3]/4v7[4:3],
{1},
{8},,2h[8:3],,,3h[8:3],,,
{8}4h[8:3],,,5x,,,6h[8:3],,
{8},7xh[8:3],,,8h[8:3],,,1xh[8:3],
{8},,8h[8:3],,,7xh[8:3],,,
{8}6h[8:3],,,5xh[8:3],,,4h[8:3],,
{8},3xh[8:3],,,2h[8:3],,,1b,
{8},,1/2,,,2/3,,,
{8}3/4,,,4/5,,,5x/6x,,
{8},6x/7x,,,C1f,,,,
{8},,1,1,1,2/8,,,
{8}3,3,3,2/4,,,5h[8:3],,
{8},6h[4:3],,,4h[8:3],,,,
{8},,6,,7/8,7/8,,1/2,
{8}1/2,,3/4,3/4,,5/6,5x/6x,,
{8},2x/4x,,,7,7,7,1x/7x,
{8},,2,2,2,1/3,,,
{8}5,5,5,4/6,,,8h[8:3],,
{8},7h[4:3],,,1h[8:3],,,,
{8},,2,,2/4,2/4,,3/4,
{8}3/4,,5/7,5/7,,5/6,5x/6x,,
{8}1/8,1/8,,3/4,3h[8:3]/4h[4:3],,,,
{4},C1xh[2:3],,,
{1},
{1},
{1},
E
&inote_4=
(130){1},
{2},3h[2:5]/6bpp4[1:1],
{16},,,,,,,,,,,,,,4,5,
{8}6b-2[8:3],,,,,,,1,
{16}2,,3h[4:1],,4,,5,,3h[4:1]/6b,,,5h[16:5],,,2h[4:1],,
{16},4h[16:5],,,1h[4:1],,,3h[16:5],,,8h[4:1],,,3h[16:5],,,
{16}1h[4:1],,,4h[4:1],,,2h[16:5],,,5h[4:1],,,3h[16:5],,,6h[4:1],
{16},,4h[16:5],,,7h[4:1],,,5h[16:5],,,1h[4:1],,,3h[4:1],,
{16},7h[16:5],,,1h[4:1],,,5h[16:5],,,2h[4:1],,,7h[16:1],,,
{16}4h[32:1]/5h[64:1],,,4h[64:1]/5h[32:1],,,2b/7b,,,,,,7,,8-4[8:1],,
{8}1,2<7[8:5],,,8b,,,6,
{8},6,7-3[8:1],8<5[8:3],,,,3,
{8}2-6[8:1],1>4[8:3],,,,,2,1-5[8:1],
{16}8,,7>2[8:5],,,,,,1b,,,,3,3,3h[8:9],,
{16},,4,4,4>5[2:1],,,,,,,,,,,,
{8},2/4,4/5,5/7,2/8,4/5,1h[8:15]/7b-3[16:5],,
{8},C1f,,,6b-2[16:5],,,C1f,
{8},,5b-1[16:5],,,C1f,,,
{8}1b-5[16:5]/8b-4[16:5],,,C1f,,,1h[8:15]/2b-6[16:5],,
{8},C1f,,,3b-7[16:5],,,C1f,
{8},,4b-8[16:5],,,C1f,,,
{16}2b-6[16:5]/8b-4[16:5],,,,,,C1f,,,,,,6pp5[16:67],,,E1,
{16},,C1f,,,E5,,,E4,,,E3,,,C1f,,
{16},E1,,,E2,,,E3,,,C1f,,,E5,,,
{16}E4,,,E3,,,C1f,,,E1,,,E2,,,E3,
{16},,C1f,,,E5,,,E4,,,E3,,,C1f,,
{16},E5,,,7h[64:19],,,6h[32:9],,,5h[64:17],,,4h[4:1],,,
{16}3h[64:15],,,2h[32:7],,,1h[64:13],,,8h[16:3],,,7h[8:1],,5,6,
{16}5,,2h[8:1],,4,3,4,,1/8,,2/7,,4/5,,2b/7b,,
{8}1,1,2>5[16:3]/8,8,8,7,6<2[4:1],5,
{8}4,4,3,3h[8:3],4,5,7h[4:1],8,
{8}1,3h[4:1],2<5[2:1],1,8h[4:3],,,,
{8},,2,3/4,5,6/8,1<5[4:1]/7,2/8,
{16}1x/3,,,,1,,2/8,,3/7,,4/6,,2/7,,6,5,
{16}6,,2/7,,3,4,3,,7/8,,5/6,,4/7,,3b/8b,,
{8}1,8,1/7<4[16:3],1,1,2,3>7[4:1],4,
{8}5,5,6,6h[8:3],5,4,2h[4:1],1,
{8}8,6h[4:1],7>4[2:1],8,1h[4:3],,,,
{8},,7,5/6,4,1/3,2/8<3[8:3],1/7,
{8}6h[4:1]/8x,,,7,8>4[4:1],1,2h[4:1]/8x,,
{16},,6,5,6<3[2:1]*pp3[2:1],5,6,,,,,,,,,,
{16},,,,4-7[8:3],,,C1,,,6h[8:3],,,,,,
{16}7>2[8:3],,,C1,,,1h[8:3],,,,,,2p6[8:3],,,C1,
{16},,4h[8:3],,,,,,6p1[8:3],,,C1,,,7h[8:3],,
{16},,,,1p3[8:3],,,C1,,,2h[8:3],,,,,,
{16}3p4[8:3],,,C1,,,5h[8:3],,,,,,4p4[8:3],,,C1,
{16},,6h[8:3],,,,,,4V27[4:1],,,C1,,,7b,,
{16},,,,5-2[8:3],,,C1,,3,3h[8:3],,,,,,
{16}2<7[8:3],,,C1,,8,8h[8:3],,,,,,7q3[8:3],,,C1,
{16},5,5h[8:3],,,,,,3q8[8:3],,,C1,,2,2h[8:3],,
{16},,,,8q6[8:3],,,C1,,7,7h[8:3],,,,,,
{16}6q5[8:3],,,C1,,4,4h[8:3],,,,,,5q5[8:3],,,C1,
{16},3,3h[8:3],,,,,,5V38[4:1],,,C1,,1b,1b,,
{8},,2h[8:1],3h[8:1],4h[8:1],2h[8:1],3h[8:1],4h[8:1],
{16}7h[8:1],,6h[8:1],,5h[8:1],,6,5,6,5,7,,4h[8:1],,8h[8:1],,
{8}5h[8:1],1,2<6[2:1]/6>2[2:1],2/6,,,,,
{8},,7h[8:1],6h[8:1],5h[8:1],8h[8:1],7h[8:1],6h[8:1],
{16}8h[8:1],,2h[8:1],,4h[8:1],,3,4,3,4,2,,6h[8:1],,4h[8:1],,
{8}2h[8:1],6h[8:1],8h[8:1],2,2pp2[4:1]/6pp6[4:1],2/6,,,
{16},,,,7,7h[16:1],6h[8:1],,5h[8:1],,7,7h[16:1],6h[8:1],,5h[8:1],,
{16}2,2h[16:1],3h[8:1],,4h[8:1],,3,4,3,4,2,,5,5h[16:1],1h[8:1],,
{8}4h[8:1],8,3/7>3[2:1],3<7[8:3]/7,,,,,
{16},,,,2,2h[16:1],3h[8:1],,4h[8:1],,1,1h[16:1],2h[8:1],,3h[8:1],,
{16}1,1h[16:1],7h[8:1],,5h[8:1],,6,5,6,5,7,,3,3h[16:1],5h[8:1],,
{16}7h[8:1],,3,3h[16:1],1h[8:1],,7,,3/7qq7[4:1],,3qq3[8:1]/7,,,,,,
{16},,,,7h[8:1],,5,6,5,,2h[8:1],,4,3,4,,
{16}8h[8:1],,5,6,5,,1h[8:1],,4,3,4,,1,8,1,8,
{16}1,8,2,7,2,7,2,7,2b,,4b/5b,,1b/8b,,2b/7b,,
{8}8,7,6>3[16:3]/8,8,8,1,2<6[4:1],3,
{8}4,4,5,5h[8:3],4,3,2h[4:1],1,
{8}8q6[4:1],7,6<3[2:1],5,4h[8:3],,,,
{8},,7,5/6,3,2/8,1/7>3[4:1],6/8,
{16}5/7x,,,,8,,1/7,,2/6,,3/5,,4h[8:1]/8,,6,5,
{16}6,,1/5h[8:1],,3,4,3,,1/2,,3/4,,7/8,,1b/6b,,
{8}2,2,1/3<6[16:3],1,1,8,7>3[4:1],6,
{8}5,5,4,4h[8:3],5,6,7h[4:1],8,
{8}1p3[4:1],2,3>6[2:1],4,5h[8:3],,,,
{8},,2,3/4,6,1/7,2>7[8:3]/8,1/3,
{8}2x/4h[4:1],,,2,1<5[4:1],8,1x/7h[4:1],,
{16},,6,5,6<3[2:1]*pp3[2:1],5,6,,,,,,,,,,
{4},2h[4:5]/7b-3[2:3],,,
{4},,,6b,
{1},
{1},
{1},
E
&inote_5=
(130){1},
{2},C1xh[4:3]/8xz4[2:1],
{16},,,,,,,,,,,,,,1s5[8:5],8,
{8}C1f,,,,,,,3/4,
{16}2/4,,4/5,,5/7,,5/6,,4/5,,3,3,4h[8:1],,2,5,
{16}4,4/7,,6,6-4[8:1],,7,4,6,,2h[16:3],,,3h[16:3],,4,
{16}4,,,4/5-7[8:1],,7,3,5,,4h[16:3],,,7,,6,6,
{16}5,5,7,,,4/5,,2,2h[16:3]/4,,,3,,6,4/6h[16:3],,
{16},5,,,5,4,4,6,2,2,7h[8:3],,,3h[48:19],,,
{48},6,5h[16:3],,,,,,,,,4h[16:3],,,,,,,,6,5h[48:7],,,,,,,4,,,,,,5,,,4b/5,,,,,,3/6,,,,,,
{8}2/7,1/8V63[4:1],,3,2-7[8:1],,7,6h[4:1],
{8},5,3>6[8:3]/4h[4:1],,,5h[4:1],,,
{8}3h[4:1]/4>6[8:3],,,5h[4:1],,,1/8,2/7,
{16}3/6,,4V27[4:1]/5,,,,7,,6-3[8:1],,,,3,2,1h[4:1],,
{16},,5,2/6,3/7h[16:5],,,,4,,2b/6b,,,,1,,
{8}2/4,3/4,4/5,5/7,7/8,1/8,1xV73[16:3]/2h[8:3],,
{8},C1f,,,2xV84[16:3]/3h[8:3],,,C1f,
{8},,3xV15[16:3]/4h[8:3],,,C1f,,,
{8}4xV26[16:3]/5h[8:3],,,C1f,,,4x/5x-1[12:5]*V73[16:3],,
{8},C1f,,,5x/6x-2[12:5]*V84[16:3],,,C1f,
{8},,6x/7x-3[12:5]*V15[16:3],,,C1f,,,
{16}7x/8x-4[12:5]*V26[16:3],,,,,,C1f,,,,,,1xV37[16:3]/8x,,,8,
{16},,C1f/6,,,6,,,2x/8xV62[16:3],,,2,,,C1f/3,,
{16},3,,,2xV48[16:3]/5x,,,B6,,,C1f/7,,,7,,,
{16}1x/6xV84[16:3],,,B2,,,C1f/3,,,3,,,2xV84[16:3]/7x,,,B6,
{16},,C1f/5,,,5,,,4x/8xV26[16:3],,,B4,,,C1f/3,,
{16},2,,,1h[64:19]/8x,,,2h[32:9],,,3h[64:17],,,4h[4:1],,,
{16}5h[64:15],,,6h[32:7],,,7h[64:13],,,8,,,1h[8:1]/8,,4,2,
{48}4,,,,,,4/7h[8:1],,,,,,4,,,6,,,4,,,,,,3/6h[8:1],,,,,,3,,4,,5,,6,,,,,,1x/8x,,,,,,
{8}7,6,2b-7[8:1]/5b,1,2/7,6-3[8:1],5,3/6,
{8}2-6[8:1],1,2/6,7-3[8:1],8,3/7,1,2,
{8}3/7,5,3V57[4:1]/7,1,3x/7xV13[16:5],1,1,B5/E6,
{8}E7,B8/E8,2h[4:1]/4,3,8,5/7h[4:1],6,1,
{96}3,,,4,,,3,,,4,,,3,,,,,,5,,,,,,2h[8:1],,,,,,,,,,,,1,,,,,,,,,,,,8,,,,,,,,,,,,4/7,,,,,,,,,,,,3/6h[8:1],,,,,,,,,,,,4,,,,5,,,,3,,,,
{24}4h[8:1],,,3h[8:1],,,5,4,6,5,,,4/7,,,4/7,3/6,2/5,1/4,,,8b,,,
{8}7,6,2x-5[8:1]/5x,1,2/5,7-4[8:1],8,4/7,
{8}3-7[8:1],2,3/7,6-2[8:1],5,2/6,1,8,
{8}3/7,5,3/7V53[4:1],1,3xV17[16:5]/7x,1,1,E4/B4,
{8}C1,B1/E2,5/7h[4:1],6,1,2h[4:1]/4,3,8,
{32}6,5,6,5,6,,4,,7h[8:1],,,,8,,,,1/6,,,,2/5,,,,3<6[8:1]/6,,,,2/7,,,,
{48}3/6,,,,,,7,,,7,,,5,,,5,,,4,,,4,,,2,,,,,,2/5,,3/6,,4/7,,5/8,,,,,,1b,,,,,,
{16}1,,2,,2/5,,,E2/B3/B4,,8,8,,E5/B6/E7,,,5,
{16}5,,,B2/E3/B4,,8,8,,B5/B7/E8,,,3,3,3,,B2/E2/E4,
{16},6,6,,E6/B7/E8,,,2,2,2,,B1/E1/B3,,5,5,,
{16}B4/B6/E7,,2,2,1,2,,E2/B3/E4/B4,,6,6,,B5/E6/B7/E8,,3,3,
{16}4,3,,B2/E2/E3/B4,,7,7,,E1/B6/E7/B8,,4,4,5,4,,E3/B3/B5/E6,
{16},1/2,1/2,,B4/E4/B7/E8,,6,6,5,7,,B1/E2/E6/B6,,3/4,3x/4x,,
{16}4,,5,,6,6-3[8:1],,4/5,,2,2,,4,,3/8,,
{16}2,2-5[8:1],,3/4,,6,6,,4,,2/7,,4,4v1[8:1],,2/3,
{16},6,6,,E8/B8,,2/7,,5,5v8[8:1],,6/7,,3,3,,
{16}B1/E2,,2/5,,3,4-8[8:1],,B1/E2/E7/B7,,4,5,,5,,1/7,,
{16}6,5-1[8:1],,B2/E3/B8/E8,,5,4,,4,,3/7,,2,1-5[8:1],,B3/B4/B6/B7,
{16},1,8,,8,,4/6,,7,8,,B3/E4/E5/B6/E6,,1/2,1x/2x,,
{8}8,7,5>2[8:3]/6,,2,2<7[8:3],,7,
{8}7<4[8:3],,4,4>1[8:3],,8,1<6[8:3],,
{8}5,6>8[8:5],,3,2h[8:5],,,,
{8},3,3/4<7[8:3],,8,7>2[8:3],,3,
{8}2>5[8:3],,6,5<8[8:3],,1,8>3[8:3],,
{8}4,3<8[8:5],,8,1>4[4:1],,,,
{16},,,,3/7,,3,7,3,,3x/5h[4:1],4x,3x,4x,3x,,
{32}2/6,,,,6,,2h[16:3],,6,,,,6b,5,4,,2,,1,,2,,,,2/7<4[8:1],,,,8,,3,,
{16}4/7,,1b,,2>5[8:1]/5pp2[2:1],,1,6,2/5,,,,,,1b,,
{16},,1/8,,3,3,4,2,8,8,7b,7,6,5,7,7,
{16}2,2,3,4,2,2,5b,5,6,7,3,3,1,1,2,3,
{16}4,4,7b,7,6,5,8,8,2,2,4,3,3,4,2b/4b,,
{16},,,,4/6h[8:3],,5,5,5h[2:1],,,,3,3,3h[2:1],,
{16},,7,7,7h[2:1],,,,1,1,1h[8:1],,,,3,3,
{48}4,,,,,,2/4,,,,,,6,,,6,,,5,,,,,,5/7,,,,,,5/7,,4/6,,3/5,,2/4,,,,,,8b,,,,,,
{8}7,6,2b-7[8:1]/5b,1/8,2/7,6-3[8:1],4/5,3/6,
{8}2-6[8:1],1/5,2/6,7-3[8:1],4/8,3/7,1,2/6,
{8}3/7,5,3/7V13[4:1],1,3xV57[16:5]/7x,5,5,B1/E2,
{8}C1,E4/B4,5/7h[4:1],6,1,2h[4:1]/8,3,4,
{96}7,,,8,,,7,,,8,,,7,,,,,,1,,,,,,6h[8:1],,,,,,,,,,,,5,,,,,,,,,,,,4,,,,,,,,,,,,3/8,,,,,,,,,,,,2h[8:1]/7,,,,,,,,,,,,4,,,,3,,,,5,,,,
{24}4h[8:1],,,7h[8:1],,,5,6,3,4h[8:1],,,2,,,2/4,3/5,4/6,5/7,,,1b,,,
{8}2,3,4x/7x-4[8:1],5/8,4/7,2-5[8:1],1/3,2/5,
{8}7-3[8:1],6/8,3/7,2-6[8:1],1/4,2/6,8,3/7,
{8}2/6,4,2V86[4:1]/6,8,2x/6xV42[16:5],4,4,B8/E8,
{8}C1,B5/E6,2h[4:1]/4,1,8,1/7h[4:1],6,4,
{96}2,,,1,,,2,,,1,,,2,,,,,,8,,,,,,3h[8:1],,,,,,,,,,,,4,,,,,,,,,,,,5,,,,,,,,,,,,1/6,,,,,,,,,,,,7h[8:1]/8,,,,,,,,,,,,5,,,,6,,,,3,,,,
{48}4h[8:1],,,,,,1,,,1,,,3,,,3,,,5,,,5,,,7h[8:1],,,,,,5<4[4:1],,6,,3,,4h[8:1],,,,,,E6,,E7,,E8,,
{24}E1,E2,E3,E4,,,C1xh[2:3]/8q1[8:7],,,,,,,,,,,,,,,,,,
{4},,,E1/B1/B4/E5/B5/B8,
{1},
{1},
{1},
E
