&title=未完成人
&wholebpm=148
&artist=ンダホ&ぺけたん from Fischer's
&des=はっぴー
&shortid=11076
&genre=POPSアニメ
&cabinet=DX
&version=maimai DX
&chartconverter=Neskol
&lv_2=4
&des_2=-
&lv_3=7
&des_3=-
&lv_4=8+
&des_4=シチミヘルツ
&lv_5=11+
&des_5=はっぴー
&des_6=
&inote_2=
(148){1},
{1},
{1},
{1},
{1},
{1},
{1}4,
{1}4,
{1}5,
{1}5,
{1}4h[1:1],
{1},
{1}5h[1:1],
{1},
{2}6,6,
{1}6,
{2}7,7,
{1}7,
{2}8,8,
{1}8,
{2}1x,1,
{1}1/8,
{2}2,2,
{1}2,
{2}3,3,
{1}3,
{1}4h[1:1],
{1},
{2}5,5,
{1}4/5,
{1}B5,
{1}B6,
{1}B7,
{1}B8,
{1}B1,
{1}B2,
{1}B3,
{1}B4,
{1}C1hf[1:1],
{1},
{2}8x,1x,
{4}8,8,8x,,
{2}1x,8x,
{4}1,1,1x,,
{4}2,2,2,,
{4}3,3,3,,
{4}4,4,4,,
{4}4x/5x,4x/5x,4b/5b,,
{2}6x,3x,
{4}5,5,5x,,
{2}3x,6x,
{4}4,4,4x,,
{4}5,5,5,,
{4}6,6,6,,
{4}7,7,7,,
{1}1h[2:1]/8h[2:1],
{1}1-4[4:3]/8-5[4:3],
{1},
{2}1/8,1/8,
{4}1x,1x,1b,,
{2}1x/2x,7x/8x,
{4}1,1,1x,,
{2}7x/8x,1x/2x,
{4}8,8,8x,,
{4}7,7,7,,
{4}6,6,6,,
{4}5,5,5,,
{4}4x/5x,4x/5x,4b/5b,,
{2}3x/4x,5x/6x,
{4}4,4,4x,,
{2}5x/6x,3x/4x,
{4}5,5,5x,,
{4}4,4,4,,
{4}3,3,3,,
{4}2,2,2,,
{1}1h[2:1]/8h[2:1],
{1}1-4[4:3]/8-5[4:3],
{1},
{1},
{1},
E
&inote_3=
(148){1},
{1},
{4}7,7,7/8,,
{4}2,1/2,3x/8x,,
{4}2,2,1/2,,
{4}7,7/8,1x/6x,,
{4}6,6,5/6,,
{4}3,3,3/4,,
{4}6,6,5,5,
{4}4,3,2x/4x,,
{4}3,3,3/4,,
{4}6,6,5/6,,
{4}3,3,2,2,
{4}1,8,2b/7b,,
{4}3h[2:1],,4,5,
{4}6,6,5/6,,
{4}6h[2:1],,5,4,
{4}3,3,3/4,,
{4}3h[2:1],,4,5,
{4}6,6,5/6,,
{4}6,6,7,7,
{4}8,1,2x/7x,,
{1}1-4[2:1],
{1}5-8[2:1],
{1}1-5[2:1],
{4}6,6,6x,,
{1}8-5[2:1],
{1}4-1[2:1],
{1}8-4[2:1],
{4}3,3,3x,,
{2}B2,C1,
{1}B6,
{2}B7,C1,
{1}B3,
{2}B2,C1,
{1}B6,
{2}B7,C1,
{2}B3,B2,
{1}C1hf[1:1],
{1},
{4}2,2,1/2,1/2,
{4}3h[4:1],4,2x/5x,,
{4}7,7,7/8,7/8,
{4}6h[4:1],5,4x/7x,,
{4}7,8,1/2,,
{4}3,4,5/6,,
{4}6,5,4,3,
{4}2,1x/8x,2b/7b,,
{4}7,7,7x/8x,7x/8x,
{4}6h[4:1],5,4x/7x,,
{4}2,2,1x/2x,1x/2x,
{4}3h[4:1],4,2x/5x,,
{4}2,1,7x/8x,,
{4}6,5,3x/4x,,
{4}3,2,1,8,
{4}1h[2:1],,8,1/8,
{1}2b>8[4:5]/7b,
{1},
{2}8h[2:1],1h[2:1],
{4}8x,8x,2b/7b,,
{4}7,7/8,2,1/2,
{4}3h[4:1],4,2x/5x,,
{4}2,1/2,7,7/8,
{4}6h[4:1],5,4x/7x,,
{4}7,8,1/2,3,
{4}4,5/6,4b/7b,,
{4}6h[4:1],5,4,3h[4:1],
{4}4,2,1/2,3b/8b,
{4},1/2,7,7/8,
{4}6h[4:1],5,4b/7b,,
{4}7,7/8,2,1/2,
{4}3h[4:1],4,2b/5b,,
{4}2,1,7/8,6,
{4}5,3/4,2b/5b,,
{4}3h[4:1],4,5,6h[4:1],
{4}5h[2:1],,6,7x/8x,
{1}1xh[2:1]/6xh[2:1],
{1}C1f,
{1},
{1},
{1},
E
&inote_4=
(148){1},
{1},
{2}1h[4:1]/7h[4:1],2h[4:1]/8h[4:1],
{16}1x/8x,,,2x/7x,,,3x/6x,,3x/6x,,,,,,,,
{2}2h[4:1]/8h[4:1],1h[4:1]/7h[4:1],
{16}4x/5x,,,3x/6x,,,2x/7x,,2x/7x,,,,1b,,,,
{8}3h[2:1]/5,,4,4,5,,2/6,,
{8}4/6h[2:1],,5,5,4,,3/7,,
{4}2,2,7,7,
{4}1,8,1/7,,
{8}4/6h[2:1],,5,5,4,,3/7,,
{8}3h[2:1]/5,,4,4,5,,2/6,,
{4}4,4,5,4qq1[4:3]/5pp8[4:3],
{1},
{4}B4,B6,B2/B8,,
{4}B5,B3,B1/B7,,
{4}B4,B5,B2,B7,
{4}B1,B8,C1,,
{4}B5,B3,B1/B7,,
{4}B4,B6,B2/B8,,
{4}C1,B8,B7,B5,
{4}B3,B2,C1f,,
{4}5/6h[2:3],5,4,4,
{4}5,4,3,2/7,
{2}8<5[4:1],1>4[4:1],
{4}5,5,4/6,3b/7b,
{1}C1hf[2:3],
{1},
{4}3h[4:1],4,6h[4:1],5,
{1}8<3[2:1],
{4}3h[2:3]/5,5,4,4,
{4}5,4,6,4/5,
{4}4/6h[2:3],4,5,5,
{4}4,5,3,4/5,
{4}2x/7x,,1,2,
{4}3,4,3x/6x,4/5,
{1}2>6[2:1],
{1}7<3[2:1],
{1}1>8[2:1],
{16}1x/8x,,,2x/7x,,,3x/6x,,3x/6x,,,,1b,,,,
{4}4/6,1x/8x,4/6,1x/8x,
{4}4/6,3/5,6,5/6,
{4}3/5,1x/8x,3/5,1x/8x,
{4}3p7[4:1]/4pp6[4:1],,,1/8,
{2}1-4[4:1],5-8[4:1],
{2}1>4[4:1],5<8[4:1],
{8}1h[4:1],,8,,6,6,5,,
{8}3,3,4,,2x/7x,,2b/7b,,
{4}3/5,1x/8x,3/5,1x/8x,
{4}3/5,4/6,3,3/4,
{4}4/6,1x/8x,4/6,1x/8x,
{4}5-2[4:1]/6-1[4:1],,,1/8,
{2}8-5[4:1],4-1[4:1],
{2}8<5[4:1],4>1[4:1],
{4}7,8,1,2/7,
{4}8-4[4:1],,,3,
{1}3>4[4:5],
{1},
{2}3h[4:3],6h[4:1],
{4}1b,8b,C1f,,
{4}3/4,1x/7x,5/6,2x/8x,
{4}3/5,4/6,3,3/4,
{4}5/6,2x/8x,3/4,1x/7x,
{4}5qq3[4:1]/6q2[4:1],,,1/8,
{2}2-5[4:1],6-1[4:1],
{2}2>5[4:1],6<1[4:1],
{8}2h[4:1],,4,,6,6,5,,
{8}3,3,4,,2x/7x,,2xh[4:1]/7xh[4:1],,
{4},1b/8b,3/4,1x/7x,
{4}4/6,3/5,6,5/6,
{4}3/4,1x/7x,5/6,2x/8x,
{4}3>8[4:1]/4<7[4:1],,,1/8,
{2}7-4[4:1],3-8[4:1],
{2}7<4[4:1],3>8[4:1],
{4}7,5/6,3/4,1/2,
{1}7p5[2:1]/8,
{1}1bv3[2:1]*v6[2:1],
{1}C1f,
{1},
{1},
{1},
E
&inote_5=
(148){1},
{4},,,8b,
{2}1h[8:3]/6h[8:3],3h[8:3]/8h[8:3],
{16}2/4,,,4/5,,,5/7,,1/8,,,,,,,,
{2}3h[8:3]/8h[8:3],1h[8:3]/6h[8:3],
{16}5/7,,,4/5,,,2/4,,1-5[8:1]/8h[4:1],,,,1x,,,,
{16}6h[16:3],,,5,7,,2/8,,3h[16:3],,,4,2,,1/7,,
{16}6h[16:3],,,5,7,,2/8,,1,,1,,1/8,,,,
{16}3h[16:3],,,4,2,,1/7,,6h[16:3],,,5,7,,2/8,,
{16}3h[16:3],,,4,2,,1/7,,8,,8,,1/8,,,,
{16}6h[16:3],,,5,7,,2/8,,3h[16:3],,,4,2,,1/7,,
{16}6h[16:3],,,5,7,,2/8,,1,,1,,1/8,,,,
{4}7-4[8:1],3-8[8:1],5-8[8:1],1>7[4:1],
{4}8h[4:1],,2h[4:1]/8-4[8:1],8x,
{16}3/5,,,3,4,,2/5,,4/6,,,6,5,,4/7,,
{16}3/5,,,3,4,,2/5,,4>1[8:1],,5,,6,,,,
{16}2/6,,,6,5,,4/7,,3/5,,,3,4,,2/5,,
{16}4/6,,,6,5,,4/7,,3-6[8:1]/5,,,,8x,,,,
{16}4/6,,,6,5,,4/7,,3/5,,,3,4,,2/5,,
{16}4/6,,,6,5,,4/7,,5<8[8:1],,4,,3,,,,
{16}E5,,C1f,,E1,,,,1/8,,,6,5,,4/7,,
{8}3>6[4:1]/5,5,4,4,5,,3/6,,
{8}1/5<8[8:1],2,4,,4>1[8:1]/8,7,5,,
{8}1/5<8[8:1],2,4,,4>1[8:1]/8,7,5,,
{2}1h[2:1]/5,C1hf[1:1]/B4/B5,
{8}1,1,1,1,1,1,1-4[8:1]/8-5[8:1],,
{1}1x/8x,
{16},,,,,,4/5,,4/5,,,4/7,,,2/5,,
{16}1-5[8:1],,,6,6,,7,,8-4[8:1],,,3,3,,2,,
{16}1>4[8:1],,,6,6,,7,,1/8,,1/8,,2b/7b,,,,
{8}3/6h[2:1],3,,5,4,4-1[8:1],,8-5[8:1],
{8},2-6[8:1],,8h[4:1],,1,1,2,
{8}3h[4:3],,,6,6,5,5-8[8:1],,
{8}1,1-5[8:1],,8h[4:1],,1,1,7,
{8}3/6,,1-4[8:1],1,6-1[8:1],6,2-5[8:1],2,
{8}7-4[8:1],7,3-8[8:1],3,7,7,3/6,5,
{2}4-8[4:1],5-1[4:1],
{2}4-8[4:1],5-1[4:1],
{16}2h[16:3],,,3,,,1/4,,7h[16:3],,,6,,,5/8,,
{16}4h[16:3],,,5,,,3/6,,1/8,,,,2b/7b,,,,
{4}1-5[8:1]/2-4[8:1],1x/2x,7-5[8:1]/8-4[8:1],7x/8x,
{16}4>1[8:1],,,,8<5[8:1],,,,1,,2,2,,,7,,
{4}7-5[8:1]/8-4[8:1],7x/8x,1-5[8:1]/2-4[8:1],1x/2x,
{4}5-7[8:1],4>7[4:1]*v7[4:1],,,
{8}8<5[8:1],8,3,2,1>4[8:1],1,6,7,
{8}8<5[8:1],8,3,2,1>4[8:1],1,6,7,
{8}8-4[8:1],8,1-5[8:1],1,6-3[8:1],6,1>7[4:1],1,
{8}8,8,8h[4:1],,1-5[8:1],,1x/6,7,
{4}7-5[8:1]/8-4[8:1],7x/8x,1-5[8:1]/2-4[8:1],1x/2x,
{8}6<1[8:1],,2>5[8:1],,8,,4/7,3,
{4}1-5[8:1]/2-4[8:1],1x/2x,7-5[8:1]/8-4[8:1],7x/8x,
{4}3-8[8:1],4q7[8:3],1,,
{8}1>4[8:1],1,6,7,8<5[8:1],8,3,2,
{8}1>4[8:1],1,6,7,8<5[8:1],8,3,2,
{8}1-5[8:1],1,8-4[8:1],8,3-6[8:1],3,8<2[4:1],8,
{4}1h[2:1],,8,2x/7x,
{2}4xh[8:3]/6xh[8:3],3xh[8:3]/5xh[8:3],
{16}1/8,,,2/7,,,3/6,,3/6,,,,,,,,
{12}6x,5x,6x,3x,4x,3x,6x,5x,7x,3x,4x,2x,
{4}1x-5[8:1]/8x-4[8:1],1x>4[8:1]/8x<5[8:1],1x/8x,2b/7b,
{24}7-5[8:1]/8,,,,,,B8,C1f,B4,,,,1/2-4[8:1],,,,,,B1,C1f,B5,,,,
{16}8<5[8:1],,,,4>1[8:1],,,,7,,8,8,,,3,,
{24}1/2-4[8:1],,,,,,B1,C1f,B5,,,,7-5[8:1]/8,,,,,,B8,C1f,B4,,,,
{4}1>4[8:1],8<3[4:1]*v3[4:1],,,
{8}5-1[8:1],5,2,3,4-8[8:1],4,7,6,
{8}5-1[8:1],5,2,3,4-8[8:1],4,7,6,
{8}5<8[8:1],5,4>1[8:1],4,5-1[8:1],5,4>6[8:3],4,
{8}6,6,5,,1/8,,1>4[8:1]/8<5[8:1],,
{24}1x/8x,,,,,,C1f/B4/B5,,,,,,1/2-4[8:1],,,,,,B1,C1f,B5,,,,
{4}7-3[8:1],1-5[8:1],8h[4:1],1,
{24}1/2-4[8:1],,,,,,B1,C1f,B5,,,,7-5[8:1]/8,,,,,,B8,C1f,B4,,,,
{4}1-5[8:1],6pp1[8:3],3,,
{8}4-8[8:1],4,7,6,5-1[8:1],5,2,3,
{8}4-8[8:1],4,7,6,5-1[8:1],5,2,3,
{8}4>1[8:1],4,5<8[8:1],5,4-8[8:1],4,5<4[2:1],5,
{4}4,,,3/6,
{1}C1hf[1:1]/B2/B3/B6/B7,
{1},
{1},
{1},
E
