&title=星屑ユートピア
&wholebpm=240
&artist=otetsu
&des=玉子豆腐
&shortid=11060
&genre=niconicoボーカロイド
&cabinet=DX
&version=maimai DX
&chartconverter=Neskol
&lv_2=3
&des_2=-
&lv_3=7
&des_3=-
&lv_4=10+
&des_4=某S氏
&lv_5=12+
&des_5=玉子豆腐
&des_6=
&inote_2=
(240){1},
{1},
{1},
{1},
{1},
{1},
{1}1,
{1},
{1}1,
{1},
{1}8,
{1},
{1}8h[1:1],
{1},
{1}8,
{1},
{1}8,
{1},
{1}1,
{1},
{1}1xh[1:2],
{1},
{1},
{1},
{1}2,
{1}2,
{2}2,2,
{1}2,
{1}3,
{1}3,
{2}3,3,
{1}3,
{1}4,
{1}4,
{2}4,4,
{1}4,
{1}5,
{1}5,
{1}4h[1:1]/5h[1:1],
{1},
{1}B6,
{1},
{1}B7,
{1},
{1}B8,
{1},
{1}B1,
{1},
{1}B2,
{1},
{1}B3,
{1},
{1}C1hf[1:4],
{1},
{1},
{1},
{1},
{1},
{2}8,8,
{1}8,
{2}7,7,
{1}7,
{2}6,6,
{1}6,
{2}5,5,
{1}5,
{1}4h[1:1],
{1},
{1}5h[1:1],
{1},
{1}4h[1:1],
{1},
{1}5-8[4:7],
{1},
{1},
{1},
{2}1,1,
{1}1,
{2}2,2,
{1}2,
{2}3,3,
{1}3,
{2}4,4,
{1}4x/5x,
{2}6,6,
{1}6,
{2}7,7,
{1}7,
{2}8,8,
{2}1,1,
{1}1/8,
{1}1/8,
{2}1,8,
{1}1b,
{2}8,8,
{1}8,
{2}7,7,
{1}7,
{2}6,6,
{2}5,5,
{2}4,4,
{1}4/5,
{1}4/5,
{2}4,4,
{1}3x/4x,
{2}5,5,
{1}5x/6x,
{2}4/5,4b/5b,
{2}3,3,
{1}3,
{2}2,2,
{1}2,
{2}1,1,
{1}1,
{2}8,8,
{2}1,1,
{1}1/8,
{2}1,1,
{1}1x/2x,
{2}8,8,
{1}7x/8x,
{2}1/8,1/8,
{1}2xh[1:1]/7xh[1:1],
{1},
{2}1,1,
{1}1,
{2}8,8,
{1}8,
{2}7,7,
{2}6,6,
{2}5,5,
{1}4x/5x,
{2}4,4,
{1}3x/5x,
{2}5,5,
{1}4x/6x,
{2}4,5,
{1}4x/5x,
{1}5xh[4:3]/6xh[4:3],
{2},3xh[4:3]/4xh[4:3],
{1},
{1}4xh[4:5]/5xh[4:5],
{1},
{1},
{1},
E
&inote_3=
(240){1},
{1},
{1},
{1},
{1},
{1},
{4}2,2,2,,
{2}1x,1x,
{4}7,7,7,,
{2}8x,8x,
{4}2,2,2,,
{4}3,3,3,,
{4}4,4,4,,
{1}3x/6x,
{4}7,7,7,,
{2}8x,8x,
{4}2,2,2,,
{2}1x,1x,
{4}7,7,7,,
{4}8,8,8,,
{4}1,1,1,,
{2}8x,8x,
{2}1,1x/8x,
{1}2x/7x,
{1}6h[1:1],
{2}5,5,
{1}4h[1:1],
{2}5,5,
{1}6h[1:1],
{2}5,4,
{2}3,3,
{1}3/4,
{1}3h[1:1],
{2}4,4,
{1}5h[1:1],
{2}4,4,
{2}3,3,
{2}2,2,
{2}1,1,
{1}2b/7b,
{1}1>6[8:11],
{1},
{2}7x,7x,
{2}8,8,
{1}8<3[8:11],
{1},
{2}2x,2x,
{2}1,1,
{1}1>6[8:11],
{1},
{2}7x,7x,
{2}8,8,
{1}8<5[8:7],
{2},4x,
{1}4>1[8:7],
{2},8x,
{2}8x,1x/8x,
{1}2x/7x,
{4}1,1,2,2,
{2}2,3x/4x,
{4}5,5,6,6,
{2}6,7x/8x,
{4}6,6,5/6,,
{4}3,3,3/4,,
{4}5,5,4/5,,
{1}3x/6x,
{4}8,8,7,7,
{2}7,5x/6x,
{4}4,4,3,3,
{2}3,1x/2x,
{4}3,3,3/4,,
{4}6,6,5/6,,
{4}7,7,7x>4[8:15],,
{1},
{1},
{1},
{1}B4,
{1}B6,
{1}B7,
{1},
{1}B5,
{1}B3,
{1}B2,
{1},
{1}B4,
{1}B6,
{1}B7,
{1}C1,
{1}B3,
{1}B2,
{1}C1hf[1:2],
{1},
{1},
{1},
{4}8,8,7,7,
{4}6,6,4x/5x,,
{4}3,3,2,2,
{4}1,1,1x/8x,,
{4}7,7,7/8,,
{4}2,2,1/2,,
{4}8,8,1/8,,
{1}2x/7x,
{4}1,1,2,2,
{4}3,3,4x/5x,,
{4}6,6,7,7,
{4}8,8,1x/8x,,
{4}2,2,1/2,,
{1}3b/8b,
{4}1,1,2,2,
{4}3,3,2x/4x,,
{4}5,5,6,6,
{4}7,7,1x/8x,,
{4}2,2,1/2,,
{4}7,7,7/8,,
{4}1,1,1/8,,
{1}2x/7x,
{4}8,8,7,7,
{4}6,6,5x/7x,,
{4}4,4,3,3,
{4}2,2,1x/8x,,
{4}7,7,7/8,,
{4}2,2,1/2,,
{2}8,1/8,
{1}2x/7x,
{2}3h[2:1],4,
{4}6,6,5x/6x,,
{2}7h[2:1],8,
{4}1,1,1x/8x,,
{4}7,7,7/8,,
{4}2,2,1/2,,
{2}8,1/8,
{1}2x/7x,
{2}6h[2:1],5,
{4}3,3,3x/4x,,
{2}2h[2:1],1,
{4}8,8,1x/8x,,
{2}2/7,3/6,
{1}4x/5x,
{1}B4/B5,
{1}B3/B6,
{1}B2/B7,
{1}C1hf[4:5],
{1},
{1},
{1},
E
&inote_4=
(240){1},
{1},
{4}1x/2x,,,7x/8x,
{2},C1f/B2/B3/B6/B7,
{4},1xh[8:5]/8xh[8:5],,,
{4},1,8,2x/7x,
{8}6,,5/7,,4/6h[8:7],,,5x,
{8},4x,,5x,,,3/4,,
{8}3,,2/4,,3h[8:7]/5,,,4x,
{8},5x,,4x,,,5/6,,
{4}8,1/7,2h[8:3]/6h[8:3],,
{4},1x/2x,3x/8x,4x/7x,
{8}5/6,,3/4,,8h[8:3],,,1,
{4},1x/8x,2x/7x,3b/6b,
{8}4,,3/5,,2h[8:7]/6,,,5x,
{8},4x,,5x,,,3/4,,
{8}5,,4/6,,3/7h[8:7],,,5x,
{8},4x,,5x,,,1/7,,
{4}2,1/3,4h[8:3]/8h[8:3],,
{4},7/8,1/6,2/5,
{4}3,4,3h[4:1]/5h[4:1],,
{4}6,5,4h[4:1]/6h[4:1],,
{4}8,1,2h[8:3]/7h[8:3],,
{4},4/5,4x/5x,,
{4}1/2-5[16:5],,,7,
{4}7-4[16:5]/8,,,3,
{2}3h[2:1]/4,1h[2:1],
{2}8h[2:1],6,
{4}4>1[16:5]/6h[2:1],,,5,
{4}3h[2:1]/5<8[16:5],,,2,
{2}2h[2:1]/8,4h[2:1],
{2}5h[2:1],7,
{4}4h[2:1]/6-1[16:5],,,3,
{4}3-8[16:5]/5h[2:1],,,7,
{2}7h[2:1]/8,5h[2:1],
{2}4h[2:1],2,
{1}1<6[16:5]/2-6[16:5],
{2}B4/E4,E6/B6,
{2}B2/E2,E8/B8,
{2}E3/B3,B6/E7,
{1}1>8[4:5]/8,
{1},
{8}3x/8x,,4/7,,5/6,,6,5,
{4},3/4,2/5,1/6,
{1}7<8[4:5]/8,
{1},
{8}1x/6x,,2/5,,3/4,,3,4,
{4},5/6,4/7,3/8,
{1}1/2>1[4:5],
{1},
{8}3x/8x,,4/7,,5/6,,6,5,
{4},4/5,3/6,2/7,
{1}1-5[16:5]/8-6[16:5],
{1}1-3[16:5]/8-4[16:5],
{1}1s5[4:5]/8h[2:3],
{1},
{8}4/6,,5,,4,,3,3h[8:3],
{4},5x,4x,5x,
{4}3/7,6,4,5,
{8}3h[4:1],,6,6h[4:1],,5,5,,
{4}4/7,3,5,4,
{8}7h[4:1],,3,3h[4:1],,4,4,,
{4}2/5,6,3,4,
{8}1h[4:1],,6,6h[4:1],,5,5>1[2:1],,
{4}7,,,8,
{2}1h[4:1]/7h[4:1],2h[4:1]/6h[4:1],
{4}3h[2:1]/5h[2:1],,,4,
{8}3x/5x,,4x,5x,,5x,6x,,
{4}4xh[2:1]/7xh[2:1],,,5,
{8}4x/6x,,5x,4x,,4x,3x,,
{4}2xh[2:1]/5xh[2:1],,,6,
{4}2,7,3,8,
{4}4xh[1:3],,,8x>7[1:2],
{1},
{1},
{2},1x/8x,
{4}4,3/5,5,4/6,
{4}3,2/5,1/6,,
{4}3h[4:1]/4,5,5/6h[4:1],4,
{4}3/4,4/5,5b/6b,,
{4}5,4/6,4,3/5,
{4}6,4/7,3/8,,
{4}5/6h[4:1],4,3h[4:1]/4,5,
{4}5/6,4/5,3b/4b,,
{4}B3,B5,B2,B6,
{4}B1,B7,E1/B8,,
{4}B6,B4,B7,B3,
{4}B8,B2,B1/E1,,
{4}B3/E4/B4,C1,B1/B7/B8,,
{4}B5/B6/E6,C1,B1/B2/B8,,
{1}C1xh[2:3]/B3/B6,
{1},
{1}1>4[16:5]/8<5[16:5],
{1}C1f/B2/E3/B3/B6/B7/E7,
{4}4/6,5,3/5,2,
{8}2h[4:1],,1,1,,3/8,3q1[2:1]/8<4[2:1],,
{1},
{8}7h[4:1],,8,8,,1/6,1>5[2:1]/6p8[2:1],,
{4},,,2h[4:1],
{8}1,,3/8,3/8,,1,1pp3[2:1]*qq7[2:1],,
{4},,,2/8,
{4}2/4,5,5/7,4,
{4}3-7[16:5]/4-8[16:5],,,1,
{8}2x/8x,,4/7,4x/7x,,3/5,3x/5x,,
{4}2x/6x>3[16:5],,,2,
{8}4x/8x,,2/5,2x/5x,,3/7,3x/7x,,
{4}1x-4[16:5]/5x,,,5x,
{4}4x/6x,3x/7x,2b/8b,,
{4}1/6,2,3/8,7,
{8}4xh[4:1]/5x,,3,3x,,2/3,2x<7[2:1]/3xp6[2:1],,
{1},
{8}4x/5xh[4:1],,6,6x,,6/7,6xq3[2:1]/7x>2[2:1],,
{4},,,4x/5x,
{8}3x/6xh[4:1],,5,5xh[4:1],,4,4xq5[8:5],,
{4}3,,,1,
{4}2/6,4,3/7,5,
{4}2-5[16:5]/6-1[16:5],,,3/7,
{8}2xh[4:1]/5xh[4:1],,,4xh[4:1]/7xh[4:1],,,1x/6x,,
{4}3x-1[16:5]/8x-4[16:5],,,2/6,
{8}4xh[4:1]/7xh[4:1],,,2xh[4:1]/5xh[4:1],,,3x/8x,,
{4}1x-5[16:5]/6x-8[16:5],,,3/7,
{4}8,1/7,2/6,3/5,
{4}4xh[4:3],,,8xw4[2:1],
{1},
{8}6,,4,,5,4,,3/4,
{8},4/5,,5h[4:1]/6h[4:1],,,4x/7x,,
{8}3,,5,,4,5,,5/6,
{8},4/5,,3h[4:1]/4h[4:1],,,2x/5x,,
{8}6,,4,,5,4,,3h[8:3]/5h[8:3],
{4},,4,3x/5x,
{8}3/4,,4/5,,6,5,,4/7,
{4},1x/8x,2x/7x,3b/6b,
{8}4h[4:1],,5,,4,5,,B2/E3/B3,
{8},B6/B7/E7,,C1,,,4x/5x,,
{8}6h[4:1],,4,,5,4,,B6/B7/E7,
{8},B2/E3/B3,,C1,,,4x/5x,,
{8}3h[4:1],,5,,4,5,,2x/7x,
{4},B7/B8/E8,B3/B4/E4,C1,
{8}2x-5[16:5],2x,,,,,8x-4[16:5],8x,
{8},,,,1x-5[16:5],1x,,,
{8},,7x-4[16:5],7x,,,,,
{8}3x,,3x,,5x,4x,,4x/5x,
{4},C1f/B2/B3/B6/B7,,,
{1},
{1},
{1},
E
&inote_5=
(240){1},
{1},
{4}C1f/E7,,,C1f/E3,
{2},E1/C1f,
{8},,6,,7,,8,1,
{4},E1,C1,E5,
{8}3/4,,2/5,,3,4,,E2/E4,
{8},E5/E7,,E2/E4,,8,8,,
{8}5/6,,4/7,,6,5,,E6/E8,
{8},E3/E5,,E6/E8,,1,1,,
{8}3/8,,4/7,,6,5,,4/7h[8:3],
{4},5h[4:1],4h[4:1],2,
{8}3,,4,,6,5,,4b/8b,
{4},E1,E3,E5,
{8}5/6,,4/7,,6,5,,E6/E8,
{8},E3/E5,,E6/E8,,1,1,,
{8}3/4,,2/5,,3,4,,E2/E4,
{8},E5/E7,,E2/E4,,8,8,,
{8}1/6,,2/5,,3,4,,2h[8:3]/5,
{4},3h[4:1],4h[4:1],5,
{8}5/6,,4/5,,3,4,,2/5,
{8},3/6,,6,5,,4/7,,
{8}3/8,,2/7,,3,4,,1/6,
{4},E6,E5,E4,
{4}3>8[4:1],,5,6,
{4}6<1[4:1],,4,3,
{2}3h[4:1],1h[4:1]/2h[4:1],
{2}7h[4:1]/8h[4:1],6h[4:1],
{4}6<1[4:1],,4,3,
{4}3>8[4:1],,5,6,
{2}5h[4:1]/7h[4:1],3h[4:1]/4h[4:1],
{2}5h[4:1]/6h[4:1],2h[4:1]/4h[4:1],
{4}2>5[4:1],,8,7,
{4}7<4[4:1],,1,2,
{4}3<6[4:1],8h[2:1],,1,
{8}2h[8:3],,,3h[8:3],,,4>7[4:3],,
{4}7,,5,5,
{4}6h[4:1],5,4h[4:1],5,
{4}7h[4:1],5,3h[4:1],5,
{4}8h[4:1],5,3/7,4>1[4:1]/6,
{8}C1xh[4:7],,,,,,,1x<6[8:1],
{2},1x>4[8:1],
{8}1,,4,,3,,2,2,
{4},1/7,2/6,3/5<8[4:1],
{8}C1xh[4:7],,,,,,,8x>3[8:1],
{2},8x<5[8:1],
{8}8,,5,,6,,7,7,
{4},2/8,3/7,4>1[4:1]/6,
{8}C1xh[4:7],,,,,,,1x<6[8:1],
{2},1x>4[8:1],
{8}1,,4,,3,,2,2,
{4},E8,E4,C1,
{4}2,8<5[4:1],4,3,
{4}7,1>4[4:1],6,5s1[2:1],
{4}4,,,4,
{4}3/7,2/6,1/5,2/5,
{8}4/5,,3/6,,2/7,,1,8,
{4},E1,C1,E5,
{4}2-5[4:1]/7,5,6-1[4:1],1,
{8}2,,3,2/4,,6,5/7,,
{4}7/8,1/2,3/4,5/6,
{8}8-4[4:1],,3,3-8[4:1],,7,7<3[2:1],,
{4}3,2,1,3/5,
{8}1-5[4:1],,6,6-1[4:1],,2,2>6[2:1],,
{4}6,7,8,1-5[4:1],
{4}7,8-4[4:1],2,1>5[2:1],
{4}6,7,8,7,
{8}3<6[4:1],,7,7p2[4:1],,1,1,,
{4}8,8,7,5/6,
{8}1-4[4:1],,8,8-5[4:1],,1,1pp1[2:1],,
{4}6,7,8,7,
{4}5/6,2,3/4,7>3[8:5],
{4}5,,4qq8[4:3],5,
{1},
{4}E7,E1,E3,E5,
{4}B6/E7/B7,B2/B3/E3,C1f,,
{12}7,,6,5,,5,6,,4/7,,,2/4,
{8},,1,,8,,1/7,1/7,
{8},,2/8,,1/2,1/2,,7/8,
{4},1/8,5/7,1/8,
{12}2,,3,4,,4,3,,2/5,,,5/7,
{4},8,1,2/8,
{8}5/7,,4/6,,3/5,,2/4,2/4,
{4},5/6,3/5,5/6,
{12}4/7,,8,1,,2/7,,,1,8,,8,
{12}7,,7,5,,5,4,,4,2,,2,
{4}1,7h[4:1],5h[4:1],4h[4:1],
{8}2,,1,,7/8,7/8,,1/6,
{8},,3/8,,1/2,1/2,,4/8,
{4},6,4/5,3,
{8}2/7,,3/6,,5,4,,3/6<2[8:3],
{2},3<6[4:1],
{12}8,,,7,,7,5,,5,4,,4,
{4}2h[4:1],4h[4:1],5h[4:1],7,
{4}1/7-4[4:1],4,3-8[4:1],8,
{8}7,,6,5/7,,3,2/4,,
{4}1/2,7/8,5/6,3/4,
{8}1-5[4:1],,6,6-1[4:1],,2,2>6[2:1],,
{4}6,7,8,5/7,
{8}8-4[4:1],,3,3-8[4:1],,7,7<3[2:1],,
{4}3,2,1,8-4[4:1],
{4}2,1-5[4:1],7,8<4[2:1],
{4}2,2,1,2,
{8}3<6[4:1],,7,7p2[4:1],,1,1,,
{4}8,8,7,5/6,
{8}8-5[4:1],,1,1-4[4:1],,8,8qq8[2:1],,
{4}3,2,1,7,
{4}4/5,1,3x/7x,3x/7x,
{4}2/8-5[4:1],5,4-1[4:1],1,
{8}8,,7,6/8,,2,1/3,,
{4}1/8,5/7,4/5,2/4,
{8}2h[4:1]/3h[4:1],,,1h[4:1]/5h[4:1],,,6q3[2:1]/7>2[2:1],,
{4},,,4/6,
{8}6h[4:1]/7h[4:1],,,4h[4:1]/8h[4:1],,,2<7[2:1]/3p6[2:1],,
{4},,,8-4[4:1],
{4}2,1-5[4:1],7,8<4[2:1],
{4}3,3,2,2,
{8}1h[4:1]/4h[4:1],,,5h[4:1]/8h[4:1],,,6<1[4:1],,
{4}3,2,1/8,6/7,
{8}5h[4:1]/8h[4:1],,,1h[4:1]/4h[4:1],,,3>8[4:1],,
{4}6,6,7,8,
{4}5/6,1,3/4,8<2[2:1],
{4}5,,1-5[2:1],8,
{4},,2/7,1b/8b,
{8}3/4,,2/5,,3,4,,E2/B4,
{8},B4/E7,,E2/B4,,8,8,,
{8}5/6,,4/7,,6,5,,B5/E8,
{8},E3/B5,,B5/E8,,1,1,,
{8}3/8,,4/7,,6,5,,4/7h[8:3],
{4},5h[4:1],4h[4:1],2,
{8}3,,4,,6,5,,4x/8x,
{4},E1,E3,E5,
{8}5/6,,4/7,,6,5,,B5/E8,
{8},E3/B5,,B5/E8,,1,1,,
{8}3/4,,2/5,,3,4,,E2/B4,
{8},B4/E7,,E2/B4,,8,8,,
{8}1/6,,2/5,,3,4,,2h[8:3]/5,
{4},3h[4:1],4h[4:1],5,
{8}6,6,5,,E4/E8,,3,3,
{8}4,,E2/E6,,5,5,4,,
{8}B3/B6,,1,1,8,,E3/E7,,
{8}4/7,,2/5,,5,4,,3/6,
{32},,,,,,,,E6,B5,B4,E4,,,,,,,,,,,,,,,,,,,,,
{1},
{1},
{1},
E
