&title=徒花ネクロマンシー
&wholebpm=172
&artist=フランシュシュ
&des=はっぴー
&shortid=11062
&genre=POPSアニメ
&cabinet=DX
&version=maimai DX
&chartconverter=Neskol
&lv_2=3
&des_2=-
&lv_3=7
&des_3=-
&lv_4=10
&des_4=Jack
&lv_5=12
&des_5=はっぴー
&des_6=
&inote_2=
(172){1},
{1},
{1},
{1},
{1},
{1},
{1}1,
{1}1,
{1}2,
{1}2h[1:1],
{1},
{1}3,
{1}3,
{1}4,
{1}4,
{1}4x/5x,
{2}5,5,
{1}5,
{1}6h[1:1],
{1},
{2}7,7,
{1}7,
{1}8h[1:1],
{1},
{1}1-4[4:3],
{1},
{1}8-5[4:3],
{1},
{2}4,4,
{2}5,5,
{1}4h[1:1]/5h[1:1],
{1},
{1}B4/B5,
{1}B3/B6,
{1}B2/B7,
{1}C1hf[1:1],
{1},
{4}8x,8,8,,
{4}7,7,7,,
{1}6h[1:1],
{1},
{4}5,5,5,,
{4}4,4,4,,
{4}4x/5x,4x/5x,4x/5x,,
{1}4xh[2:1]/5xh[2:1],
{4}4,4,4,,
{4}3,3,3,,
{1}2h[1:1],
{1},
{4}1,1,1,,
{4}8,8,8,,
{4}1x/8x,1x/8x,1x/8x,,
{1}1xh[2:1]/8xh[2:1],
{2}1,1,
{2}2,2,
{4}3,3,3,,
{1}4h[2:1],
{2}5,5,
{2}6,6,
{4}7,7,7,,
{2}1x/8x,1b/8b,
{1}1xh[2:1]/8xh[2:1],
{1}2xh[1:2]/7xh[1:2],
{1},
{1},
{1},
{1},
E
&inote_3=
(172){1},
{2}B6,B4,
{2}B2,C1,
{2}B6,B7,
{1}C1hf[1:1],
{1},
{4}2,2,1x/2x,,
{4}8,8,1x/8x,,
{4}2,2,1,1,
{4}8,8,7,7,
{4}8,8,2x/7x,,
{4}7,7,7x/8x,,
{4}1,1,1x/8x,,
{4}7,7,8,8,
{4}1,1,2,2,
{4}1x/8x,1x/8x,2b/7b,,
{4}6h[2:1],,5,5,
{4}4h[2:1],,5,5,
{4}6h[2:1],,5,5,
{4}4,3,3x/4x,,
{4}3h[2:1],,4,4,
{4}5h[2:1],,4,4,
{4}3,3,2,2,
{4}1,8,2x/7x,,
{1}8-5[2:1],
{2}4x,4x,
{1}4-1[2:1],
{2}8x,8x,
{1}8<5[2:1],
{1}4>1[2:1],
{1}8-4[2:1],
{4}3x,3x,3>4[2:3],,
{1},
{1},
{2}B4/B5,B3/B6,
{2}B2/B7,C1hf[2:1],
{1},
{4}2,2,1/2,1/2,
{4}8,7,7/8,7/8,
{4}6,5,4,3,
{4}2,1/2,3x/8x,,
{4}3h[4:1],4,6h[4:1],5,
{4}3,3/4,6,5/6,
{4}3,2,1,8,
{4}7x,7x/8x,1x/6x,,
{4}7,7,7/8,7/8,
{4}1,2,1/2,1/2,
{4}3,4,5,6,
{4}7,7/8,1x/6x,,
{4}6h[4:1],5,3h[4:1],4,
{4}6,5/6,3,3/4,
{4}6,7,8,1>5[8:7],
{1},
{4},6,5,4,
{4}3,1x/2x,8,1x/7x,
{4}6,5,4,3,
{4}2,1x/2x,3x/8x,,
{4}2,3,4,5,
{4}6,7x/8x,1,2x/8x,
{4}3,4,5,6,
{4}7,7x/8x,1b/6b,,
{1}2x/8xh[1:1],
{1}1b>7[8:15],
{1},
{1},
{1},
{1},
E
&inote_4=
(172){1},
{8}1/2,1/2,,3h[8:3]/8h[8:3],,,,,
{8}7/8,7/8,,1h[8:3]/6h[8:3],,,,,
{16}1/2,,,,7/8,,,,4x/5x,,,3x/6x,,,2xqq5[8:5]/7xpp4[8:5],,
{1},
{4}C1f/B2/B3/B6/B7,,,1b/8b,
{8}3/4,,2,2-5[8:1],,,8,,
{8}5/6,,7,7-4[8:1],,,1,,
{1}2V48[2:1]/5h[4:3],
{1}4h[4:3]/7V51[2:1],
{8}4/5,,3/6,3/6,,2/7,2/7,,
{8}5/6,,7,7-4[8:1],,,1,,
{8}3/4,,2,2-5[8:1],,,8,,
{8}5/6,,7,7>2[8:1],,,4,,
{2}3-8[8:1],6-1[8:1],
{6}2,3x,4x,5x,6x,7x,
{4}1b/8b,,6,4/5,
{4}3<6[8:1],,7,5/6,
{4}4h[4:1],E6,C1,E2,
{8}8h[4:1],,1,1,,8,8,,
{4}7<4[8:1],,3,4/5,
{4}6>3[8:1],,2,3/4,
{4}5h[4:1],E4,C1,E8,
{1}1p8[2:1],
{8}5,,3/7,3b/7b,,1,1pp4[4:3],,
{1},
{8}4,,2/6,2b/6b,,8,8qq5[4:3],,
{1},
{4}5h[2:1],4,3,2/6,
{4}4h[2:1],5,6,3/7,
{4}2,1/3,7,6/8,
{4}4>1[4:1]/5<8[4:1],,,4/5,
{8}3h[4:1],,4,4,,2/5,,6,
{8}6h[4:1],,5,5,,4/7,,3,
{8}3h[8:3],,,4h[8:3],,,5,,
{2}2b/7b,B2/E2/E6/B6,
{2}B3/E4/B7/E8,C1/E1/E5,
{8}1x/8x,2x/7x,3x/6x,4b>1[4:1]/5b<8[4:1],,,,,
{8},2x/7x,2x/7x,,4/6,,2,2pp5[8:5],
{8},7,7h[4:3],,,,,,
{8}8x,,1/6,1/6,,8,8,1x/7x,
{8},2-4[8:1],,5,,7-5[8:1],,4,
{8},1>4[8:1],,5,,8<5[8:1],,4,
{8}4h[4:1],,5,5,,2/7,2/7,,
{16}3x/6x,,,2x/7x,,,1x-5[8:1]/8x-4[8:1],,,,,,,,,,
{8}2b/7b,,4/5,4>1[4:1]/5<8[4:1],,,,,
{8},2x/7x,2x/7x,,3/5,,7,7qq4[8:5],
{8},2,2h[4:3],,,,,,
{8}1x,,3/8,3/8,,1,1,2x/8x,
{8},7-5[8:1],,4,,2-4[8:1],,5,
{8},8<5[8:1],,4,,1>4[8:1],,5,
{8}5h[4:1],,1,1,,3/7,,2x-5[8:1]/6x-1[8:1],
{8},,,3x-8[8:1]/7x-4[8:1],,,,2b/6b,
{4},3h[4:1],4h[4:1],5h[4:1],
{8}6h[4:1],,5,5,,4/7,,3h[4:1],
{8},4,4,,2/5,2/5,,4/7,
{8},1/8,,3x/6x,2x/7x,1x>4[8:1]/8x<5[8:1],,,
{8},,,1,1,8,8,1x-5[8:1]/2x-4[8:1],
{8},,,7x-5[8:1]/8x-4[8:1],,,,1x/8x,
{8},4/5,4/5,3/6,3/6,2/7,2/7,,
{16}1x,8x,1x,8x,1x,,,,2b/7b,,2xh[8:27]/7xh[8:27],,,,,,
{1},
{1},
{1},
{1},
{1},
{1},
E
&inote_5=
(172){1},
{16}3,4,3,,,,1h[4:1]/5h[4:1],,,,,,1/5,,,,
{16}6,5,6,,,,4h[4:1]/8h[4:1],,,,,,4/8,,,,
{16}2/4,,,,1/8,,,,5/7,,,4/5,,,2/4<3[2:1],,
{1},
{8}C1f,,,,,1/8,1/8,,
{8}2/7h[4:1],,5,5-1[8:1],,8,,2,
{8}2h[4:1],,4,5<8[8:1],,1,1>4[8:1],,
{8}8h[4:1],,6,6,,2h[4:1],,3,
{8}3<8[4:1],,1,1h[4:1],,8,8,,
{8}3/7,,2-6[8:1],6-2[8:1],,8b,8b,,
{8}2h[4:1],,4,4-8[8:1],,1,,7,
{8}7h[4:1],,5,4>1[8:1],,8,8<5[8:1],,
{8}1h[4:1],,3,3,,7h[4:1],,6,
{8}6>1[4:1],,8,8h[4:1],,1,2h[4:1]/7h[4:1],,
{6},1/8,2/4,5/7,1/8,2/4,
{16}3b/7b,,,,,,,,2h[16:3],,,3h[16:3],,,4,,
{8}4-1[8:1],,8,8h[4:1],,6h[4:1],,5,
{4}5-8[8:1],4-2[8:1],5-7[8:1],1,
{16}1,8,2h[4:1],,,,4,3,5h[4:1],,,,3,4,2h[4:1],,
{16},,1,,8,,7,,7h[16:3],,,6h[16:3],,,5,,
{8}5-8[8:1],,1,1h[4:1],,3h[4:1],,4,
{4}4-1[8:1],5-7[8:1],4-2[8:1],8h[4:1],
{16}1,,,5/7,,,2b/6b,,,,5,,4,,6,,
{16}8,,2-6[8:1],,,,2,,,,8x,7x,6x,5x,4x,,
{16}2,1,,7,8,,1-5[8:1]/6,,,,8,,8,,3,,
{16}1,,7-3[8:1],,,,7,,,,1x,2x,3x,4x,5x,,
{16}7,8,,2,1,,3/8-4[8:1],,,,2,,2,,1,,
{4}1>4[4:1],5,8<5[4:1],4,
{4}1>4[4:1],5,8-4[4:1],4>5[2:1],
{1}8x,
{4}4-1[8:1]/5-8[8:1],4x/5x,,2/7,
{8}8-4[8:1],,3,2-6[8:1],,8h[4:1],,5,
{8}5-1[8:1],,6,6-3[8:1],,2,2h[4:1],,
{8}C1xh[8:3]/B4/B5,,,1,,,1/8,,
{2}3b/6b,4-1[2:1],
{2}5-8[2:1],4h[2:1],
{8}8,8<3[4:1],E1,C1f,,1,1h[4:1],,
{8}8,6,5,4,3,1-5[8:1],1,8h[4:1],
{8},7,7<1[4:1],,B1/B8,,B4/B5,,
{8}1,1,8,2,3,4,5,6-1[8:1],
{8},3-8[8:1]/6,,3/7-4[8:1],,3-8[8:1]/7,,3/6-2[8:1],
{8},1>7[4:1]/6,,7x,,8h[4:1],,1,
{32}1,,,,,,,,7/8,,,,1/6,,,,,,,,1/2,,,,3/8,7,6,5,4,3,2,1,
{16}8,,,1/8,,,3-8[8:1]/7-4[8:1],,,,3b/7b,,,,,,
{8}1,1>6[4:1],E1,C1f,,8,8h[4:1],,
{8}1,3,4,5,6,8-4[8:1],8,1h[4:1],
{8},2,2>8[4:1],,B1/B8,,B4/B5,,
{8}8,8,1,7,6,5,4,3-8[8:1],
{8},3/6-1[8:1],,2-5[8:1]/6,,2/6-1[8:1],,3-7[8:1]/6,
{8},3/8<3[4:1],,2x,,2x,,1,
{8}1h[4:1],,3,3h[4:1],,4h[4:1],,8-4[8:1],
{8},2-7[8:1]/8,,2/5-8[8:1],,1>6[4:1]/5,,1b/8,
{4},E1,B3/E3/B4,B5/B6/E7,
{8}E1/E2/E8,,1,1>4[8:1],,5<8[8:1],,1h[4:1],
{8},6,6h[4:1],,5,5,,4-1[8:1]/8-5[8:1],
{8},4/8,,2/6,3/7,4>7[4:1]/8,,5x,
{8},,,8,8,1,6,4-1[8:1],
{8},8-4[8:1],8,1-5[8:1],,8x,,2/7,
{8},2,3/4,5,5/6,7,1b/8b,2b/7b,
{16}4,5,4,5,4,,,,B1/E2/E8/B8,,B4/E4/B5/E6,,,,,,
{1}1h[1:3],
{1}C1xh[1:2],
{1},
{1},
{1},
{1},
E
