&title=メルト
&wholebpm=170
&artist=supercell
&des=ロシェ@ペンギン
&shortid=11043
&genre=niconicoボーカロイド
&cabinet=DX
&version=maimai DX
&chartconverter=Neskol
&lv_2=3
&des_2=-
&lv_3=6
&des_3=-
&lv_4=8+
&des_4=華火職人
&lv_5=11+
&des_5=ロシェ@ペンギン
&des_6=
&inote_2=
(170){1},
{1},
{1},
{1},
{1},
{1},
{1},
{1},
{1},
{1}5,
{1}5,
{1}6,
{1}6,
{1}7,
{1}7,
{1}8h[1:1],
{1},
{1}1,
{1}1,
{1}2,
{1}2,
{1}3,
{1}3,
{1}4h[1:1],
{1},
{1}B5,
{1}B6,
{1}B7,
{1}B8,
{1}B1,
{1}B2,
{1}B3,
{1}B4,
{1}C1f,
{1},
{2}8x,8,
{1}8,
{2}7,7,
{1}7,
{2}6,6,
{1}6,
{2}4/5,4/5,
{1}4b/5b,
{2}4x,4,
{1}4,
{2}3,3,
{1}3,
{1}2-6[4:3],
{1},
{1}7-3[4:3],
{1},
{2}2,2,
{2}3,3,
{1}4h[1:1],
{1},
{1}B5,
{1}B4,
{1}B6,
{1}B3,
{1}C1hf[1:2],
{1},
{1},
{1},
{2}8,8,
{2}7,7,
{2}6,6,
{1}4/5,
{2}4,4,
{2}3,3,
{2}2,2,
{2}1,1b,
{1}1h[1:1],
{1},
{1}8h[1:1],
{1},
{1}1h[1:1],
{1},
{1}8-4[4:3],
{1},
{4}3x,3,3,,
{4}3,3,3,,
{1}4h[1:1],
{1},
{4}5,5,5,,
{4}5,5,5,,
{2}6,6,
{1}6b,
{4}7x,7,7,,
{4}7,7,7,,
{1}8h[1:1],
{1},
{2}1,1,
{2}8,8,
{1}1-5[4:3],
{1},
{2}8,8,
{2}1,1,
{1}8-4[4:3],
{1},
{4}3,3,3,,
{4}3,3,3,,
{4}2,2,2,,
{4}2,2,2,,
{4}1,1,1,,
{4}1,1,1,,
(150){1}1-4[0.4000000000000057##1.1999999999999886]/8-5[0.4000000000000057##1.1999999999999886],
(73){1},
(79){1}C1hf[1:1],
{1},
{1},
{1},
E
&inote_3=
(170){1},
{2}6h[2:1],5,
{4}5,5,4/6,,
{2}3h[2:1],4,
{4}4,4,3/5,,
{2}6h[2:1],5,
{4}5,5,4/6,,
{1}3h[1:1],
{2}6,4/5,
{4}3,3,3/4,,
{4}5,5,4/5,,
{4}3,3,4,4,
{4}5,5,6,6,
{2}5/7,4/5,
{2}2/4,4/5,
{1}6>3[4:3],
{2},4/5,
{4}6,6,5/6,,
{4}4,4,4/5,,
{4}6,6,5,5,
{4}4,4,3,3,
{2}2/4,4/5,
{2}5/7,4/5,
{1}3<6[4:3],
{2},4/5,
{2}B3,B4,
{2}B5,B6,
{1}B7,
{1}C1,
{2}B6,B5,
{2}B4,B3,
{1}B2,
{1}B3/B6,
{1}C1hf[1:1],
{1},
{4}3b,3,4,4,
{4}5,6,7,8,
{4}1,2,3,4,
{2}5x/6x,4/7,
{4}5,6,5/6,,
{4}4,3,3/4,,
{4}5,5,4,4,
{4}5,4,3x/6x,,
{4}6b,6,5,5,
{4}4,3,2,1,
{4}8,7,6,5,
{2}3x/4x,2x/5x,
{2}3h[2:1],4,
{2}6h[2:1],5,
{4}6,6,5,5,
{4}4,4,3x/5x,,
{2}6h[2:1],5,
{2}3h[2:1],4,
{1}4-1[4:3]/5-8[4:3],
{2},1/8,
{1}2h[1:1],
{1}1h[1:1],
{1}8h[1:1],
{1}7,
{1}7h[1:1],
{1}8h[1:1],
{1}1h[1:1],
{1}2b,
{4}2,2,3,3,
{4}4,5,4/6,,
{4}7,7,6,6,
{4}5,4,3/5,,
{4}2,2,3,3,
{4}4,5,4/6,,
{1}4x-1[4:3]/5x-8[4:3],
{2},2x/7x,
{1}E8,
{1}E1,
{1}E2,
{1}E2,
{1}E1,
{1}E8,
{1}C1hf[1:1],
{1},
{4}6b,6,5,5,
{4}4,3,2,1,
{4}8,7,6,5,
{4}3x/4x,3/4,2/5,,
{4}1,2,1/2,,
{4}8,7,7/8,,
{4}1,1,8,8,
{4}1,8,2x/7x,,
{4}3b,3,4,4,
{4}5,6,7,8,
{4}1,2,3,4,
{4}5x/6x,5/6,4x/7x,,
{2}7h[2:1],8,
{2}2h[2:1],1,
{4}2,2,1,1,
{4}8,8,1x/7x,,
{2}7h[2:1],8,
{2}2h[2:1],1,
{1}1>4[4:3]/8<5[4:3],
{2},4/5,
{2}6h[2:1],5,
{4}5,6,4/7,,
{2}3h[2:1],4,
{4}4,3,2/5,,
{2}6h[2:1],5,
{1}4/5,
(150){1}B4/B5,
(73){1}E4/E6,
(79){1}C1xh[1:1],
{1},
{1},
{1},
E
&inote_4=
(170){1},
{4}6,5/7,4,3/4,
{4}5h[4:1],6h[4:1],7h[4:1],,
{4}3,2/4,5,5/6,
{4}4h[4:1],3h[4:1],2h[4:1],,
{4}6,5/7,3,2/4,
{4}1/8,2/7,3/6,4/5<4[4:3],
{1},
{1}3p6[8:3]/6,
{4}7,5/6,4,3/5,
{4}3/4,3/4,2,1,
{4}2,3,4/6,5x,
{4}4x/6x,3x/7x,2x/8x,1x,
{2}1-3[8:1],7-5[8:1],
{2}8-3[8:1],7-4[8:1],
{1}1>8[2:1],
{4}1/8,5/6,2x/7x,,
{4}2,3/4,5,4/6,
{4}5/6,5/6,7,8,
{4}1,2,3,4x,
{4}3x/5x,2x/6x,1x/7x,8x,
{2}8-6[8:1],2-4[8:1],
{2}1-6[8:1],2-5[8:1],
{1}8<1[2:1],
{4}1/8,2/7,3x/6x,,
{2}4h[2:1]/6,B5,
{2}3h[2:1]/4,B4,
{2}3/5h[2:1],B4,
{2}5/6h[2:1],B5,
{2}B6,B1/B2,
{2}B4,B7/B8,
{1}2>7[2:1],
{4}8,1/7,2/6,3/5,
{2}4h[2:1],8h[2:1],
{1}C1f,
{4}1p4[4:1]/8<5[4:1],,,3,
{4}1/2,8,5/6,4,
{1}1/2>7[2:1],
{4}2b/8b,7,6,3/5,
{4}2h[2:1],4,1,1/8,
{8}6h[8:3],,5,5,,,4/5,,
{4}2h[4:1],4,7h[4:1],5,
{4}3/6,4x/5x,3x/6x,2x/7x,
{4}1>4[4:1]/8q5[4:1],,,6,
{4}7/8,1,3/4,5,
{1}7<2[2:1]/8,
{4}1b/7b,2,3,4/6,
{8}7h[4:1],,5,5-1[4:1],,,,,
{8}2h[4:1],,4,4-8[4:1],,,,,
{8}4/5,,3,3,6,6,1,1,
{8}7,7,7/8,,2/5,,3/4,,
{8}4/5h[2:1],,,8,8,,3/6,,
{8}4h[2:1]/5,,,1,1,,4/5,,
{8}3/6,,2/7,2/7,2/7,,1/8,1/8,
{1}1bp5[4:1]/8b,
{2}4/5,B5,
{2}B6,B7,
{2}B8,B1,
{2}B2,B3,
{2}B4/B5,C1,
{2}B1/B8,B2/B7,
{4}C1f,,,1/8,
{4}1/8,4/5,2b/6b,,
{4}7/8,6,4/5,3,
{8}2,2,4,,7,7,5,,
{2}4-2[8:1]/5,4-7[8:1],
{8}4-1[8:1],,,,8,7,5/6,,
{4}4h[4:1],3h[4:1],2h[4:1],1h[4:1],
{4}8h[4:1],7h[4:1],6h[4:1],5,
{8}2x/4x,,,5x/7x,,,1x/2x,,
{8},7x/8<5[8:3]*>3[8:3],,,,,,,
{2}3/4h[2:1],5,
{4}5/6,4,3,,
{2}4h[2:1]/5,3,
{4}3/4,5,6,,
{2}4h[2:1]/5,3h[2:1],
{2}4h[2:1],5h[2:1],
{1}C1hf[1:1],
{1},
{4}7<4[4:1]/8p3[4:1],,,2,
{4}1/8,7,5/6,4,
{1}1/2>7[2:1],
{4}2b/7b,6,5,4/6,
{4}3h[2:1]/4,2,1,1/8,
{8}6h[8:3],,5,5,,,4/5,,
{4}1/2h[4:1],4,7h[4:1]/8,5,
{4}3/6,5x/6x,4x/7x,3x/8x,
{4}1q6[4:1]/2>5[4:1],,,7,
{4}1/8,2,3/4,5,
{1}7<2[2:1]/8,
{4}2b/7b,3,4,4/5,
{8}5/6h[4:1],,8,8-3[4:1],,,,,
{8}2h[4:1]/4,,1,1-6[4:1],,,,,
{8}4/5,,3,3,6,6,1,1,
{8}7,7,6/8,,1/2,,2x/7x,,
{8}4/5h[2:1],,8,8-6[8:1],,,,,
{8}4h[2:1]/5,,1,1-3[8:1],,,,,
{8}4/5,,2/7,2/7,2/7,,1/8,1/8,
{2}1b/8b,C1,
{4}2,1/3,8,7/8,
{4}1h[4:1],2h[4:1],3h[4:1],,
{4}7,6/8,1,1/2,
{4}8h[4:1],7h[4:1],6h[4:1],,
{4}2,1/3,7,6/8,
{4}4/5,3/6,2/7,1>8[0.3529411764705799##1.1999999999999886]/8,
(150){1},
(73){1}2x/7x<2[8:3],
(79){1}C1xh[1:1],
{1},
{1},
{1},
E
&inote_5=
(170){1},
{8}2x/8x,,3,4,3h[1:1],,4,,
{4}2,1<4[4:1],,,
{8}1/7,,6,5,6h[1:1],,5,,
{4}7,8>5[4:1],,,
{8}2,,3,4,3h[1:1],,2,,
{8}1,,8,,7,,4,5,
{1}3qq5[2:1]/6pp4[2:1],
{1}4xqq1[2:1]/5xpp8[2:1],
{8}2x/7x,,3,,4,,6,6,
{8}4,4,5h[4:1],,4,,3,,
{8}3h[4:1],,5,4,6h[4:1],,7h[4:1],,
{4}8h[4:1],1h[4:1],2h[4:1],3h[4:1],
{2}4x-7[8:1],4x-7[8:1]*-8[8:1],
{2}4x-1[8:1]*-7[8:1],4x-2[8:1]*-7[8:1],
{1}4xpp4[2:1]*qq4[2:1],
{8}6,,5/7,,4,4,3/5,,
{4}2x/7x,6h[4:1],5h[4:1],4h[4:1],
{8}3,3,2/5,,5/6,,7,8,
{8}7,,2,1,2v1[8:1],,,,
{4}7v8[8:1],,3,4/5,
{2}5x-2[8:1]/7x,5x-1[8:1]*-2[8:1],
{2}5x-2[8:1]*-8[8:1],5x-2[8:1]*-7[8:1],
{1}5xpp5[2:1]*qq5[2:1],
{8}3,,3/5,,6,5,4/7,,
{4}1xh[2:3],E1,C1,E5,
{4}3,4,5,6,
{2}C1/B7/E8/B8,C1/B1/B2/E2,
{1}C1xh[2:1],
{4}8xh[2:3],E1,C1,E5,
{4}6h[4:1],,1,1<5[2:1]/2h[4:3],
{4},,,8>4[2:1],
{4}7,7,6,4-7[8:1]/5-7[8:1],
{4},4-2[8:1]/5-2[8:1],,4/5,
{4}C1f,,2/7,8<3[4:1],
{8}1xh[2:1]/8x,,,8,8,,8-4[4:1],,
{4}4<7[4:1],7-3[4:1],3<6[4:1],6,
{8}8,,1w5[4:1],1,,,,,
{4}2/8,3/7,4/6,5pp5[8:3]*qq5[8:3],
{4},,3/7,3/8,
{8}1/5h[4:3],,7,7,,3,3>8[4:1],,
{4}4,6<1[4:1],5,3,
{4}4/5h[4:3],6,8,1x>6[4:1],
{8}1x/8xh[2:1],,,1,1,,1-5[4:1],,
{4}5>2[4:1],2-6[4:1],6>3[4:1],3,
{8}1,,2v3[4:1]/7v6[4:1],2/7,,,,,
{4}2/7,4/5,6/8,1/3,
{8}5/7>3[4:1],,4,4,,,4/5,,
{8}2<6[4:1]/4,,5,5,,,4/5,,
{8}3h[4:1]/7h[4:1],,,1>7[8:7]/5h[8:9],,,,,
{4},,,1/6,
{8}3h[8:5],,4,4h[4:1],,,2/5,,
{8}6h[8:5],,5,5h[4:1],,,4/7,,
{1}1pp4[2:1]/5pp8[2:1],
{8}3/6,5,4,5,3/6,,,,
{2}4h[1:2],C1,
{4}1,1,8,8,
{4}C1xh[2:3],,8,1,
{1}2h[2:1],
{4}3h[4:1],4h[4:1],C1,,
{4}6h[4:1],5h[4:1],C1,,
{8}1b,8,2,7,3,6,4,5,
{8}4x>1[8:1]/7x<4[8:1],,,,1x/8x,2b/7b,,,
{8}1x-5[8:1]/5x,,8,8-6[8:1],,2,2-4[8:1],,
{8}8,8-4[8:1],,1,1,,2/8,,
{2}1-5[8:1]/6-8[8:1],3-1[8:1]/8-4[8:1],
{8}1/6xh[4:3],,5,5,4,3,2,1,
{8}8h[4:1],6,6,7h[4:1],5,5,6h[4:1],4,
{8}4,5h[4:1],3,3,4,3,2,1,
{8}1x/7x,,4/5,2x/7x,,4/5,3x/7x,,
{8}4/5,2x/7x,,4/5,1b/7b,,,,
{1}3h[2:3]/5h[2:1],
{4}6,6,6h[1:2],,
{1}4h[2:1],
{4}3,3,3h[1:2],,
{1}5h[2:1],
{8}6,,6,,6,,4,5,
{1}4w8[2:1],
{4}3/4,2/5,1/6,7/8<3[4:1],
{8}1xh[2:1]/8x,,,8,8,,8-4[4:1],,
{4}4>1[4:1],1-5[4:1],5<8[4:1],8,
{8}1,,3v1[4:1]/7v5[4:1],3/7,,,,,
{4}3/5,4/6,2/5,4/7,
{8}1h[8:3]/4,,5,5,,4/6,4/6,,
{8}5/8h[8:3],,4,4,,3/5,3>8[4:1]/5,,
{4}4,6<1[4:1],5,3h[4:3],
{4}4,2,8,1>6[4:1]/6,
{8}1x/8xh[2:1],,,1,1,,1-5[4:1],,
{4}5<8[4:1],8-4[4:1],4>1[4:1],1,
{8}8,,1v4[4:1]/7v4[4:1],1/7,,,,,
{4}1/3<6[8:1],8,5/7>2[8:1],4,
{8}1/3h[8:3],,4,4<6[8:1],,,1,,
{8}6h[8:3]/8,,5,5>3[8:1],,,7,6,
{8}4/5,,1/6,1s5[8:5]/6h[8:7],,,,,
{4},,4/6,2/5,
{8}3V51[2:1]/4,,6,6,,,8,,
{8}5/6V48[2:1],,3,3,,,1,1,
{8}1/8,,2p6[2:1]/7q3[2:1],2/7,,,,,
{8},,,5,6,5,4,,
{8}1x/7x,,6,5,6h[4:5],,7,,
{4}3,8>4[4:1],8x,,
{8}2/8,,3,4,3h[4:5],,2,,
{4}6,1<5[4:1],1x,,
{8}1/7,,6,5,6h[1:1],,7,,
{8}3,,8,,2,,4,5,
(150){1}3qq5[2:1]/6pp4[2:1],
(73){1}4xqq1[2:1]/5xpp8[2:1],
(79){16}2x/7x,,,,E1,E2,E3,E4,E5,E6,E7,E8,,,,,
{1}B1/C1f/B2/B7/B8,
{1},
{1},
{1},
E
