&title=フレ!フレ!ベストフレンズ
&wholebpm=166
&artist=どうぶつビスケッツ×PPP「けものフレンズ」
&des=はっぴー
&shortid=11042
&genre=POPSアニメ
&cabinet=DX
&version=maimai DX
&chartconverter=Neskol
&lv_2=4
&des_2=-
&lv_3=7
&des_3=-
&lv_4=9
&des_4=華火職人
&lv_5=11
&des_5=はっぴー
&des_6=
&inote_2=
(160){1},
{1},
{4},,,(130),
(166){1},
{1},
{1},
{1},
{1}4,
{1}3,
{1}2,
{1}1h[2:1]/8h[2:1],
{1}8,
{1}8,
{1}7x,
{1}7b,
{1}6,
{1}6,
{1}5x,
{1}5b,
{1}B4,
{1}B3,
{1}B2,
{1}B1,
{1}B8,
{1}B7,
{1}B6,
{1}B5,
{1}C1hf[1:1],
{1},
{2}1,1,
{1}1,
{2}2,2,
{1}2,
{2}3,3,
{1}3,
{2}4,4,
{1}4/5,
{2}5,5,
{2}6,6,
{2}7,7,
{1}1h[2:1]/8h[2:1],
{1}1-5[4:3],
{1},
{2}8,8,
{1}1/8,
{1}8-4[4:3],
{1},
{2}1,1,
{1}1b/8b,
{2}2,2,
{2}3,3,
{2}4,4,
{1}4h[2:1]/5h[2:1],
{4}5,5,5,,
{2}4/5,4/5,
{4}6,6,6,,
{2}5/6,5/6,
{4}7,7,7,,
{2}7/8,7/8,
{4}1,1,1,,
{2}1/8,1/8,
{8}8b,,,,,,,1x,
{8},1x,,1x,,,,,
{1},
{1},
{1},
E
&inote_3=
(160){1},
{1},
{4},,,(130),
(166){4}6,6,5/6,,
{4}3,3,3/4,,
{4}6,6,5,5,
{4}4/5,4/5,3x/6x,,
{4}4,4,3,3,
{4}2,2,1/2,,
{4}8,8,1,1,
{4}1/8,1/8,2b/7b,,
{4}6,6,5,,
{4}3,3,4,,
{4}6,6,5,4,
{4}3,3,2x/4x,,
{4}3,3,4,,
{4}6,6,5,,
{4}3,3,4,5,
{4}6,6,5b/7b,,
{1}6-1[8:3],
{1}2-5[8:3],
{1}6>3[8:3],
{4}2,2,2b,,
{2}B2,C1,
{1}B6,
{2}B7,C1,
{1}B3,
{2}B5,B4,
{1}C1hf[2:1],
{4}7,7/8,1,1/8,
{4}2,1/2,3x/8x,,
{4}3h[4:1],4,5,6h[4:1],
{4}5,5/6,4b/7b,,
{4}2,1/2,8,1/8,
{4}7,7/8,1x/6x,,
{4}6h[4:1],5,4,3h[4:1],
{4}4,3/4,2b/5b,,
{4}2,2,1x/2x,1x/2x,
{4}7,7,7x/8x,7x/8x,
{4}6,5,4,3,
{4}2,1x/2x,3b/8b,,
{4}2,2xh[4:1],1,8,
{4}7,7xh[4:1],8,1,
{4}2,3h[4:1],4,4,
{4}5,6,5b/7b,,
{1}5h[2:1]/6h[2:1],
{1}3h[2:1]/4h[2:1],
{2}5h[2:1],4h[2:1],
{4}5,4/5,3x/6x,,
{4}2,1,1/8,1/8,
{4}7,1/8,2x/7x,,
{4}7,8,1/8,1/8,
{4}2,1/8,2b/7b,,
{4}6h[2:1],,5,4,
{4}3,3,2/4,,
{4}3h[2:1],,4,5,
{4}6,6,5/7,,
{4}6h[2:1],,5,4,
{4}3,3,2/4,,
{4}3,2,1,8,
{4}1/8,2/7,3b/6b,,
{4}4x/5x,4x/5x,3x/6x,3x/6x,
{4}2x/7x,1x/8x,2b/7b,,
{1},
{1},
{1},
E
&inote_4=
(160){1},
{2},7x,
{4}7x,,7x,(130),
(166){1}3<6[2:1],
{1}6>3[2:1],
{4}2,1,8,7,
{1}1h[2:1]/8h[2:1],
{4}3,3,4/5,4/5,
{4}6,6,3/5,3/5,
{4}4,4,3/6,3/6,
{2}4h[4:1]/5h[4:1],C1f/B2/B3/B6/B7,
{8}1h[8:3],,,8h[2:1],,,,7h[8:5],
{4},,6h[4:1],4x,
{4}3,2,1/8,1/8,
{4}7,6,2/5,1b,
{8}8h[8:3],,,1h[2:1],,,,2h[8:5],
{4},,3h[4:1],5x,
{4}6,7,1/8,1/8,
{8}3/6,,4/5,4h[8:3]/5h[8:3],,,,,
{2}B3/E5,B1,
{2}E5/B6,B8,
{2}B2/B5,B4/B7,
{1}C1hf[2:1],
{4}6,5,3,4,
{8}2/7,,1/8,1/8<5[16:5],,,,,
{4}4,4,6,6,
{8}4,,6,6>3[4:1],,,,,
{4}2,3,4,5,
{4}4-1[4:1]/5-8[4:1],,,2b/7b,
{8}1/8,,5/6,5/6,,2/4,,7/8,
{8},3/5,3/5,,1b,,1b,,
{8}2/8,,3/4,3/4,,5/7p2[16:5],,,
{4},1h[4:1],7h[4:1],5,
{8}1/8,,3/4,3/4,,5/7,,1/2,
{8},4/6,4/6,,8b,,8b,,
{8}1/7,,5/6,5/6,,2/4,,3/6,
{8},1x/8x,1x/8x,2x/7x,,,3/4,,
{4}2h[4:3]/5,4,3,1,
{4}4/7h[4:3],5,6,8,
{4}1/8,2/7,3/6,4q5[2:1]/5,
{4},,,1x/8x,
{8}7,7,8,,6,6,8,,
{8}2,2,1,,3,3,1,,
{1}2-7[16:5],
{1}4/5-8[8:3],
{2}B3,B5,
{2}B7,B1,
{1}C1hf[1:1],
{1},
{4}6,6,4/5,4/5,
{4}3,3,4/6,4/6,
{4}5,5,3/6,3/6,
{2}4h[4:1]/5h[4:1],C1f/B2/B3/B6/B7,
{4}1/8,2/7,2h[2:1],1,
{4}7h[4:1],8,1/6,8b,
{4}2h[2:1],1,7h[2:1],8,
{4}2h[4:1],1,3/8,1b,
{4}2h[2:1],4,7h[2:1],5,
{4}2,3/6,4/5,2,
{4}1,2/8,3/7,4/6,
{4}5,3/4,2/5,1>8[8:5]/6,
{8},,,,,,,1b/8b,
{8},4b/5b,,2b/7b,,,,,
{1},
{1},
{1},
E
&inote_5=
(160){1},
{16},,,6xh[16:21],,,,,8,,,,,,,,
{4}8,,8,(130)3x>7[0.4615384615384617##0.3614457831325302],
(166){4}5,5,4/6,4/6<2[4:1],
{4}4,4,3/5,3/5,
{4}5/6,7/8,1/2,3>8[4:1]/4<7[4:1],
{4},,1b/6b,4/5,
{16}2/5,,6,5,6,,3,4,3,,6,5,6,,3,4,
{16}3,,6,5,6,,3,,3,,4/5,,4/5,,,,
{16}4/7,,3,4,2,,6,5,7,,3,4,2,,6,,
{8}6,4h[4:1]/5h[4:1],,,C1f/B2/B3/B6/B7,,,,
{4}1>5[4:1],5<1[4:1],1>5[4:1],5<1[4:1],
{8}1>5[4:1],,5,,1,1,1,,
{4}4h[4:1]/8,8,3h[4:1]/7,7,
{8}2/8,,1/7,1/7,,8,1x/8x,,
{4}5>2[8:1]/6,7,3/4<7[8:1],2,
{8}5>2[8:1]/6,,7,,3/4,3/4,2/5,,
{2}4-1[8:1]/8-5[8:1],1-4[8:1]/5-8[8:1],
{8}4/8h[4:1],,1,2b/7b,,E7,C1,E3,
{8}7h[2:1],,6,6,6,,5/8,,
{8}2h[2:1],,3,3,3,,1/4,,
{8}5h[2:1],,4,4,4,,3/6,,
{4}E2/E3/E4,E6/E7/E8,E1/C1f,,
{2}4>1[8:1]/8<5[8:1],1>4[8:1]/5<8[8:1],
{8}4,4,5,3/6,,1b,1b,,
{8}3/4,,5/6,,3,3,3/4<8[4:1],,
{8}2,,1,1,,4/5,4/5,,
{8}5/6,,3/4,,6,6,5/6<3[4:1],,
{4}4,,4/5,1b/8b,
{8}3/7,2,1,8<5[8:1],,2,3,4>1[8:1],
{8},8,8,,7-5[8:1]/8-4[8:1],,7x/8x,,
{8}2/6,7,8,1>4[8:1],,7,6,5<8[8:1],
{8},1,1-4[8:1],,1-5[8:1],,1x,,
{8}3/7,2,1,8<5[8:1],,2,3,4>1[8:1],
{8},8,8,,7-5[8:1]/8-4[8:1],,7x/8x,,
{8}2/6,7,8,1>4[8:1],,7,6,5,
{8},1/8,2/7,3h[4:1]/6h[4:1],,,2b/7b,,
{4}7/8,5/6,1-5[8:1]/2,4,
{4}1/2,3/4,7/8-4[8:1],5,
{4}1/2,3/4,5-8[8:1]/6,7<8[8:3],
{4},,3x/6x,4/5,
{8}3-8[8:1],5,6,,4-8[8:1],6,7,,
{8}6-1[8:1],4,3,,5-1[8:1],3,2h[4:1],,
{4}3-6[8:1],,6,4/5-8[8:1],
{4}3,3/8,2x/7x,4/5,
{8}4h[4:3]/6h[4:1],,,,6,6,6,,
{8}3h[4:1]/5h[4:3],,,,3,3,3,,
{4}1/7,2/6,3h[4:1]/5,2-7[8:1],
{4},7,2x/7x,3-1[8:1]/5,
{4}6-8[8:1],4-8[8:1],5-1[8:1],3-1[8:1],
{8}6-8[8:1],,4,,1x/8x,7,4/6-8[8:1],,
{4}3-1[8:1],5-1[8:1],4-8[8:1],6,
{8}6,4h[4:1]/5h[4:1],,,C1f/B2/B3/B6/B7,,,,
{4}8,4/6<1[8:1],4,1<6[8:1]/3,
{4}3,4/6<1[8:1],4,3x/4x,
{4}1,3>8[8:1]/5,5,6/8>3[8:1],
{8}6,,4>1[8:1]/5,,6,8x,8x,,
{8}1h[8:1]/7h[8:1],,2h[8:1]/8h[8:1],,1h[8:1]/7h[8:1],,2/8,2/8,
{8},4>1[8:1]/5<8[8:1],,,,1x/8x,1x/8x,,
{8}3h[8:1]/5h[8:1],,4h[8:1]/6h[8:1],,3h[8:1]/5h[8:1],,4/6,4/6,
{8},1>4[8:1]/8<5[8:1],,,,4/5,4/5,,
{8}C1f/B3/B6,,1/8,1/8,,2/7,,2>5[8:1]/6<1[8:1],
{8},,,4b/8b,,,,,
{1},
{1},
{1},
E
