&title=デンパラダイム
&wholebpm=220
&artist=lumo
&des=はっぴー
&shortid=11058
&genre=niconicoボーカロイド
&cabinet=DX
&version=maimai DX
&chartconverter=Neskol
&lv_2=3
&des_2=-
&lv_3=7+
&des_3=-
&lv_4=11+
&des_4=小鳥遊さん
&lv_5=13
&des_5=はっぴー
&des_6=
&inote_2=
(220){1},
{1},
{1},
{1}1,
{1}1,
{1}8,
{1}8,
{1}1h[1:1],
{1},
{1}8h[1:1],
{1},
{2}1x,1x,
{1}1x,
{2}8x,8x,
{1}8x,
{1}1,
{1}1,
{1}2,
{1}2,
{1}3,
{1}3b,
{1}4,
{1}4,
{1}5h[1:1],
{1},
{1}4h[1:1],
{1},
{1}4x/5x,
{1},
{2}5x,5,
{1}5,
{2}4,4,
{1}4,
{1}4x/5x,
{1}4x/5x,
{1}4x-1[4:3]/5x-8[4:3],
{1},
{1}2xh[1:1],
{1},
{2}1,1,
{1}1,
{2}8,8,
{1}8,
{2}7,7,
{1}7x/8x,
{1}6xh[1:1],
{1},
{2}5,5,
{1}5,
{2}4,4,
{1}4,
{2}3,3,
{1}3,
{1}3h[1:1]/4h[1:1],
{1},
{1}5h[1:1]/6h[1:1],
{1},
{1}B4,
{1}B3,
{1}B2,
{1}B1,
{1}B8,
{1}B7,
{1}B6,
{1}B5,
{1}4h[1:1],
{1},
{1}5h[1:1],
{1},
{1}E4/E6,
{1}B3/B6,
{1}B2/B7,
{1}E2/E8,
{1}1-4[4:3]/8-5[4:3],
{1},
{1}3x/6x,
{2}4x/5x,4xh[2:7]/5xh[2:7],
{1},
{1},
{1},
{1},
{1},
{1},
{1}3,
{1}4,
{1}5,
{1}6,
{1}7,
{1}1h[1:1]/8h[1:1],
{1},
{1}1-5[4:3],
{1},
{1}8-4[4:3],
{1},
{1},
{1},
{1}3xh[1:1],
{1},
{1}B4/B5,
{1}B3/B6,
{1}B2/B7,
{1}E2/E8,
{1}C1hf[2:3],
{1},
{1},
{1}1x/8x,
{2}7,7,
{1}7x/8x,
{2}6,6,
{2}5,5b,
{2}4,4,
{2}3,3b,
{1}2xh[1:1],
{1},
{2}1,1,
{1}1/8,
{1}2x/8x,
{1}1x/7x,
{2}6,6,
{2}5,5,
{2}4b,4x,
{2}4x,3x/5x,
{2},5x,
{2}5x,4x/6x,
{2},B4/B5,
{2},B3/B6,
{2},C1hf[1:2],
{1},
{1},
{1},
{1},
E
&inote_3=
(220){1},
{1},
{1},
{2}6xh[2:1],5,
{4}6,6,6x,,
{4}4,4,4x,,
{4}5,5,4x/5x,,
{2}3xh[2:1],4,
{4}3,3,3x,,
{4}5,5,5x,,
{4}4,4,4b/5b,,
{2}3xh[2:1],4x,
{2}4xh[2:1],5x,
{2}5xh[2:1],6x,
{1}5x/7x,
{4}6,6,5,5,
{4}6,6,6x,,
{4}4,4,4x/5x,,
{4}3,3,3x/4x,,
{4}5,5,4,4,
{1}4xh[2:1],
{4}6,6,5x/6x,,
{4}3,3,3x/4x,,
{2}6xh[2:1],5x,
{2}5xh[2:1],4x,
{2}4xh[2:1],3x,
{1}2b/5b,
{1}1-5[8:7]/2-4[8:7],
{8},,,,,,,4x-1[1:1]/5x-8[1:1],
{1},
{1},
{1}1x>4[8:7],
{2},5x,
{1}5x<8[8:7],
{2},1x,
{1}1xq8[8:7],
{2},2b/7b,
{4}2,2,1/2,,
{4}7,7,7/8,,
{4}1,1,2,2,
{4}3,3,4x/5x,,
{4}6,6,5x/7x,,
{4}3,3,2x/4x,,
{4}6,6,7,7,
{4}8x,8x,2b/7b,,
{4}7,7,7/8,,
{4}2,2,1/2,,
{4}8,8,7,7,
{4}6,6,4x/5x,,
{4}3,3,2x/4x,,
{4}6,6,5x/7x,,
{4}4,4,3,3,
{4}2x,2x,1x/8x,1x/8x,
{1}2xh[1:2]/7xh[1:2],
{1},
{1},
{1},
{1}6h[1:1],
{1}5h[1:1],
{1}4h[1:1],
{2}3,3x/4x,
{1}2h[1:1],
{1}1h[1:1],
{1}8h[1:1],
{2}7,7,
{1}6x>3[8:7],
{1},
{1}3x<6[8:7],
{1},
{2}5,4,
{2}3,2,
{2}1,8,
{1}2x/7x,
{1}1-4[8:7],
{2},5x,
{1}5-8[8:7],
{2},1x>8[4:11],
{1},
{1},
{1},
{1},
{1},
{1},
{1}B7,
{1}B5,
{1}C1,
{1}B3,
{1}B2,
{1}C1,
{1},
{1}B2,
{1}B4,
{1}C1,
{1}B6,
{1}C1,
{1},
{1}4h[1:1]/5h[1:1],
{8},,,,,,,3x/4x,
{8},3xh[8:3]/4xh[8:3],,,,,,4x/5x,
{8},4xh[8:3]/5xh[8:3],,,,,,5x/6x,
{8},5xh[8:3]/6xh[8:3],,,,,,4x/5x,
{8},4xh[8:3]/5xh[8:3],,,,,,3x/6x,
{8},3xh[8:3]/6xh[8:3],,,,,,4x/5x,
{8},3x/6x,,2b/7b,,,,,
{4}2x,2x,1x/2x,,
{4}7,7,7/8,,
{1}1x>4[8:7],
{2},5x,
{2}6h[2:1],5x,
{2}3h[2:1],4x,
{2}2h[2:1],1x,
{2}1x/8x,2b/7b,
{4}2,2,1/2,,
{4}7,7,7/8,,
{4}2,2,3,3,
{4}4,4,3x/5x,,
{4}6,6,5/6,,
{4}7,7,7/8,,
{4}2,2,1/2,,
{4}8x,8x,1x/8x,1x/8x,
{4}2b/7b,,8,8,
{4}7,7,6,6,
{4}5,5,4,4,
{4}3,3,2,2,
{4}1x,1x,2,2,
{4}3x,3x,4,4,
{4}5x,5x,6,6,
{4}7,7,8,8,
{4}1x/8x,1x/8x,2b/7b,,
{1},
{1},
{1},
E
&inote_4=
(220){1},
{1},
{8}1x/7x,,2x/8x,,5x,5x,4x,4x,
{8}5,,4/6,,5,5,5,,
{4}6h[4:1],5,4/7,6,
{8}4,,3/5,,4,4,4,,
{4}3h[4:1],4,2/5,3,
{4}4/6,5/7,5h[4:1]/7h[4:1],,
{4}3/5,2/4,2h[4:1]/4h[4:1],,
{2}5h[4:1]/6h[4:1],3h[4:1]/4h[4:1],
{8}5/6,,3/4,,2/7,2/7,2/7,,
{8}E1,,C1,,E5,,B1,B2,
{8},B6,B5,,B3/B4/B7/B8,,,,
{8}E1,,C1,,E5,,B8,B7,
{8},B3,B4,,B1/B2/B5/B6,,,,
{8}3/4,,2/5,,4,4,4,,
{4}3h[4:1],4,2/5,3,
{2}4h[4:1]/5h[4:1],6h[4:1]/7h[4:1],
{2}1h[4:1]/8h[4:1],2h[4:1]/3h[4:1],
{8}5,4,5,4,5,5,4,4q5[8:5],
{1},
{8}5/6,,4/7,,5,5,5,,
{4}6h[4:1],5,4/7,3x/8x,
{2}6-8[8:1],3-1[8:1],
{2}4-7[8:1],5-2[8:1],
{4}7/8,1/2,7/8,1/2qq5[4:3],
{1},
{8}4x,4x,5x,5x,,4x/7x,,5x/6x,
{8},4x/5x,,3x/4x,,3x,4x,2x/5x,
{8},1,1,,3/4,,2,2,
{8},8,8,,3/7,,,,
{8}4/5,,3,3h[4:1],,4h[4:1],,5h[4:1],
{8},6,6,,4/7,,,2/4h[4:1],
{8},3,3,,2/5,,,5h[4:1]/7,
{8},6,6,,1/8,1>8[16:11]/8,,,
{8},,,,,,,3x/6x,
{8},4x/5x,4x/5x,,2b/7b,,,,
{8}5x/7x,6x,5x/7x,6x,5x/7x,,3/4,3/4,
{8},1/2,1/2-6[8:1],,8b,,7,7h[4:1],
{8},5,,2h[4:1],,4,,3x/6x,
{8},1/8,1/8,,5/7,,2/4-7[8:1],,
{8}1-5[8:1],,8-4[8:1],,2,,1,1,
{8},3,3h[4:1],,4,,5-2[8:1]/6,,
{8}8-4[8:1],,1-5[8:1],,7,,8,8,
{8},6,6,,3b/7b,,,,
{8}2x/4x,3x,2x/4x,3x,2x/4x,,5/6,5/6,
{8},7/8,7-3[8:1]/8,,1b,,2,2h[4:1],
{8},4,,7h[4:1],,5,,3x/6x,
{8},1/8,1/8,,2/4,,5/7,,
{8}2h[4:1]/4-8[8:1],,,1,,2b/6b,,,
{8}5-1[8:1]/7h[4:1],,,8,,3b/7b,,2,
{8}2,1/3,,6,5/7,,4,4,
{8}5,5,3,3,,1/8,,2x/7x,
{1}2b>8[4:9]/7b<1[4:9],
{1},
{1},
{1}4h[2:1]/5h[2:1],
{8}3/5,,4/6,,3,3,,2h[2:1]/4h[2:1],
{8},,,,,4/5p4[8:5],,3,
{8},,,,,1,1pp1[8:5],,
{1},
{8}4/6,,3/5,,6,6,,4/7h[4:1],
{8},6h[4:1],,5h[4:1],,4h[4:1],,3h[4:1],
{8},2h[4:1],,3h[4:1],,4h[4:1],,5h[4:1],
{8},6h[4:1],,7h[4:1],,8,7/8,,
{8}4/6,,3/5,,6,6,,4h[2:1]/7h[2:1],
{8},,,,,5/6,,3h[2:1]/5h[2:1],
{8},,,,,4/5,,5/6,
{8},4,,3,,1/8,1b/8b,,
{4}3,2/4,6,5/7,
{4}2,1/3,7,6/8,
{8}2h[4:1],,4h[4:1],,5h[4:1],,7,7,
{8},1/6,,4/5,,3b/8b,,,
{8}4,,4,,4h[8:3],,,5,
{8},5,,5,,4,4,,
{4}E7,E6/B6,E3,B3/E4,
{4}E5,B4/B5,C1xh[2:9]/B2/B7,,
{1},
{1},
{1},
{1},
{1},
{1},
{1}3>8[4:3],
{1}7<4[4:3],
{1}3q8[4:3],
{1}7q4[4:3],
{1}3V51[4:3],
{1}8>7[2:3],
{1},
{4}1qq5[4:5],8,,,
{4},,,6,
{4}5qq8[4:7],4,,,
{1},
{1},
{1},
{4}E6,E4,E5,B3,
{8}B5,,B4,,B6,,2/4,2/4h[4:1],
{8},3,2/4,,1x/8x,,5/7,5h[4:1]/7,
{8},6,5/7,,1x/8x,,2/4,2/4h[4:1],
{8},3,2/5,,1x/8x,,5/7,5h[4:1]/7,
{8},6,4/7,,1x/8x,,2/5,2/5,
{8},3/4,3/4,,5/6,,1/8,1x/8x,
{8},4x/5x,,2b/7b,,,,,
{8}4x/8x,5x/7x,4x/8x,5x/7x,4x/8x,,1/2,1/2,
{8},7/8,7-3[8:1]/8,,1b,,2,2xh[4:1],
{8},4,,7xh[4:1],,5,,1b/8b,
{8},2x/7x,2x/7x,,5,,4,,
{1}3pp6[4:3]/7h[2:1],
{4}E1,E8,C1/E7,,
{1}2h[2:1]/6qq3[4:3],
{4}E1,E2,C1f/E3,,
{8}1x/5x,2x/4x,1x/5x,2x/4x,1x/5x,,7/8,7/8,
{8},1/2,1/2-6[8:1],,8b,,7,7xh[4:1],
{8},5,,2xh[4:1],,4,,2/7,
{8},1/8,1/8,,5/7,,2/4,,
{8}1-5[8:1]/5h[4:1],,,6,,3b/7b,,,
{8}4h[4:1]/8-4[8:1],,,3,,2b/6b,,7,
{8}7,6/8,,3,2/4,,5,5,
{8}4,4,6,6,,1/8,,2x/7x,
{8}2b/7b,,,,2x/5x,3,4,2x/5x,
{8}3,4,2x/5x,3,4,2x/5x,3,3,
{8}4x/7x,6,5,4x/7x,6,5,4x/7x,6,
{8}5,4x/7x,6,5,4x/7x,,3x/8x,2/7,
{8}1/6,,1/8,1/8,2b/7b,,3/4,2/5,
{8},E1/B7/E7/B8,,,4x/5x,,5/6,4/7,
{8},B1/E1/B2/E3,,,4x/7x,4,4,3x/6x,
{8}6,6,1x/5x,1,1,2x/8x,8,8,
{8}1x/7x,1x/7x,1x-5[8:1]/7x-3[8:1],,,,,,
{1},
{1},
{1},
E
&inote_5=
(220){1},
{1},
{8}2/7,,2/7,,1/8,1/8,2/7,3/6,
{4}4/5,4v3[4:1]/5v6[4:1],,,
{8}8,8,1-4[8:1],1,8-5[8:1],8,1,,
{4}1h[8:1]/8h[8:1],1h[8:1]/8h[8:1],2h[8:1]/8h[8:1],1h[8:1]/7h[8:1],
{4}2/6,B1/E1/B8,3/7,C1/B3/B4/B5/B6,
{4}1>4[8:1]/8<5[8:1],,2h[8:1]/7h[8:1],1h[8:1]/8h[8:1],
{8}3/7,,6-1[8:1],,3-8[8:1],,6,6,
{8}6h[8:3],,,4,4h[4:1]/6h[4:1],,,7,
{16}7,,2,,2,,8,,8,,1,,1x,2x,3x,4x,
{8}5/6,,5/6,,6,5,4,3/4,
{8},5/6,5/6,,C1/B1/B2/B8,,,,
{8}3/4,,3/4,,3,4,5,5/6,
{8}5x/6x,,7x/8x,,1x/2x,3x/8x,4x/7x,5x/6x,
{4}5/6,8-5[8:1],4-1[8:1],8,
{8}7-5[8:1],7,3-1[8:1],3,7-5[8:1],7,3,3,
{2}3-1[8:1]/4-1[8:1],5-8[8:1]/6-8[8:1],
{2}3>1[8:1]/4v1[8:1],5v8[8:1]/6<8[8:1],
{8}1h[16:1],8h[16:1],1h[16:1],8h[16:1],1h[16:1],1h[16:1],8h[16:1],8h[16:1],
{1}1bq4[2:1],
{4}4h[8:1]/6h[8:1],3h[8:1]/5h[8:1],4h[8:1]/6h[8:1],3h[8:1]/5h[8:1],
{8}2,1,8,7,4h[8:1]/6h[8:1],,4/6,,
{8}1/8,7,6,5,4,3,2/7,1/8,
{8}1/8,2,3/4,3/4,3/4,2,1/8,1/8,
{8}1/8,7,6,5,4,3,2,1,
{2}1bq4[2:1],C1,
{8}E8/B8,B5/E6,B1/E2,E4/B4,,2/7,,B1/E2/E8/B8,
{8},C1/E3/E7,,B4/E4/B5/E6,,8,8,1>4[4:1],
{8},5,5,,8,7,6,5-8[8:1],
{8},1,1s5[4:1],,8x,,,,
{8}6,6,1,1h[4:1],,8,,2/7,
{8},3/4,3>8[8:1]/4<7[8:1],,3/4,,,1/8,
{8},5/6,5>2[8:1]/6<1[8:1],,5/6,,,1/8,
{8},3/5,3/5-8[8:1],,4,4>5[8:5],,C1f,
{8},,,,,,,4/5,
{8},2/7,1-5[8:1]/8-4[8:1],,1x/8x,,,,
{8}2/7,E4/E6,2/7,B3/B6,2/7,,8,8<5[8:1],
{8},3,3>8[8:1],,7h[4:1],,5,5qq4[4:1],
{8},6,7,8h[4:1],,3,2,1h[4:1],
{8},8,8<5[8:1],,1>4[8:1],,8,,
{8}E6/B6/B7/E8,,E1/C1/E5,,B2/E2/B3/E4,,8,8,
{8},4,4-1[8:1],,8-5[8:1],,,,
{8}E2/B2/B3/E4,,C1/E1/E5,,E6/B6/B7/E8,,1,1,
{8},5,5-8[8:1],,2,,1b,,
{8}2/7,E4/E6,2/7,B3/B6,2/7,,1,1>4[8:1],
{8},6,6<1[8:1],,2h[4:1],,4,4pp5[4:1],
{8},3,2,1h[4:1],,6,7,8h[4:1],
{8},1,1-5[8:1],,8-4[8:1],,1<4[8:3],,
{8}7,,,8x,,8x,,,
{8}2/7,,1/8,1-5[8:1]/8-2[8:1],,1x/8x,,,
{4}6h[2:1],8,3h[2:1],1,
{4}7h[2:1],5,2h[4:1],4<3[1:3],
{1}C1f,
{1},
{1},
{1},
{8}3h[4:1]/5h[4:1],,,,5,5,,4h[4:1]/6h[4:1],
{8},,4/6,,5,5,,3h[4:1]/5h[4:1],
{8},,3/5,,2,2,,1h[4:1]/8h[4:1],
{4},1/8,5h[4:1]/7h[4:1],,
{8}4h[4:1]/6h[4:1],,,,4,4,,3h[4:1]/5h[4:1],
{8},,,4h[4:1]/6h[4:1],,,4/6,,
{8}3h[4:1]/5h[4:1],,,3/5,,4,4,4h[4:1]/6h[4:1],
{8},,,3h[4:1]/5h[4:1],,,3/5,,
{8}1b/7h[2:1],,,,,,,3h[8:5]/5b,
{1},
{8}4b/6h[2:1],,,,,,,1h[8:3]/8b,
{4},,1/8,2/7,
{4}3/6,3/6,3/6,3/7,
{4}E1/3,E8/3,E7/3,E6/3,
{4}3/6,3/6,3/6,2/6,
{4}E1/6,E2/6,E3/6,E4/6,
{8}7h[4:1],,5h[4:1],,4,4h[4:1],,2h[4:1],
{8},1h[4:1],,8h[4:1],,7h[4:1],,5h[4:1],
{8},4,4h[4:1],,2,2h[4:1],,1h[4:1],
{8},8,8<1[2:7],,8x,,,,
{1},
{1},
{1},
{1},
{1},
{1},
{1}E8/1h[4:3],
{1}E1/2h[4:3],
{1}E2/3h[4:3],
{1}E3/4h[4:3],
{1}E4/5h[4:3],
{1}E5/6h[4:7],
{1},
{1}E6/7h[4:7],
{1},
{1}E7/8h[1:2],
{1},
{1}C1xh[1:2],
{1},
{1},
{8},,,,2/7,2/7,,3/6,
{8},7,7-5[8:1]/8-5[8:1],,7x/8x,,1/8,1/8,
{8},2,1-4[8:1]/2-4[8:1],,1x/2x,,1/8,1/8,
{8},7,7-4[8:1]/8-4[8:1],,7x/8x,,1/8,1/8,
{8},2,1-5[8:1]/2-5[8:1],,1x/2x,,1/8,1h[4:1]/8,
{8},5,5,,7,8,1,2,
{8},4/5,,2b/7b,,,,,
{8}3/7,E5/E6,3/7,B4/B6,3/7,,1,1>4[8:1],
{8},6,6<1[8:1],,2h[4:1],,4,2/4,
{8},,,1/8,,,,5/7,
{8},8,1/8,,2/4,,4/5,,
{8}B2/E2/B3/E4,,C1/E1/E5,,E6/B6/B7/E8,,1,1h[4:1],
{8},8,8-5[8:1],,4-1[8:1],,8,,
{8}B6/E6/B7/E8,,E1/C1/E5,,E2/B2/B3/E4,,8,8,
{8},4,4-1[8:1],,7,,8b,,
{8}2/6,E4/E5,2/6,B3/B5,2/6,,8,8<5[8:1],
{8},3,3>8[8:1],,7h[4:1],,5,5qq4[4:1],
{8},6,7,8h[4:1],,3,2,1h[4:1],
{8},8,8-4[8:1],,1-5[8:1],,8<3[8:3],,
{8}2,,,1x,,1x,,,
{8}2/7,,1/8,1-7[8:1]/8-4[8:1],,1x/8x,,,
{4}3h[2:1],1,6h[2:1],8,
{4}2h[2:1],4,7h[2:1],5,
{16}1b,,,,,,,,7h[4:1],,E8,E7,E6,,2h[4:1],,
{16}E2,E3,E4,,7h[4:1],,E8,E7,E6,,2h[4:1],,E2,E3,E4,,
{16}8h[4:1],,E8,E7,E6,,1h[4:1],,E2,E3,E4,,8h[4:1],,E8,E7,
{16}E6,,1h[4:1],,E2,E3,E4,,8,1,8,,3/6,,4,5,
{16}4,5,4,,3,,2,,1>4[4:1],,,,E4/B4,,B6/E6,,
{8},C1,,8,8<5[4:1],,B5/E6,B3/E4,
{16},,2/7,,2/7,,,,3h[4:1],,E4,E3,E2,,6h[4:1],,
{16}E6,E7,E8,,4h[4:1],,E4,E3,E2,,5h[4:1],,E6,E7,E8,,
{16}4,5,4,5,3-6[8:1],6,3,6,,,,,,,,,
{1},
{1},
{1},
E
