&title=グリーンライツ・セレナーデ
&wholebpm=200
&artist=Omoi feat. 初音ミク
&des=はっぴー
&shortid=11052
&genre=niconicoボーカロイド
&cabinet=DX
&version=maimai DX
&chartconverter=Neskol
&lv_2=3
&des_2=-
&lv_3=7
&des_3=-
&lv_4=10
&des_4=華火職人
&lv_5=12+
&des_5=はっぴー
&des_6=
&inote_2=
(200){1},
{1},
{1},
{1},
{1},
{1},
{1},
{1}1,
{1},
{1}1,
{1},
{1}8,
{1},
{1}8,
{1},
{1}1h[1:2],
{1},
{1},
{1},
{1}2h[1:2],
{1},
{1},
{1},
{1}3,
{1}3,
{1}3,
{1},
{1}4,
{1}4,
{1}4/5,
{1}4x/5x,
{2}6,6,
{1}6,
{2}7,7,
{1}7,
{2}8,8,
{1}8,
{2}1,1,
{1}1/8,
{2}2,2,
{1}2,
{2}3,3,
{1}3,
{2}4,4,
{1}4,
{2}5,5,
{1}4x/5x,
{1}4h[2:1],
{2}4,4,
{1}5h[2:1],
{2}5,5,
{2}4,4,
{2}5,5,
{2}4x/5x,4x/5x,
{1}3b/6b,
{1}2,
{1}2,
{2}1,1,
{1}1,
{1}8,
{1}8,
{2}7,7,
{1}7,
{1}B6,
{1}B5,
{1}B4,
{1}B3,
{1}C1hf[1:2],
{1},
{1},
{1},
{2}1,1,
{1}1,
{2}2,2,
{1}1/2,
{2}3,3,
{2}4,4,
{2}5,5,
{1}4x/5x,
{2}5,5,
{1}5,
{2}6,6,
{1}5/6,
{2}7,7,
{2}8,8,
{2}1,1,
{1}1x/8x,
{1}1-5[4:3],
{1},
{1}8-4[4:3],
{1},
{2}1,1,
{2}8,8,
{2}1/8,1/8,
{1}2/7,
{2}3/4,3/4,
{1}3/4,
{2}5/6,5/6,
{1}5/6,
{2}4,4,
{2}5,5,
{1}3b/6b,
{1},
{1}4,
{1}4,
{1}5,
{1}5,
{1}6,
{1}6,
{1}7,
{1}7x,
{1}8x,
{1}8x,
{1},
{1}C1hf[1:3],
{1},
{1},
{1},
{1},
{1},
E
&inote_3=
(200){1},
{1},
{1},
{1},
{1},
{1},
{1},
{4}8,8,7,7,
{4}6,6,5x,,
{4}4,4,3,3,
{4}2,2,1x,,
{4}2,2,3,3,
{4}4,4,5x,,
{4}6,6,7,7,
{4}8,8,2x/7x,,
{2}6h[2:1],5,
{2}4h[2:1],5,
{2}6h[2:1],5,
{1}5/6,
{2}3h[2:1],4,
{2}5h[2:1],4,
{2}3h[2:1],4,
{1}2x/4x,
{2}6h[2:1],5,
{2}3h[2:1],4,
{2}6,6,
{1}5x/7x,
{2}3h[2:1],4,
{2}6h[2:1],5,
{2}7,1/8,
{1}2b/7b,
{4}2,2,1/2,,
{4}7,7,7/8,,
{4}6,6,5,5,
{4}4,3,2x/4x,,
{4}1,1,2/8,,
{4}8,8,1/7,,
{4}1,1,1/8,1/8,
{1}2x/7x,
{4}7,7,7/8,,
{4}2,2,1/2,,
{4}3,3,4,4,
{4}5,6,5x/7x,,
{4}8,8,1/7,,
{4}1,1,2/8,,
{4}8,8,1/8,1/8,
{1}2x/7x,
{4}3,3,2,2,
{4}1,1,1x/8x,,
{4}8,8,7,7,
{4}6,6,5x/6x,,
{4}4,4,3,3,
{4}2,2,1x/2x,,
{4}8,8,1,1,
{1}2b/7b,
{2}B7,C1,
{1}B3,
{2}B2,C1,
{1}B6,
{2}B7,C1,
{2}B3,B2,
{2}C1,B6,
{1}C1f,
{1}8-5[4:3],
{2},4,
{1}4-1[4:3],
{2},8,
{1}1-4[4:3]/8-5[4:3],
{2},4/5,
{1}4>1[4:3]/5<8[4:3],
{1},
{4}2,2,1/2,1/2,
{4}8,8,1x/7x,,
{4}6,6,5,5,
{4}4,3,2x/4x,,
{4}1,8,1/7,,
{4}8,1,2/8,,
{4}3,4,5,6,
{4}7,7/8,1x/6x,,
{4}7,7,7/8,7/8,
{4}1,1,2x/8x,,
{4}3,3,4,4,
{4}5,6,5x/7x,,
{4}8,1,2/8,,
{4}1,8,1/7,,
{4}6,5,4,3,
{4}2,1/2,3x/8x,,
{4}8,8,7,7,
{4}6,6,5x/6x,5x/6x,
{4}4,4,3,3,
{4}2,1x/2x,3x/8x,,
{4}8,8,7,7,
{4}6,6,5x/6x,5x/6x,
{4}4,4,5,4x/5x,
{1}3b/6b,
{4}5,5,6,6,
{4}7,7,7x/8x,7x/8x,
{4}1,1,2,2,
{4}3,3x/4x,2x/5x,,
{4}5,5,6,6,
{4}7,7,7x/8x,7x/8x,
{4}1,1,8,1x/8x,
{1}2b/7b,
{4}2h[2:1],,1,1,
{4}8,8,1/7,,
{4}7h[2:1],,8,8,
{4}1,1,2/8,,
{4}3h[2:1],,4,4,
{4}5,5,4/6,,
{4}6h[2:1],,5,5,
{4}4,4,3x/5x,,
{4}2,2,1x/3x,,
{4}8,8,1x/7x,1b/7b,
{2},1x/8x,
{1}2h[1:3]/7h[1:3],
{1},
{1},
{1},
{1},
{1},
E
&inote_4=
(200){1},
{1},
{1},
{4}4h[4:7],5,,5,
{4},5,,5,
{4}5h[2:3],4,,4,
{4}4,4,4,2x/7x,
{8}4/5,,2,2,,1/7,,1/7,
{8},5/6,,5/6,,3,3,,
{8}4/5,,7,7,,2/8,,2/8,
{8},3/4,,3/4,,6,6,,
{8}4/5,,2,2,,1/7,,1/7,
{8},5/6,,5/6,,3,3,,
{8}4/5,,7,7,,2/8,,2-5[8:3]/8-5[8:3],
{4},,,1b,
{4}B8,B7,B6,B5,
{4}B4,B3,C1/B2,,
{4}B1,B2,B3,B4,
{4}B5,B6,C1/B7,,
{4}E4,B3,B2,E2,
{4}E6,B6,B7,E8,
{2}B1/B8,B4/B5,
{1}C1hf[2:1],
{4}6,5/6,6,6/8,
{4}6,4/6,6,4/5,
{4}3,3/4,3,1/3,
{4}3,3/5,3,4/5,
{4}6h[4:1],7h[4:1],8,1/8,
{4}2h[4:1],3h[4:1],4,4/5,
{4}3/4,3/4,5/6,5/6,
{8}4x/5x,4x/5x,4h[4:1]/5h[4:1],,,,1b/8b,,
{8}2b/7b,,3/4,,6,6,1>5[4:1],,
{8}8,,,7x,7x,,4/6,,
{4}3/4,1/2,7/8,5/6,
{8}3b/7b,,5,5,,2,2,,
{4}7h[1:1],8,1,2,
{4}3h[4:3],4,5,6,
{8}7h[4:1],,5h[4:1],,4h[4:1],,2,2,
{8},4x/5x,4x/5x,,C1f/B3/B6,,,,
{8}1b/8b,,5/6,,3,3,8<4[4:1],,
{8}1,,,2x,2xh[4:1],,1,,
{4}7/8,5/6,3/4,1/2,
{8}3b/7b,,1,1,,6,6,,
{4}2h[1:1],1,8,7,
{4}6h[4:3],5,4,3,
{8}2h[4:1],,4h[4:1],,5h[4:1],,7,7,
{8},1x/8x,1x/8x,,4/5,,3/6,,
{8}2h[4:1],,4,,7,7,5,,
{4}2/4,3/5,4/6,5/7,
{8}7h[4:1],,8,,2,2,1,,
{2}8-4[8:1],1b,
{8}7h[4:1],,5,,2,2,4,,
{4}5/7,4/6,3/5,2/4,
{8}1/8,,3/6,,4x/5x,4x/5x,4x-1[16:3]/5x-8[16:3],,
{2},2b/7b,
{8}1/8,,3,5,4,,1/8,,
{8}2/7,,6,4,5,,1/8,,
{4}2h[2:1],4,7h[4:1],5,
{8}1,8,1,,3b/6b,,,,
{8}4/5,,7,1,8,,4/5,,
{8}3/6,,2,8,1,,4/5,,
{4}6h[4:1],8h[4:1],1h[4:1],3,
{8}5,4,5,,2b/7b,,,,
{2}4h[1:1],B4,
{2}5h[1:1],B5,
{2}4h[1:1],B3,
{2}5h[1:1],B6,
{1}4h[4:7],
{1}8h[4:3],
{4}4/8,3/7,2/6,1-4[4:1]/5-8[4:1],
{2},3b/7b,
{8}3/6,,7/8,,2,2,5<1[4:1],,
{8}4,,,3x,3x,,2/8,,
{4}7/8,5/6,3/4,1/2,
{8}3b/7b,,5,5,,2,2,,
{4}6h[1:1],7,8,1,
{4}2h[4:3],1,8,7,
{8}6h[4:1],,8h[4:1],,1h[4:1],,3,3,
{8},4x/5x,4x/5x,,C1f/B3/B6,,,,
{8}1b/8b,,4/5,,7,7,4>8[4:1],,
{8}5,,,6x,6xh[4:1],,5,,
{4}3/4,1/2,7/8,5/6,
{8}3b/7b,,1,1,,5,5,,
{4}3h[1:1],2,1,8,
{4}7h[4:3],8,1,2,
{8}3h[4:1],,1h[4:1],,8h[4:1],,6,6,
{8},1x/8x,1x/8x,,4/5,,3/6,,
{8}2h[4:1],,4,,7,7,5,,
{4}2/4,3/5,4/6,5/7,
{8}7h[4:1],,8,,2,2,1,,
{2}8-4[8:1],1b,
{8}7h[4:1],,5,,2,2,4,,
{4}5/7,4/6,3/5,2/4,
{8}2h[4:1],,1,,7,7,8,,
{4}1-4[4:1]/8-5[4:1],,,3b/6b,
{4}2/4,2/4,5/7,5/7,
{4}4/5,1/2,7/8,4/5,
{4}5/7,5/7,2/4,2/4,
{4}3-6[4:1]/7-2[4:1],,,4/5,
{4}5/6,5/7,3/4,2/4,
{4}1/8,6/7,4/5,2/3,
{1}1b/8b,
{4}E7,E3,E5,C1f,
{8}1/8,,3,3,,4/6,,4/6,
{8},7/8,,7/8,,2,2,,
{8}1/8,,6,6,,3/5,,3/5,
{8},1/2,,1/2,,7,7,,
{8}1/8,,3,3,,4/6,,4/6,
{8},7/8,,7/8,,2,2,,
{8}1/8,,6,6,,3/5,,3b-8[8:3]/5b-8[8:3],
{4},,,4b-1[8:3]/6b-1[8:3],
{4},,,4bqq8[1:1]/5bpp1[1:1],
{1},
{2},1/8,
{1}2b<3[8:17]/7b,
{1},
{1},
{1}1b/8b,
{1},
{1},
{1},
E
&inote_5=
(200){1},
{1},
{1},
{8}4,4,5,4h[4:1],,5,4,5h[4:1],
{8},4,5,4h[4:1],,5,4/5,,
{8}5,5,4,5h[4:1],,4,5,4,
{4}4/5,3,2/7,C1/B4/B5,
{8}2,2-5[8:1],6,2x,,7-4[8:1],3,7x,
{8},1-5[8:1],6,1x,,8,1/8,,
{8}7,7-4[8:1],3,7x,,2-5[8:1],6,2x,
{8},8-4[8:1],3,8x,,1,1/8,,
{8}2,2-5[8:1],6,2x,,7-4[8:1],3,7x,
{8},1-5[8:1],6,1x,,8,1/8,,
{8}7,7-4[8:1],3,7x,,2-5[8:1],6,2x,
{8},8,1/8,,2/7,,4/5,,
{4}6h[2:7],5,5,5,
{4}E4,B6,B2,E8,
{4}1,1,E1,B7,
{8}B3,,E6,,4,4,5,,
{4}3h[4:11],4,4,4,
{4}E6,B3,B7,E2,
{4}8,8,8,8<5[4:1],
{8}4,,4,,3/6,,8,8,
{4}1>4[4:1],B6/B7,8<5[4:1],B2/B3,
{4}1>4[4:1],B6/B7,8<5[4:1],B2/B3,
{4}1>4[4:1],B6/B7,8,8-4[8:1],
{8}1,1h[4:1],,8,,3/6,3/6,,
{4}8<5[4:1],C1/B3,1>4[4:1],C1/B6,
{4}8<5[4:1],C1/B3,1,2-6[8:1]/7,
{4}8-5[8:1],4-1[8:1],8,3/6,
{8}4x/5x,4x/5x,4x/5x,4x/5x,,,2x/7x,,
{4}2-5[8:1]/6,2x/8,3/7-4[8:1],1/7x,
{8}2-5[8:1]/6,,2x/8,8,1,,1>5[4:1]/8,,
{4}5<1[4:1],1>5[4:1],5<1[4:1],1,
{8}C1f,,1,1,,5,4/6,,
{4}3/7-4[8:1],1/7x,2-5[8:1]/6,2x/8,
{8}3/7-4[8:1],,1/7x,,8,8,1-4[8:1],,
{8}6-1[8:1],,2-5[8:1],,8,8<3[4:1],,C1,
{8},1x,1x,,C1f/E4/E6,,1x/8x,,
{4}3/7-4[8:1],7x/8,2-5[8:1]/6,1/2x,
{8}3/7-4[8:1],,1/7x,1,8,,1/8<4[4:1],,
{4}4>8[4:1],8<4[4:1],4>8[4:1],8,
{8}C1f,,8,8,,4,3/5,,
{4}2-5[8:1]/6,1/2x,3/7-4[8:1],7x/8,
{8}2-5[8:1]/6,,2x/8,,1,1,8-5[8:1],,
{8}3-8[8:1],,7-4[8:1],,1,1>7[4:1],,C1f,
{8},8,8-5[8:1],,4-1[8:1],,,,
{8}5<8[8:1],,1-4[8:1],,7,7,5,6,
{4}4/6,E1/E2/E8,E4/E5/E6,3/6,
{8}4>1[8:1],,8-5[8:1],,2,2,4>5[2:1],,
{4}5,,8b,2/7,
{8}4>1[8:1],,8-5[8:1],,2,2,4,3,
{4}3/5,E1/E2/E8,E4/E5/E6,3/6,
{8}5<8[8:1],,1-4[8:1],,7,7,5,,
{4}4/5,1/8,2b/7b,,
{8}2h[4:1]/8,,4h[4:1],,5,5,7>2[8:1],,
{8}3,,4,4,5,,4/6,,
{8}1/7h[4:1],,5h[4:1],,4,4,2<7[8:1],,
{8}6,,5,,4/7,6,3/5,,
{4}E4/E5,E6/E7,E1/E8,E2/E3,
{4}E5/E6,E3/E4,E1/E2,E7/E8,
{8}5,2,4,1,7,5,6,1,
{4}8-4[8:1],2-6[8:1],7,8b,
{16}3x/4x,,,3/4,,,3/4,,2x/5-1[8:1],,,,4,,,,
{8}3h[4:1],,1h[4:1],,8,8,6,,
{16}5x/6x,,,5/6,,,5/6,,4-8[8:1]/7x,,,,5,,,,
{4}6h[4:1],8h[4:1],1h[4:1],3,
{16}3,4,3,4,3-8[8:1],,,,B7/E8,,,,B4/E5,,,,
{16}6,5,6,5,6-1[8:1],,,,E2/B2,,,,E5/B5,,,,
{12}3x,3x,4x,2x,8x,1x,6x,6x,5x,7x<8[2:1],,,
{4}C1f,,,1/8,
{4}3/7-3[8:1],1/7x,4-1[8:1]/6,4x/8,
{8}3/7-4[8:1],,1/7x,1,8,,1/8<4[4:1],,
{4}4>8[4:1],8<4[4:1],4>8[4:1],8,
{8}C1f,,8,8,,4,3/5,,
{4}2-6[8:1]/6,2x/8,3/5-8[8:1],1/5x,
{8}2-5[8:1]/6,,2x/8,,1,1,8-5[8:1],,
{8}4-8[8:1],,7-4[8:1],,1,1>7[4:1],,C1,
{8},8,8,,C1f/E4/E6,,1x/8x,,
{4}2-6[8:1]/6,2x/8,3/5-8[8:1],1/5x,
{8}2-5[8:1]/6,,2x/8,8,1,,1>5[4:1]/8,,
{4}5<1[4:1],1>5[4:1],5<1[4:1],1,
{8}C1f,,1,1,,5,4/6,,
{4}3/7-3[8:1],1/7x,4-1[8:1]/6,4x/8,
{8}3/7-4[8:1],,1/7x,,8,8,1-4[8:1],,
{8}5-1[8:1],,2-5[8:1],,8,8<2[4:1],,C1f,
{8},1,1-4[8:1],,5-8[8:1],,,,
{8}4>1[8:1],,8-5[8:1],,2,2,4,3,
{4}3/5,B7/E8/B8,B3/E4/B4,2/5,
{8}6<1[8:1],,2-5[8:1],,7,7,6<5[2:1],,
{4}4,,C1f,2/7,
{8}8<5[8:1],,1-4[8:1],,7,7,5,6,
{4}5/7,B1/E2/B2,B5/B6/E6,4/7,
{8}4>1[8:1],,8-5[8:1],,2,2,4>5[2:1],,
{4}C1f,,,2b/7b,
{4}1-5[8:1]/2-4[8:1],1x/2x,7-5[8:1]/8-4[8:1],7x/8x,
{4}1-5[8:1]/2-4[8:1],1x/2x,7/8,4/5,
{4}1/2,3/4,5/6,2<7[4:1]/6q3[4:1],
{2},2x/6x,
{4}7-5[8:1]/8-4[8:1],7x/8x,1-5[8:1]/2-4[8:1],1x/2x,
{4}7-5[8:1]/8-4[8:1],7x/8x,1/2,4/5,
{1}8b,
{4}6,6,6,C1f/B4/B5,
{8}7,7-4[8:1],3,7x,,2-5[8:1],6,2x,
{8},8-4[8:1],3,8x,,1,2/8,,
{8}2,2-5[8:1],6,2x,,7-4[8:1],3,7x,
{8},1-5[8:1],6,1x,,8,1/7,,
{8}7,7-4[8:1],3,7x,,2-5[8:1],6,2x,
{8},8-4[8:1],3,8x,,1,2/8,,
{8}2,2-5[8:1],6,2x,,7-4[8:1],3,7x,
{8},1,2/8,,B5/E5/B6/E7,,C1f/E3/B3/B4,,
{8},8,1/8,,B3/E3/B4/E5,,C1f/B5/B6/E7,,
{8},1/8,1/8,,E4/B4/B5/E6,,B1/C1f/B2/B7/B8,,
{2},4x/5x,
{1}C1hf[2:5]/B2/B3/B6/B7,
{1},
{1},
{8}1b/8b,1b/8b,,,,,,,
{1},
{1},
{1},
E
