&title=キリキリ舞Mine
&wholebpm=168
&artist=A-One
&des=某S氏
&shortid=11016
&genre=maimai
&cabinet=DX
&version=maimai DX
&chartconverter=Neskol
&lv_2=4
&des_2=-
&lv_3=7+
&des_3=-
&lv_4=11
&des_4=サファ太
&lv_5=13
&des_5=某S氏
&des_6=
&inote_2=
(168){1},
{1},
{1},
{1},
{1}1,
{1}1,
{1}1h[1:1],
{1},
{1}8,
{1}8,
{1}8h[1:1],
{1},
{2}1,1,
{1}1b,
{2}8,8,
{1}8,
{2}7,7,
{1}7,
{2}6,6,
{1}6,
{2}5,5,
{1}5b,
{1}4h[8:3],
{2}4,4,
{4}3,3,3,,
{4}4,4,4/5,,
{1}5h[8:3],
{2}5,5,
{1}6-1[4:3],
{1},
{1}B3,
{1}B2,
{1}B1,
{1}B8,
{1}B7,
{1}B6,
{1}C1hf[8:7],
{1},
{1}1xh[8:3],
{4}1,1,8,8,
{1}1-5[4:3],
{2},6,
{1}6xh[8:3],
{4}5,5,5,,
{4}4,4,4,,
{2}3x/6x,7,
{1}8xh[8:3],
{4}8,8,1,1,
{1}8-4[4:3],
{2},3,
{1}3xh[8:3],
{4}4,4,4/5,,
{1}4x-1[4:3]/5x-8[4:3],
{1},
{1}3xh[2:1]/6xh[2:1],
{1}B7,
{1}B6,
{1}B5,
{1}B4,
{1}B3,
{1}B2,
{1}C1hf[8:7],
{1},
{2}8,8,
{1}1/8,
{2}1,1,
{1}1/8,
{2}8,8,
{2}1,1,
{1}8-4[4:3],
{1},
{1}1xh[8:3]/2xh[8:3],
{4}1,1,8,8,
{1}1-5[4:3],
{4},,6,6,
{1}5xh[8:3]/6xh[8:3],
{4}5,5,4/5,,
{4}4,4,5,5,
{4}3x/6x,,7,7,
{1}7xh[8:3]/8xh[8:3],
{4}8,8,1,1,
{1}8-4[4:3],
{4},,3,3,
{1}3xh[8:3]/4xh[8:3],
{4}5,5,4,4,
{1}4x-1[4:3]/5x-8[4:3],
{1},
{1}3xh[2:1]/6xh[2:1],
{4}2,2,2,,
{4}1,1,1,,
{1}2h[2:1]/8h[2:1],
{4}1,8,2/7,,
{4}6,6,6,,
{4}5,5,5,,
{1}4h[2:1]/6h[2:1],
{1}C1hf[4:5],
{1},
{1},
{1},
E
&inote_3=
(168){1},
{1},
{4}3xh[8:3]/5xh[8:3],,,4xh[8:3]/6xh[8:3],
{4},,4x/5x,4x/5x,
{2}3xh[4:1]/6xh[4:1],3h[4:1]/6h[4:1],
{4}4,4,4/5,,
{2}6h[2:1],5,
{4}4h[2:1],,5x,4x/5x,
{2}3xh[4:1]/6xh[4:1],3h[4:1]/6h[4:1],
{4}5,5,4,4q5[1:1],
{1},
{4},,5x/6x,5x/6x,
{2}4x/7x,2x/5x,
{4}1x/8x,1x/8x,2b/7b,,
{4}3,4,3/4,,
{4}6,5,5/6,,
{4}3,4,3/5,,
{2}4h[4:1]/5h[4:1],3/6,
{4}2,1,1/2,,
{4}7,8,7/8,,
{4}1,1,8,1-4[2:1]/8-5[2:1],
{1},
{4}3xh[8:3]/6xh[8:3],,,4x/5x,
{4}6,6,5,5,
{2}3h[4:1]/4h[4:1],3/4,
{2}5h[4:1]/6h[4:1],5/6,
{4}3xh[8:3]/6xh[8:3],,,3x/6x,
{4}4/5,4/5,4/5,,
{1}C1hf[1:1],
{1},
{4}3h[2:1],,4,4,
{4}2,2,1x/2x,,
{4}6h[2:1],,5,5,
{4}7,7,7x/8x,,
{4}3h[2:1],,4,4,
{4}2,2,1x/8x,1>4[8:5]/8<5[8:5],
{1},
{4}3b/6b,,3x/4x,3x/4x,
{4}2xh[8:3]/5xh[8:3],,,1/8,
{4}7,7,6,4/5,
{4}3,3,2,1/8,
{4}2x/7x,,5x/6x,5x/6x,
{4}4xh[8:3]/7xh[8:3],,,1/8,
{4}2,3,4x/7x,,
{8}6,,5/6,,3h[4:1],,4x,4x,
{8},3x/5x,3x/5x,,1x/2x,,1x/2x,,
{4}3xh[8:3]/8xh[8:3],,,4/5,
{4}6,6,7,1/8,
{4}2,2,3,4/5,
{4}3x/6x,,7x/8x,7x/8x,
{4}1xh[8:3]/6xh[8:3],,,4x/5x,
{4}6,4/5,3,4bp5[8:5],
{1},
{1}4xh[2:1]/6xh[2:1],
{1}3xh[2:1]/5xh[2:1],
{4}4,4,3h[2:1],,
{4}4,4,3/4,,
{4}5,5,6h[2:1],,
{4}5,5,4x/6x,,
{4}3,3,4,4,
{4}5/6,5/6,4/7,,
{4}8,8,1,1>4[4:3],
{1},
{2}E5,E6,
{1}C1/E7,
{2}E5,E4,
{1}C1/E3,
{2}E4/E6,B3/B6,
{2}B2/B7,E2/E8,
{1}C1xh[1:1],
{4},,7x/8x,7x/8x,
{4}1xh[8:3]/6xh[8:3],,,2,
{4}3,4/5,6,5/7,
{4}6,4/5,3,1/2,
{4}3x/8x,,5x/6x,5x/6x,
{4}4xh[8:3]/7xh[8:3],,,1/8,
{4}2,3,4x/7x,,
{8}6,,5/6,,3h[4:1],,4x,4x,
{8},3x/4x,3x/4x,,5x/6x,,4x/7x,,
{4}3xh[8:3]/8xh[8:3],,,1/8,
{4}2,3/4,7,5/6,
{4}4,3,2/5,3,
{4}4x/7x,,7x/8x,1x/6x,
{4}2xh[8:3]/5xh[8:3],,,3x/4x,
{4}5/6,7,3/4,2<5[8:5],
{1},
{1}3xh[2:1]/4xh[2:1],
{1}5xh[2:1]/6xh[2:1],
{4}4,3,2/5,2/5,
{4}6,5,4/7,,
{4}7h[4:1],8,1/6,,
{4}2h[4:1],1,3/8,,
{4}5,6,4/7,4/7,
{4}3,4,2/5,,
{4}1,1,8,1-5[8:5]/8-4[8:5],
{1},
{4},C1f,,,
{1},
{1},
{1},
E
&inote_4=
(168){1},
{1},
{8}3x/4x,,,5x/6x,,,2x/4x,,
{8},5x/7x,,,3x/6x,,4x/5x,,
{4}2b/7b,2,3/5,4,
{4}6,7,4/6,5,
{1}2<5[2:1]/4,
{4}3h[4:1]/4h[4:1],,3x/6x,4x/5x,
{4}2b/7b,3,4/5,3/6,
{4}7,6,4/5,2/7,
{16}3,,3,,6,,6,,4,5,4,5,4,5,4x,,
{8},3x/6x,3x/6x,,2/7,,4/5,,
{2}E3/B3/E4,B6/E6/E7,
{4}B1/E2/B8/E8,E4/B4/B5/E6,C1f/E3/E7,,
{8}1x/8x,,2/7,,6,6,5,,
{8}4/5,,3/6,,2,2,1,,
{4}3/5,2x,4/6,7x,
{4}5/6,4/5,3/4,2x/7x,
{4}4/5,3,4/5,6h[4:1],
{4}5h[4:1],4h[4:1],3,2/5,
{8}5/6,,7x,,3/4,,2x/5x,2x/5xp4[16:7],
{4},,,3x/6x,
{8}1xh[4:1]/7xh[4:1],,,1b/7b,,,4/6,4/6h[1:1],
{8},5,,4,,5,,7,
{8},7/8,7/8,,1/6,,,7xh[4:1],
{8},5xh[4:1],,6x,6x,5x/6x,,,
{8}2xh[4:1]/8xh[4:1],,,2b/8b,,,3/4,3h[4:3]/4,
{8},5,,4,,2,,1/2>7[2:1],
{8},,,,,,,1/8,
{8},2/7,2/7,,6,,4/6,,
{4}3h[2:1]/5,,E5,C1,
{4}2h[4:1]/7h[4:1],,5/6,1b/8b,
{2}2-5[8:1],7-4[8:1],
{4}3,1,2/4,3,
{4}4/6h[2:1],,E5,C1,
{4}2h[4:1]/7h[4:1],,3/4,1b/8b,
{2}2-6[8:1],7-3[8:1],
{4}2x/4x,5x/7x,1-5[8:1]/8-4[8:1],,
{8}3xh[4:1]/6xh[4:1],,,C1f/B2/B7,,,8x,,
{2}1h[4:1]/8-4[8:1],2-5[8:1]/7h[4:1],
{1}4xh[4:1]/6x<3[2:1],
{8}4/5,3/6,2b/7b,,1-5[8:1]/8-4[8:1],,,,
{8}2xh[4:1]/7xh[4:1],,,C1f/B3/B6,,,8x,,
{2}1h[4:1]/2-4[8:1],5h[4:1]/6-8[8:1],
{8}1,,2/4,,4/5,,6x,5x/7x,
{8},3x,2x/4x,,1-5[8:1]/7-4[8:1],,,,
{8}3xh[4:1]/8xh[4:1],,,C1f/B2/B6,,,8x,,
{2}7-4[8:1]/8h[4:1],1h[4:1]/2-5[8:1],
{1}4xh[4:1]/6x<4[2:1],
{8}7/8,1/6,2b/5b,,2-5[8:1]/8-4[8:1],,,,
{8}1xh[4:1]/6xh[4:1],,,C1f/B3/B7,,,1x,,
{4}2h[4:1]/8,4,1/7h[4:1],5,
{8}3/5,,4/6,,5,5,4,,
{1}1xh[4:3]/5x,
{8}4x/7x,,,2x/5x,,4x/5x,,3x/6x,
{4}3h[2:1]/6,4h[4:3],,5h[4:3],
{4},6h[1:1],,5,
{2}4h[4:1],3h[4:1]/5h[4:1],
{4}4h[4:1]/5h[4:1],,4/5,2x/7x,
{8}6,5,7,,3,4,2h[4:1],,
{4}4h[4:1],5h[4:1],6,7/8,
{8}2/4,,1,,5/7,,1/8,1xp5[8:3]/8xq4[8:3],
{4},,,3/6,
{2}3h[1:2],E4,
{2}C1,E6,
{2}6h[1:2],B5,
{2}C1,B3,
{2}4h[4:9],E5,
{2}C1,E7,
{2}6h[4:1],3h[4:1]/5h[4:1],
{4}4x/5x,1x/8x,2-5[8:1]/4-8[8:1],,
{8}3xh[4:1]/7xh[4:1],,,C1f/B2/B6,,,8x,,
{4}7/8-4[8:1],7,1-5[8:1]/2,2,
{1}7xh[4:1]/8x>6[2:1],
{8}1/2,3/8,4b/7b,,5-1[8:1]/7-4[8:1],,,,
{8}2xh[4:1]/6xh[4:1],,,C1f/B3/B7,,,1x,,
{2}1-6[8:1]/2-5[8:1],7-4[8:1]/8-3[8:1],
{8}2/5,,4/7,,4/5,,3x,2x/4x,
{8},6x,5x/7x,,2v5[8:1]/6v1[8:1],,,,
{8}4xh[4:1]/7xh[4:1],,,C1f/B2/B3,,,7x/8x,,
{4}1/6-1[8:1],2,3-8[8:1]/8,7,
{1}1x>7[2:1]/7xh[4:1],
{8}1/2,3/8,4b/7b,,2v5[8:1]/6v1[8:1],,,,
{8}4xh[4:1]/8xh[4:1],,,C1f/B6/B7,,,1x/2x,,
{4}3-8[8:1]/8,7-4[8:1],1-5[8:1],8,
{8}7,7,4,4,5,5,3,2/6,
{1}1xh[4:3]/7x,
{8}3x/8x,,,1x/6x,,1x/8x,,2x/7x,
{8}2b/7b,,3/4,,6,5,7,,
{8}6h[4:1]/8,,5,,3,4,2,,
{4}4h[4:1]/6,1x,3/5h[4:1],8x,
{8}1,1,6,6,4,,3x/8x,,
{8}2,5,4/6,,7,4,3h[4:1]/5,,
{4}1h[4:1],8h[4:1],6,4/7,
{4}3/4h[4:1],8x,5h[4:1]/6,1x,
{8}8,7,3,2,6,5,2,1/7,
{4},C1f/B2/B3/B6/B7,,,
{1},
{1},
{1},
E
&inote_5=
(168){1},
{1},
{8}1-5[8:1],,1/7,7-3[8:1],,2/7,2-6[8:1],,
{8}2/8,8-4[8:1],,1/8,1-4[8:1],,1-6[8:1],,
{16}1,,2,,3,4,3,,2h[8:1]/5h[8:1],,,4h[8:1]/7h[8:1],,,1/6,,
{16}7/8,,7,,6,5,6,,4h[8:1]/7h[8:1],,,2h[8:1]/5h[8:1],,,3/8,,
{16}2-5[8:1],1,2,,8,,,,7-4[8:1],8,7,,1,,,,
{16}3,4,2,5,1,6,8,7,8-5[8:1],,,,1/8-3[8:1],,,,
{16}8,,7,,6,5,6,,4h[8:1]/7h[8:1],,,2h[8:1]/5h[8:1],,,3/8,,
{16}1/2,,2,,3,4,3,,2h[8:1]/5h[8:1],,,4h[8:1]/7h[8:1],,,1/6,,
{16}1/5,2,3,4,5,6,7,8,1/5,4,3,2,1,8,3x/7x,,
{8},1x/5x,4x/8x,,7/8,,1-5[8:1]/2,,
{4}1/8b,7/8-4[8:1],1b/8,1/2,
{16}1/8,,1,8,1,,2/7,,1-4[8:1]/8-5[8:1],,,,1b/8b,,,,
{16}7,8,7,,6,6,,5,5,,4,4,,3,3,,
{16}2,1,2,,3,3,,4,4,,5,5,,6,6,,
{16}7/8-4[8:1],,,,1/8,,,,1-5[8:1],2,,,1/8,,,,
{16}3,4,3,,6,5,6,,3,4,2,,6,5,7,,
{16}2,1,2,,3,3,,4,4,,5,5,,6,6,,
{16}7,1,8,,2/7,,1,8,,,2/7,,3/6,,4/5,,
{16}3-8[8:1]/4,,,,3/5,,,,6-1[8:1],5,,,4>5[4:3]/6,,4x,,
{4},,,8-4[8:1],
{8}3/8,,1,2b/8b,,,3/5,4-8[4:1],
{8},8<5[4:1],,5-1[4:1],,1>4[4:1],,7,
{8},6,5-1[8:1],4,4h[4:1],,,3>6[4:1],
{8},4,5-8[8:1],5-2[8:1],,,1-5[8:1],,
{8}1/6,,8,1b/7b,,,4/6,7>2[4:1],
{8},2-6[4:1],,6>3[4:1],,3,,2h[8:7],
{8},1<3[8:3],1,,,,,1h[4:1],
{8},8,2/7,3/6,1/2,3/8,4/7,5/6,
{8}4,3,2/6,1,5,6,3/7,8,
{8}1,2<7[8:1]/6,,5,4x-8[8:1],,3x,2,
{8}1,8,3/7,6,2,3,4/7,5,
{8}4/6,3V52[8:3]/7V15[8:3],3/7,,,,,,
{8}8,1,2/6,3,7,6,1/5,2,
{8}3,4/7>2[8:1],,5,5x-1[8:1],,7x,8<1[4:3],
{8},E2,E3,E4,E5,E6,E7,E8,
{4}B1/C1/B2/E2/B5/E6/B6,C1/B3/E4/B4/B7/E8/B8,1>4[8:1],1qq5[32:15],
{8}1,,,C1f/2b,,,1,8,
{16}2,1,2,,8,,1,,7,8,7,,6,,5h[8:7]/7,,
{8},4>6[8:3],4,,,,,,
{8}5-2[8:1],6,5,,8<5[8:1],,8pp4[32:15],,
{8}8,,,C1f/7b,,,8,1,
{16}7,8,7,,1,,8,,1/2,,3/8,,,,4,,
{8}3/5,2/6,1/7,8,5,4/6,3/7,8-4[8:1],
{8}2-6[8:1],8x,2x,,5<8[8:1],,3/5qq1[32:15],,
{8}5,,,C1f/7b,,,8,1,
{16}7,8,7,,1,,8,,2,1,2,,3,,2/4h[8:7],,
{8},5<3[8:3],5,,,,,,
{8}4-7[8:1],3,4,,4>1[8:1],,4pp8[32:15]/6,,
{8}4,,,C1f/2b,,,1,8,
{16}2,1,3,,7,8,6,,3,4,2,,6<3[4:3],,C1hf[8:9],,
{1},
{1}B2/B3/E3/B6/B7/E7,
{8}2/7,,6,4/8,,1/5,,3/7,
{16}2,1,2,,3,4,,6,5,,2,4,,7,5,,
{16}7,8,7,,6,5,,3,4,,7,5,,2,4,,
{16}1/2-5[8:1],,,,2/8,,,,7-4[8:1],8,,,1/7,,,,
{16}1/5,2,3,4,5,6,7,8,1/5,4,3,2,1,8,7,6,
{16}3,4,3,,2,1,,7,8,,3,8,,6,1,,
{16}5,4,5,,4/6,,7,6/8,,,1/2,,3/8,,4/7,,
{16}5-1[8:1]/6,,,,5/7,,,,4-8[8:1],3,,,1>8[4:3]/4,,1x,,
{1},
{4}6,6,5/6,,
{4}5,5,4/5,,
{4}3,3,3/4,,
{4}4,4,4/5,,
{4}5,6,B5/E7,,
{8}4,,3,,E3/B4,,,5h[4:1],
{8}B2,3h[4:1],B7,6h[4:1],B1,2h[4:1],B8,7h[8:1],
{4}1-5[8:1],1,4x>1[8:1]/8x<5[8:1],4xpp8[32:15]/8xpp4[32:15],
{8}4x/8x,,,C1f,,,1,8,
{16}2,1,2,,1/3,,8,,7,8,7,,6/8,,1h[8:7]/5,,
{8},4>6[8:3],4,,,,,,
{8}7-3[8:1]/8-4[8:1],1/6,7/8,,1x>4[8:1]/5x<8[8:1],,1xqq5[32:15]/5xqq1[32:15],,
{8}1x/5x,,,C1f,,,8,1,
{16}7,8,7,,6/8,,1,,1/2,,3/8,,,,4h[8:3],,
{8}5,6,7,8h[8:3],1,2,3,4-1[8:1],
{8}8-5[8:1],4b,8b,,2x>5[8:1]/6x<1[8:1],,2xqq6[32:15]/6xqq2[32:15],,
{8}2x/6x,,,C1f,,,8,1,
{16}7,8,7,,6/8,,1,,2,1,2,,1/3,,4/8h[8:7],,
{8},5<3[8:3],5,,,,,,
{8}1-5[8:1]/2-6[8:1],3/8,1/2,,3x>8[8:1]/7x<4[8:1],,3xpp7[32:15]/7xpp3[32:15],,
{8}3x/7x,,,C1f,,,1,8,
{16}2,1,3,,7,8,6,,3,4,2,,6<3[4:3],,C1hf[8:9],,
{1},
{1}B2/E3/B3/B6/E7/B7,
{16}1/5,,,,8,,3/7,,,2,2/6,,,8,4/8,,
{16}1,8,2h[8:1],,4,4h[8:1],,5,5h[8:1],,7,7h[8:1],,1,1,,
{16}8,1,7h[8:1],,5,5h[8:1],,4,4h[8:1],,2,2h[8:1],,8,8,,
{16}1-5[8:1]/2-5[8:1],,,,1/2,,,,7-4[8:1]/8-4[8:1],7/8,,,7/8,,,,
{16}3x,4,2,5,1,6,8,7,5x,6,4,7,3,8,2,1,
{16}3,4,3h[8:1],,1,1h[8:1],,8,8h[8:1],,6,6h[8:1],,4,4,,
{16}5,4,5,,4/6,,7,6/8,,,1/6,,2/5,,3/4,,
{16}2-5[8:1]/6-1[8:1],,,,2/6,,,,3-8[8:1]/7-4[8:1],3/7,,,3/7,,,,
{16}1,5,2,6,3,7,4,8,5,1,4,8,3,7,2,6,
{16}1v4[8:1]/5v8[8:1],,,,1b/5b,C1f,,,,,,,,,,,
{1},
{1},
{1},
E
