&title=イカサマライフゲイム
&wholebpm=200
&artist=kemu
&des=すきやき奉行
&shortid=11084
&genre=niconicoボーカロイド
&cabinet=DX
&version=maimai DX
&chartconverter=Neskol
&lv_2=4
&des_2=-
&lv_3=7+
&des_3=-
&lv_4=10+
&des_4=華火職人
&lv_5=12+
&des_5=すきやき奉行
&des_6=
&inote_2=
(200){1},
{1},
{1},
{1},
{1},
{1},
{1},
{1},
{1},
{1}4,
{1}4,
{1}3,
{1}3,
{1}2,
{1}2,
{1}1,
{1}1b,
{1}8h[1:2],
{1},
{1},
{1}8,
{1}7h[1:2],
{1},
{1},
{1}7x,
{2}6,6,
{1}6,
{1}6h[1:1],
{1},
{2}5,5,
{1}4/5,
{1}4h[1:1]/5h[1:1],
{1},
{1}B3,
{1}B2,
{1}B1,
{1}B8,
{1}B7,
{1}B6,
{1}C1hf[1:1],
{1},
{2}1,1,
{2}2,2,
{2}3,3,
{4}4,4,4,,
{1}4h[1:1]/5h[1:1],
{1},
{2}4/5,4/5,
{4}4,4,4b,,
{2}5,5,
{2}6,6,
{2}7,7,
{4}8,8,8,,
{1}1h[1:1]/8h[1:1],
{1},
{2}1/8,1/8,
{4}1,1,1b,,
{1}8-5[4:3],
{1},
{1}1-4[4:3],
{1},
{1}8h[1:1],
{1},
{1}7h[1:1],
{1},
{1}6h[1:1],
{1},
{1}5h[1:1],
{1},
{2}4,4,
{1}4,
{2}3,3,
{1}3,
{1}2h[1:1],
{1},
{1}1/8,
{1}1b/8b,
{1}1-5[4:3],
{1},
{1}8,
{1}8,
{1}8-4[4:3],
{1},
{1}1,
{1}1,
{2}8,8,
{1}8,
{2}7,7,
{1}7,
{2}6,6,
{1}6,
{1}4x/5x,
{1},
{4}4,4,4,,
{4}3,3,3,,
{4}2,2,2,,
{4}1,1,1,,
{1}8h[1:1],
{1},
{4}1,1,1,,
{4}8,8,8x,,
{4}7,7,7,,
{4}6,6,6,,
{4}5,5,5,,
{4}4,4,4,,
{1}5h[1:1],
{1},
{4}4,4,4,,
{4}5,5,5b,,
{4}3x/4x,3x/4x,3x/4x,,
{4}5x/6x,5x/6x,5b/6b,,
{2}7,7,
{1}7,
{2}8,8,
{1}1/8,
{2}2,2,
{1}2,
{2}3,3,
{1}3/4,
{2}5,5,
{1}5,
{2}6,6,
{1}5/6,
{2}7,7,
{1}7,
{2}8,8,
{1}8-4[4:3],
{1},
{1},
{1},
E
&inote_3=
(200){1},
{2}B3,B5,
{1}B7,
{2}B6,B4,
{1}B2,
{2}B3,C1,
{2}B6,B7,
{1}C1hf[1:1],
{1},
{4}7,7,8,,
{4}2,2,1,,
{4}7,7,8,1,
{4}2,2,1x/2x,,
{4}2,2,1,,
{4}7,7,8,,
{4}2,1,8,7,
{4}8,1,2x/7x,,
{2}6h[2:1],5,
{2}4h[2:1],5,
{2}3h[2:1],4,
{4}3,3,3/4,,
{2}3h[2:1],4,
{2}5h[2:1],4,
{2}6h[2:1],5,
{4}6,6,5x/7x,,
{2}6h[2:1],5,
{2}3h[2:1],4,
{4}5h[2:1],,4,4,
{4}5,6,5/7,,
{2}3h[2:1],4,
{2}6h[2:1],5,
{4}4h[2:1],,5,5,
{4}4/5,3x/6x,2b/7b,,
{1}1>7[4:5],
{1},
{1}8<2[4:5],
{1},
{1}1qq4[4:5],
{1},
{2}4/5,4/5,
{4}3/6,3/6,2b/7b,,
{4}2,2,1/2,1/2,
{4}8,1/8,2x/7x,,
{4}6,5,4,3,
{4}4,4/5,3x/6x,,
{1}2>5[2:1],
{1}6<1[2:1],
{4}2,1,8,7,
{4}7,7/8,1b/6b,,
{4}7,7,7/8,7/8,
{4}1,1/8,2x/7x,,
{4}3,4,5,6,
{4}5,4/5,3x/6x,,
{1}7<4[2:1],
{1}3>8[2:1],
{4}7,8,1,2,
{4}1/2,3/8,4b/7b,,
{1}B7,
{1}B4,
{1}B2,
{1}C1,
{2}B2,C1,
{1}B6,
{2}B7,C1,
{1}B3,
{2}B2,C1,
{2}B6,B7,
{2}C1,B3,
{1}C1f,
{1}8>6[4:5],
{1},
{1}7<1[4:5],
{1},
{1}8-5[2:1],
{1}4-1[2:1],
{2}8,1/8,
{4}1/8,2/7,3x/6x,,
{1}6h[1:2],
{1},
{1}5h[1:2],
{1},
{1}4h[1:2],
{1},
{1}3h[1:1],
{1}4,
{4}3,3,3,3,
{4}4,4,4,4,
{4}5,5,5,5,
{4}6,6,6xh[2:3],,
{1}5xh[1:2],
{1},
{1},
{2},8b,
{4}2,2,1/2,1/2,
{4}7,7/8,1x/6x,,
{4}6h[4:1],5,3h[4:1],4,
{4}5,4/5,3x/6x,,
{1}2<7[2:1],
{1}6>3[2:1],
{4}2,3,4,5,
{4}6,5/6,4x/7x,,
{4}7,7,7/8,7/8,
{4}2,1/2,3x/8x,,
{4}3h[4:1],4,6h[4:1],5,
{4}4,4/5,3x/6x,,
{1}7>2[2:1],
{1}3<6[2:1],
{4}7,7,8,8,
{4}1/8,1/8,2x/7x,,
{4}4/5,4/5,3/6,3/6,
{4}2x/7x,1x/8x,2b/7b,,
{4}1,1,2,2,
{4}3,3,3/4,,
{4}5,5,6,6,
{4}7,7,7x/8x,,
{4}8,8,7,7,
{4}6,6,5/6,,
{4}4,4,3,3,
{4}2,1/2,3x/8x,,
{4}1,2,3,4,
{4}5,6,7/8,,
{4}8,7,6,5,
{4}4,3,1x/2x,,
{4}1,2,3,4/5,
{4}6,7,8,1/2,
{4}3,4,5,6,
{4}7,8,1x/8x,2b/7b,
{1},
{1},
{1},
E
&inote_4=
(200){1},
{1}B5,
{1}B7,
{1}B1,
{1}B3,
{2}B5,E2/B8,
{2}B4,B1/E8,
{4}E5,E4/E6,E3/E7,E2/E8,
{4}E1,C1,E5,1b/8b,
{4}3/4,4/5,5/6h[4:1],8,
{4}5/7,4/5,3h[4:1]/4,1,
{4}2h[4:1],4,1h[4:1],3,
{4}3/4,1/2,7/8,5/6,
{4}5/7,4/5,3h[4:1]/4,1,
{4}2/4,4/5,5/6h[4:1],8,
{4}7h[4:1],5,8h[4:1],6,
{4}5/6,7/8,1/2,3/4,
{4}3,3/4,3,3/5,
{4}3,3/4,3,3/5,
{4}3,4,5,6,
{4}6,5/6,4x/7x,5x,
{4}6,5h[8:1]/6,6,5/6,
{4}6,4/6,6,3/6,
{8}4/6,,3,,2,,1/8,1-5[4:1]/8-4[4:1],
{8},,,,,2x/7x,2b/7b,,
{4}4/5,3/6,2-5[4:1],,
{2}8-5[4:1],2-4[8:1],
{4}6h[4:3],3,4,2,
{4}3h[4:3],6,5,7,
{4}4/6h[4:1],5,7-4[4:1],,
{2}1-4[4:1],7-5[8:1],
{8}3h[4:3],,6,,5,,7,7<2[2:1],
{1},
{8}4x/5x,,,4x/5h[8:11],,,,,
{4}E4,C1,E2,E3,
{8}4x/5x,,,4h[8:11]/5x,,,,,
{4}E6,C1,E8,E7,
{8}4x/5x,,,4x/5x,,,,,
{4}E4/E6,B3/B6,B2/B7,E2/E8,
{1}C1hf[1:1],
{4},,1b/8b,2x/7x,
{8}4/5,,2/6,2h[4:1]/6,,4h[4:1],,5-1[8:1],
{8},8x,,7h[4:1],,6,6,,
{8}2/4,,1/8,1/8-4[8:1],,3,,2h[4:1],
{8},3,3,,4b/8b,,3,,
{4}2/5,8,1/7,6,
{4}4/7,1,2/8,3/6,
{8}1/8,,3/4,3/4,,5/7,,1/8,
{8},4/5,4/5,,2b/7b,,,,
{8}4/5,,3/7,3/7h[4:1],,5h[4:1],,4-8[8:1],
{8},1x,,2h[4:1],,3,3,,
{2}5-2[8:1]/6,5/6-1[8:1],
{8}2,2,8,,2b/7b,,6,,
{4}4/7,2,1/8,3,
{4}2/5,7,1/8,2-5[8:1],
{4}7-4[8:1],1-4[8:1],8-5[8:1],1-5[8:1],
{4}8x,2x/7x,2b/7b,,
{1}8<3[4:5],
{1},
{1}2<5[4:5],
{1},
{4}3h[2:3]/5,5,4,4,
{4}E5,C1,E1,,
{4}4/6h[2:3],4,5,5,
{4}E5,C1,E1,,
{4}3h[2:3]/5,5,4,4,
{4}E5,C1,E1,,
{4}4/6h[1:1],4,5,4,
{1}3p6[8:3],
{4}6,5,4/5,3,
{4}2,1,1/8,7,
{4}6,5,4/5,3/6,
{4}2/7,1x/8x,4x/7x,2x/6x,
{2}8h[1:1],C1,
{2}1h[1:1],C1,
{2}8h[1:1],E5,
{1}C1xh[1:1],
{1},
{1},
{1},
{1},
{1}B3/B4/B5/B6,
{1}E2/B2/B7/E8,
{2}E5,C1,
{2}E1,E3/E7,
{4}3h[4:7]/4,4,6,6,
{4}8,1,2,4,
{4}5/6h[4:7],5,3,3,
{4}1,8,7,5,
{4}7,8<5[4:1],,4,
{4}2,1>4[4:1],,,
{1}C1xh[2:1],
{8}1x,1x,8x,8x,2b/7b,,,,
{8}4/5,,3/7,3/7h[4:1],,5h[4:1],,3-7[8:1],
{8},1x,,2h[4:1],,3,3,,
{8}5/7,,1/8,1-4[8:1]/8-5[8:1],,,,7h[4:1],
{8},6,6,,1b/8b,,3,3,
{8}4/7,,1,1,2/8,,6,6,
{8}2/5,,8,8,1/7,,3/6,,
{8}1/8,,5/6,5/6,,2/4,,1/8,
{8},4/5,4/5,,2b/7b,,,,
{8}4/5,,2/6,2h[4:1]/6,,4h[4:1],,6-2[8:1],
{8},8x,,7h[4:1],,6,6,,
{2}3/4-7[8:1],3-8[8:1]/4,
{8}7,7,1,,2b/7b,,1,1,
{8}2/5,,7,7,1/6,,8,8,
{8}4/7,,2,2,3/8,,7-4[8:1],,
{4}2-5[8:1],8-5[8:1],1-4[8:1],8-4[8:1],
{4}1x,1x/8x,2b/6b,,
{2}7-5[8:1]/8-4[8:1],1-5[8:1]/2-4[8:1],
{2}1-4[8:1]/8-5[8:1],2x/7x,
{8}2/4,,4/5,,5/6,7,1/8,,
{8}5/7,,4/5,,3/4,2,1/8,,
{4}2h[4:1],4,1h[4:1],3,
{4}3/4,1/2,7/8,5/6,
{8}5/7,,4/5,,3/4,2,1/7,,
{8}2/4,,4/5,,5/6,7,2/8,,
{4}7h[4:1],5,8h[4:1],6,
{4}5/6,7/8,1/2,3/4,
{8}6,6,8,8,1x,,3,3,
{8}1,1,8x,,1/8,,4/5,,
{4}3h[4:1],1h[4:1],8h[4:1],6,
{4}5/6,7/8,1/2,3/4,
{8}2,2,4,4,5x,,7,7,
{8}5,5,4x,,4/5,,1/8,,
{4}6h[4:1],8h[4:1],1h[4:1],3,
{4}3/4,1/2,8w4[4:1],,
{1},
{1},
{1},
E
&inote_5=
(200){1},
{1}6h[1:1],
{2},5,
{1}3h[1:1],
{2},4,
{1}5h[1:1],
{1}4h[1:1],
{2}6,3,
{4}5,4,2-5[8:1]/7-4[8:1],2b/7b,
{16}1x/8x,,,,4/6,,,,3,4,3,,2/5,,,,
{16}4/6,,,,6,5,7,,1,,1,,3/7,,,,
{4}2>5[8:1],C1/B4,7<4[8:1],C1/B5,
{16}1,,1,,3,4,3,,6,5,6,,3,4,2,,
{16}1x/8x,,,,3/5,,,,6,5,6,,4/7,,,,
{16}3/5,,,,3,4,2,,8,,8,,2/6,,,,
{4}7<4[8:1],C1/B5,2>5[8:1],C1/B4,
{16}7,,7,,6,5,6,,3,4,3,,2b/7b,,,,
{8}6,4,6,5,6,,6,4,
{8}6,,6,4,6,5,6,4,
{4}6h[4:1],B4,6h[4:1],B3,
{8}7h[4:1],,B2,,8-5[8:1],4,4,,
{8}3x,5,3,4x,3,,3,5,
{8}3,,3,5,3,4,3,5,
{8}3,,2x/7x,,4/5,4/5,,7<4[8:1],
{8},2,1,8,,2xh[8:1]/7xh[8:1],,,
{8}5/6,,4,3,2h[2:1],,4,5,
{8}6h[2:1],,5,4,3h[2:1],,5,6,
{4}7-5[8:1],B4,7-5[8:1],B3,
{4}7-4[8:1],B2,7-4[8:1],B1,
{8}2,,5,6,7h[2:1],,5,4,
{8}3h[2:1],,4,5,6h[2:1],,4,3,
{8}2-4[8:1],,7,,2-4[8:1],,8,8h[4:1],
{8},1,8,2-5[8:1]/7-4[8:1],,2x/7x,,,
{8}3xh[4:1]/4xh[4:1],,,3/4,,,,7,
{8}7<5[8:1],,4,,3,4,2/5,,
{8}5h[4:1]/6h[4:1],,,5/6,,,,2h[4:1],
{8},4,4,,6,5,4/7,,
{8}2h[4:1]/4h[4:1],,,2/4,,,,7,
{4}7<4[8:1],3,2>5[8:1],6,
{8}6h[4:3],,,4,3h[4:1],,,,
{4}2/5,3/6,1-5[8:1]/8-4[8:1],1x/8x,
{8}3x/7x,,2/6,2>5[8:1]/6<1[8:1],,2x/6x,,1x-6[8:1]/5x-2[8:1],
{8},1x/5x,,1x/8x,,2,4,5,
{8}7,,4/8,4-1[8:1]/8-5[8:1],,4x/8x,,3x/7x,
{8},2,1-4[8:1]/2-5[8:1],,,,6h[4:1],5,
{8}4x>1[8:1],,8-4[8:1],7,6x,,3h[4:1],4,
{8}5x<8[8:1],,1-5[8:1],2,3x,,4/6,,
{8}7<4[8:1]/8,,1,1,,1/2>5[8:1],,7,
{8},7,4/6<4[4:1],,1x,,,,
{8}1x/5x,,3/7,3>8[8:1]/7<4[8:1],,3x/7x,,4x-7[8:1]/8x-3[8:1],
{8},4x/8x,,1x/8x,,7,5,4,
{4}2x,B1/E2/E8/B8,5x,B1/E2/B8/E8,
{8}3x/4x,7,5x/6x,2,1b/8b,,3h[4:1],4,
{8}5x<8[8:1],,1-5[8:1],2,3x,,6h[4:1],5,
{8}4x>1[8:1],,8-4[8:1],7,6x,,3/5,,
{2}1bp5[8:1]/2bp5[8:1],7bq4[8:1]/8bq4[8:1],
{4}2x-5[8:1]/6x-1[8:1],2x/6x,3b/7b,,
{4}6h[1:1],,5,4,
{4}3h[2:1],4,4,,
{4}3h[1:1],,4,5,
{4}6h[2:1],5,5,,
{4}5,4,3,3/4,
{4}4,5,6,5/6,
{4}7h[1:1],B5,B4,E4,
{4}2h[1:1],B4,B5,E6,
{4}7,6,5,5/6,
{4}2,3,4,3/4,
{4}6h[2:1],B1,3h[2:1],B8,
{4}7,5/7,4/6,3/5,
{1}2xh[2:3]/4x>6[4:5],
{8},,,,,,4,4h[2:1],
{8},,5,5h[4:1],,6h[4:1],,7,
{4},5/7,4/6,3/5,
{8}2>5[8:1]/4,,6,,7<4[8:1],,3,3h[8:3],
{4},5,6h[4:1],4,
{4}2-5[8:1],7-4[8:1],3-8[8:1],7-3[8:1],
{4}4-1[8:1],6-3[8:1],2-6[8:1],8,
{1}B1/C1f/B2/B7/B8,
{1},
{1},
{1},
{4}3h[1:1],4,,4,
{4}5h[1:1],4,,4,
{4}4h[1:1],5,,5,
{4}6,6,5/6,,
{4}5>2[8:3]/6,6,6,6,
{4}2p5[8:3]/6,6,6,6,
{4}3/4<7[8:3],3,3,3,
{4}5/6,3/4,2/7,,
{4}2/5<8[8:3],2,3,3,
{4}4>1[8:3]/7,7,6,6,
{2}5<1[2:1],C1f/B4/B5,
{4}8b,8b,2b/7b,,
{8}4x/8x,,2/6,2v5[8:1]/6v1[8:1],,2x/6x,,4x-1[8:1]/8x-5[8:1],
{8},4x/8x,,2x/6x,,7,5,4,
{8}2,,1/5,1-4[8:1]/5-8[8:1],,1x/5x,,2x/6x,
{8},7,7-4[8:1]/8-5[8:1],,7x/8x,,3h[4:1],4,
{8}5x<8[8:1],,1-5[8:1],2,1x/3x,,6h[4:1],5,
{8}4x>1[8:1],,8-4[8:1],7,6x/8x,,5,,
{8}3>8[8:1]/4,,5,5,,5/6<1[8:1],,4,
{8},3,3>5[4:1]/4,,8b,,,,
{8}1x/5x,,3/7,3v8[8:1]/7v4[8:1],,3x/7x,,1x-4[8:1]/5x-8[8:1],
{8},1x/5x,,3x/7x,,2,4,5,
{4}7x,B3/E3/B4/E5,2x,B5/E5/B6/E7,
{8}2x-5[8:1]/7x-4[8:1],1x/8x,2x/7x,,1b/8b,,6h[4:1],5,
{8}4x>1[8:1],,8-4[8:1],7,6x/8x,,3h[4:1],4,
{8}5x<8[8:1],,1-5[8:1],2,1x/3x,,4,,
{2}7b-5[8:1]/8b-4[8:1],1b-3[8:1]/8b-4[8:1],
{8}2x-5[8:1],2,6x-1[8:1],6,C1f,,,,
{2}1b-5[8:1]/2b-4[8:1],1b-5[8:1]/8b-6[8:1],
{8}7x-4[8:1],7,3x-8[8:1],3,C1f,,,,
{16}1x/8x,,7,,4/6,,,,3,4,3,,1/2,,,,
{16}3/5,,,,6,5,7,,1,,1,,2/8,,,,
{4}3>8[8:1],C1/B4,6<1[8:1],C1/B5,
{16}2,,2,,7,8,7,,2,1,2,,6,5,7,,
{16}1x/8x,,2,,3/5,,,,6,5,6,,7/8,,,,
{16}4/6,,,,3,4,2,,8,,8,,1/7,,,,
{4}6<1[8:1],C1/B5,3>8[8:1],C1/B4,
{16}7,,7,,2,1,2,,7,8,7,,2b/7b,,,,
{16}5x/6x,,4,,3/5,,,,2,1,2-5[8:1],,8,,7,,
{16}6x,,,,7,8,7,,5,,4,,3/6,,,,
{4}1x<6[8:1]/2x,B4/B5,2x>5[8:1],B6/B7,
{16}8,,8,,2,1,3,,6,5,7,,4b/8b,,,,
{16}3x/4x,,5,,4/6,,,,7,8,7-4[8:1],,1,,2,,
{16}3x,,,,2,1,2,,4,,5,,3/6,,,,
{4}7x/8x>3[8:1],B4/B5,7x<4[8:1],B2/B3,
{16}1,,1,,7,8,6,,4x/5x,,4x/5x,,2x/7x,,2x<5[1:1]/7xh[4:5],,
{1},
{1},
{1},
{1},
E
