&title=アマツキツネ
&wholebpm=190
&artist=まらしぃ
&des=はっぴー
&shortid=11061
&genre=niconicoボーカロイド
&cabinet=DX
&version=maimai DX
&chartconverter=Neskol
&lv_2=2
&des_2=-
&lv_3=7
&des_3=-
&lv_4=9
&des_4=Jack
&lv_5=11+
&des_5=はっぴー
&des_6=
&inote_2=
(190){1},
{1},
{1},
{1},
{1},
{1},
{1},
{1},
{1},
{1},
{1}1,
{1}1,
{1}1h[1:1],
{1},
{1}8,
{1}8,
{1}1x/8x,
{1}1h[1:1],
{1},
{1}2,
{1}2,
{1}3h[1:1],
{1},
{1}4,
{1}4x,
{1}5h[1:1],
{1},
{1}6,
{1}6,
{1}7h[1:1],
{1},
{1}8,
{1}1b/8b,
{1}E1,
{1}E8,
{1}E7,
{1}E6,
{1}E5,
{1}B3/B6,
{1}C1hf[8:7],
{1},
{2}8,8,
{1}8,
{2}7,7,
{1}7,
{2}6,6,
{2}5,5,
{2}4,4,
{1}4x/5x,
{2}4,4,
{1}4,
{2}3,3,
{1}3,
{2}2,2,
{2}1,1,
{1}8-5[4:3],
{1},
{1}1-4[4:3],
{1},
{1}8,
{1}1/8,
{1}1h[8:7],
{1},
{1}1-4[4:3],
{1},
{1}8-5[4:3],
{1},
{2}1,1,
{2}8,8,
{1}1b/8b,
{1},
{1}1,
{1}1,
{1}2-6[4:3],
{1},
{1}7,
{1}1/8,
{1}2xh[8:7]/7xh[8:7],
{1},
{1}B7,
{1}B8,
{1}B1,
{1}B2,
{1}B1/B8,
{1}B2/B7,
{1}C1hf[1:1],
{1},
{2}1,1,
{2}2,2,
{2}3,3,
{1}3x/4x,
{2}5,5,
{2}6,6,
{1}5xh[1:1]/6xh[1:1],
{1},
{2}6,6,
{2}5,5,
{1}4x-1[4:3],
{1},
{2}8,8,
{1}8,
{2}1,1,
{1}1,
{2}2,2,
{1}2,
{1}2-5[4:3],
{1},
{2}6,6,
{2}7,7,
{1}8-4[4:3],
{1},
{1},
{1},
E
&inote_3=
(190){1},
{1},
{1}B3,
{1}E5,
{1}B6,
{1}E5,
{1}B3,
{1}C1,
{4}2,2,1,1,
{4}8,8,1x/7x,,
{4}7,6,5,4,
{4}3,2,1x/8x,,
{4}7,7,8,8,
{4}1,1,2x/8x,,
{4}2,3,4,5,
{4}6,7,8x,1x/8x,
{1}2b/7b,
{2}6h[2:1],5,
{2}4h[2:1],5,
{4}6,6,5,5,
{4}4,3,3x/4x,,
{2}3h[2:1],4,
{2}5h[2:1],4,
{4}3,3,4,4,
{4}5,6,5x/6x,,
{2}6h[2:1],5,
{2}3h[2:1],4,
{4}6,6,5,5,
{4}4,3,2x/4x,,
{2}3h[2:1],4,
{2}6h[2:1],5,
{4}3,3,2,2,
{4}1,8,2x/7x,,
{1}8-5[4:3],
{2},4x,
{1}4qq1[8:11],
{1},
{1}8<5[4:3],
{2},4x,
{4}4x/5x,4x/5x,3x/6x,3x/6x,
{4}2x/7x,,2,2,
{4}1/2,1/2,8,8,
{4}1x/7x,,6,5,
{4}4,3,4,5,
{4}3x/6x,,7,7,
{4}7/8,7/8,1,1,
{4}2x/8x,,3,4,
{4}5,6,5,4,
{4}3x/6x,,7,6,
{4}5,5,4,4,
{4}3x/5x,,2,3,
{4}4,4,5,5,
{4}4x/6x,,7,8,
{4}1x,1x,2,1,
{4}8x,8x,1x/8x,1x/8x,
{1}2b/7b<3[1:1],
{1},
{2}B2,C1,
{1}B6,
{2}B7,C1,
{2}B3,B2,
{2}C1,B6,
{1}C1,
{2}E2,C1,
{1}E6,
{2}E7,C1,
{1}E3,
{2}E2,C1,
{2}E6,E7,
{1}C1hf[1:1],
{1},
{1}1-4[4:3],
{2},5x,
{1}6-1[4:3],
{2},2x,
{1}3-8[4:3],
{4},,7x,7x,
{4}8,8,1/8,1/8,
{1}2x/7x,
{1}3h[1:2],
{1},
{1}4h[1:2],
{1},
{1}5h[1:1],
{1}6,
{2}4x/5x,3x/6x,
{4}2b/7b,,1x,1x,
{4}8,7,5/6,5/6,
{4}4x/7x,,3,4,
{4}5,6,7,7/8,
{4}1x/6x,,8x,8x,
{4}1,2,3,4,
{4}5,6,7qq3[2:3],,
{1},
{4},,2x,2x,
{4}1b/2b,,8x,8x,
{2}1b/8b,2b<3[4:7]/7b,
{1},
{1},
{4}2,3,4h[2:1],,
{4}5,6,7h[2:1],,
{4}8,8,1,1,
{4}2x/8x,,7,6,
{4}5h[2:1],,4,3,
{4}2h[2:1],,1,1>6[4:5],
{1},
{1},
{1}B4/B5,
{1}B3/B6,
{1}C1xh[8:11],
{1},
{1},
{1},
E
&inote_4=
(190){1},
{1},
{2}E3,E4,
{2}E5,E6,
{2}E7,E6,
{2}E5,E4,
{2}E3,C1,
{1}6>3[2:1],
{4}4,4,5,5,
{4}3/4,5/6,4/5,2b/7b,
{4}6,5,4,3,
{4}2,1,2/8,3,
{4}4h[4:1],5,6h[4:1],5,
{4}3h[4:1],4,5h[4:1],4,
{4}3,4,5,6,
{4}7,8,1/7,6pp3[4:3],
{1},
{8}2xh[4:1]/4xh[4:1],,,2x/4x,,,3,,
{4},3,,3,
{4}6,5/6,3,3/4,
{4}6,5/7,3,2/4,
{8}5xh[4:1]/7xh[4:1],,,5x/7x,,,6,,
{4},6,,6,
{4}3,3/4,6,5/6,
{4}3,2/4,6,5/7,
{4}3,4,3,2/5,
{4}1,8,1,2/7,
{2}6-4[8:1],2-8[8:1],
{4}6-2[8:1],,4,4,
{4}6,5,6,4/7,
{4}8,1,8,2/7,
{2}3>8[8:1],7<4[8:1],
{1}3>6[2:1],
{4}5h[2:1],,4,5/6,
{4}4h[2:1],,5,3/4,
{4}2,1/2,7,7/8,
{4}6,5,4,3x/6x,
{4}4h[2:1],,5,3/4,
{4}5h[2:1],,4,5/6,
{8}3/4,,4/5,4/5,,3/6,,C1f,
{8},1x/8x,1x/8x,,,,,,
{4}1b,2/8,3/7,4>1[4:1]/6,
{4}5x,,1,3,
{4}5,4/6,3/7,2/8<5[4:1],
{4}1x,,3,3>8[4:1],
{4}4x,,6,6<1[4:1],
{4}5x,,2,1/2q6[4:1],
{4}8x,,7,7p3[4:1]/8,
{4}1x,,3,2,
{4}1,8,1/7,2>5[4:1]/6,
{4},,6,7,
{4}8,1,2/8,3/7<4[4:1],
{4},,3,4-1[4:1]/5-8[4:1],
{4},,2/7,2/7,
{4}3x/4x,5x/6x,4x/5x,3x/6x,
{1}1bpp4[8:11]/8bqq5[8:11],
{1},
{4}5,4/5,3,3/4,
{4}6,5/6,4,4/5,
{4}6,5,6,4/7,
{4}3,4,3,2/5,
{8}4xh[4:1]/7xh[4:1],,,4x/7x,,3x/6x,,2x/5xp4[8:5],
{1},
{4}2,1,2,3x/8x,
{4}7,8,7,1x/6x,
{4}5,4,5,3x/6x,
{4}7,7x/8x,2,1x/2x,
{1}3bpp6[1:1],
{4},,5,4,
{8}3xh[4:1]/5xh[4:1],,,4xh[4:1]/6xh[4:1],,,2xh[4:1]/5xh[4:1],,
{8},4x/7x>2[8:3],,,,,,,
{4}4h[2:1],,5,3/4,
{4}5h[2:1],,4,5/6,
{4}7,7/8,2,1/2,
{4}3,4,5,3x/6x,
{4}5h[2:1],,4,5/6,
{4}4h[2:1],,5,3/4,
{8}5/6,,4/5,4/5,,3/6,,C1f,
{8},1x/8x,1x/8x,,,,,,
{1}E1,
{1}C1,
{2}E5,E4,
{4}E6,,E2,E3,
{4}E4,,E8,E7,
{4}E6,,E1,C1,
{4}E5,,4,5,
{4}3/4,5/6,4/5,2b/7b,
{4}8,1/7,2/6,3/5<8[4:1],
{4}4x,,8,6,
{4}4,3/5,2/6,1>4[4:1]/7,
{4}8x,,6,6<1[4:1],
{4}5x,,3,3>8[4:1],
{4}4x,,6,5/6,
{8}4xh[4:1]/7xh[4:1],,,4x/7x,,3x/6x,,2x/5-8[4:1],
{4},,2,1<6[4:1]/2,
{4},,7,7/8>3[4:1],
{4},,4/5,4q2[4:3]/5p7[4:3],
{1},
{8}1x/8x,1x/8x,1x/8x,1x/8x,,,,,
{4}3,4,5,6,
{4}7-4[8:1]/8,,3,2/4,
{4}6,5,4,3,
{4}1/2-5[8:1],,6,5/7>2[4:1],
{4},,3,2/4,
{4}6,5/7,8,1/8,
{8}2xh[4:1]/7xh[4:1],,,2x/7x,,3x/6x,,4x>1[8:5]/5x<8[8:5],
{1},
{1}2xh[2:1]/7xh[2:1],
{4}3x,4,5,6,
{1}3x<6[2:1]/7x>2[2:1],
{8}2x/7x,2x/7x,2x/7x,2b/7b,,,,,
{1},
{1},
{1},
E
&inote_5=
(190){1},
{4},,6,5,
{4}4,5,4,3<6[4:1],
{4}7,,3,4,
{4}5,4,5,6>3[4:1],
{4}2,,8,6,
{4}5,,5,4>5[4:3],
{1}5,
{8}1/8,,3/7,3/7h[4:1],,5h[4:1],,4h[4:1],
{8},2h[4:1],,7,,4/5,4/5,,
{4}2-5[8:1],6,7-4[8:1],3,
{4}2-5[8:1],6,7-4[8:1],3,
{8}1,1/8,,B2/B3/E4,,B6/E6/B7,,E2/E8,
{8},E4/B4/B5/E6,,1/8,1>4[8:1]/8<5[8:1],,,,
{4}7-4[8:1],3,2-5[8:1],6,
{4}7-4[8:1],3,2-5[8:1],6<5[4:3],
{1}C1f,
{8}3h[4:7]/5h[4:1],,,5,,,E6,,
{4},E7,,E8,
{4}8,5/7,1,2/4,
{4}5/6,7/8,1/2,3/4,
{8}4h[4:1]/6h[4:7],,,4,,,E4,,
{4},E3,,E2,
{4}1,2/4,8,5/7,
{4}3/4,1/2,7/8,5/6,
{8}2/5,,1,1,8,,3h[4:1]/7,,
{4}2h[4:1],1h[4:1],8h[4:1],6h[4:1],
{4}5<8[8:1],1,4>1[8:1],8,
{4}5<8[8:1],1,4,3/5,
{8}4/7,,8,8,1,,2/6h[4:1],,
{4}7h[4:1],8h[4:1],1h[4:1],3h[4:1],
{4}4>1[8:1],8,5-7[8:1],1>8[2:1],
{1}8x,
{4}2/7<4[4:1],,8,8,
{4}2>5[4:1],,1,1,
{8}4/7,,3,3,4,,1/8,1/8,
{8},2/4,,5/7-3[8:1],,1,1,,
{4}2>5[4:1]/7,,1,8,
{4}7<4[4:1],,8,1,
{8}2/6,,4/7,4/7,,1/8,,2/7,
{8},E4/E5/E6,C1f,,1x/8x,,2b-6[8:1]/7b,,
{4}1-5[8:1],8-4[8:1],7-3[8:1],1>6[4:1],
{4}8,8-5[8:1],1-4[8:1],7-3[8:1],
{4}8-4[8:1],1-5[8:1],2-6[8:1],8<3[4:1],
{4}1h[4:3],,3,3<6[4:1],
{4}2,,8h[4:1],6>3[4:1],
{4}7,,1h[4:1],3q7[4:1],
{4}2,,8h[4:1],6,
{4}4/5,2/3,1/8,6/7,
{4}4/5h[4:1],7h[4:1],8h[4:1],1>4[8:1],
{4}5,6,5/7,4,
{4}4h[4:1]/5,2h[4:1],1h[4:1],8<5[8:1],
{4}4,3,2/4,1,
{4}5<1[4:1],1>5[4:1],5,1pp1[4:1],
{4}7,8qq8[4:1],2,1>8[2:1],
{1}C1f,
{8}4/6,,1,2/4,,6,5,4,
{8}3h[4:1],,4,4,,3,4,5,
{4}6h[4:1],8h[4:1],1h[4:1],3,
{8}3/5,,8,5/7,,4/5,4-2[8:1]/5,,
{8}8<5[8:1],,1,1-5[8:1],,8,8,,
{8}2/7,,3,2/4,,5/7,,4/8,
{8},1,1>4[8:1],,5<8[8:1],,1,,
{24}1,,,,,,1/7,,,,,,B1,B2,B3,E4,B4,B5,B6,,,,,,
{24}8,,,,,,2/8,,,,,,B8,B7,B6,E6,B5,B4,B3,,,,,,
{24}1x,,,,,,1x/7x,,,,,,B1,B2,B3,E4,B4,B5,B6,,,,,,
{8}8,,2/7,,4/6,5,4/5,,
{16}2/4,,,,1x,2x,3x,4x,8x,7x,6x,5x,1x,2x,3x,4x,
{16}5x,6x,7x,8x,4x,3x,2x,1x,5x,6x,7x,8x,4x,3x,2x,1x,
{8}8x,,5/6,4/7,,3/4,2/5,,
{8}1/8,2/7,,4/5,4/5,,3/6,,
{4}1>4[2:1],5,6,7,
{4}8<5[2:1],4,3,2,
{8}1h[4:1],,5,5,3,4,5,4/6,
{8},3/5,,4/7,,2/5,2/5,,
{4}4>1[2:1],8,7,6,
{4}5<8[2:1],1,2,3,
{8}8h[4:1],,1,1,,3/6,,4/5,
{8},2b/7b,2b>8[2:1]/7b,,C1f,,,,
{1},
{1},
{1},
{1},
{1}8-5[4:3],
{1}1-4[4:3],
{4}5<8[2:1],,4,3,
{4}2-4[8:1]/7-5[8:1],2x/7x,1>4[8:1]/8<5[8:1],1x/8x,
{4}3h[4:1]/6,1h[4:1],8h[4:1],6>3[4:1],
{4}1,1,2/4,5,
{4}4/6h[4:1],8h[4:1],1h[4:1],3<6[4:1],
{4}8,8,5/7,4,
{4}4>8[4:1],8<4[4:1],4,8,
{4}1>5[4:1],5<1[4:1],1,5,
{8}1/8,,6,5/7,,2/4,,3/7,
{8},1/5,,6,6<1[8:1],,2>5[8:1],,
{4}8h[4:7],,7,5,
{4}1,4,7,5>6[2:1],
{1}C1f,
{8}1x/8x,2x/7x,3x/6x,4x/5x,4/5,,B1/E2/B8/E8,,
{4}7-4[8:1],1,2-5[8:1],8,
{4}7-4[8:1],1,3h[4:1]/5,8,
{4}2-5[8:1],8,7-4[8:1],1,
{4}2-5[8:1],8,4/6h[4:1],1,
{4}7-3[8:1],1,2-6[8:1],8,
{4}7-3[8:1],1,1/8,3/6,
{8}8,1/8,,E6/B6/B7,,B2/B3/E4,,E2/E8,
{8},B4/E4/B5/E6,,1/8,1>4[8:1]/8<5[8:1],,,,
{4}2x/7x<2[2:1],,1,1,
{4}2x>7[2:1]/7x,,8,8,
{8}1h[4:1]/8h[4:1],,,,E1,C1,E5,,
{8}1/8,3/6,4/5,2b/7b,,,,,
{1},
{1},
{1},
E
