&title=アディショナルメモリー
&wholebpm=200
&artist=じん
&des=シチミヘルツ
&shortid=11046
&genre=niconicoボーカロイド
&cabinet=DX
&version=maimai DX
&chartconverter=Neskol
&lv_2=2
&des_2=-
&lv_3=6
&des_3=-
&lv_4=9+
&des_4=ロシェ@ペンギン
&lv_5=12
&des_5=シチミヘルツ
&des_6=
&inote_2=
(200){1},
{1},
{1},
{1},
{1},
{2},4,
{2},4,
{2},5h[1:1],
{1},
{1}4,
{1}4,
{1}3,
{1}3,
{1}2,
{1}2,
{1}1h[1:1],
{1},
{1}8,
{1}8,
{1}7,
{1}7,
{1}6,
{1}6,
{1}4/5,
{1}4b/5b,
{2},4,
{2},4,
{2},3,
{2},3,
{2},2,
{2},2,
{2},1,
{2},1x,
{2},8,
{2},8,
{2},7,
{2},7,
{2},6,
{2},6,
{2},4h[8:11]/5h[8:11],
{1},
{1},
{1}B6,
{1}B7,
{1}B8,
{1}B1,
{1}B2,
{1}B3,
{1}B4/B5,
{1}B6,
{1}B5,
{1}B4,
{1}B3,
{1}C1hf[1:2],
{1},
{1},
{1},
{2}1x,1,
{1}1,
{2}2,2,
{1}2,
{2}3,3,
{1}3,
{1}4h[8:7],
{1},
{2}5,5,
{1}5,
{2}6,6,
{1}6,
{2}7,7,
{1}7,
{1}8h[1:1],
{1},
{1}1-4[4:3],
{1},
{1}8-5[4:3],
{1},
{1}1-5[4:3],
{1},
{1}8-4[4:3],
{1},
{2}3,3,
{2}2,2,
{2}1,1,
{1}1/8,
{2}8,8,
{2}7,7,
{2}6,6,
{2}4x/5x,4b/5b,
{1},
{1},
{1},
E
&inote_3=
(200){1},
{1}4h[1:1],
{2}5,5,
{1}5h[1:1],
{2}4,4/5,
{1}5h[1:1],
{2}4,4,
{1}4h[1:1],
{2}5,3x/6x,
{4}3,3,4,4,
{2}5,4/5,
{4}6,6,5,5,
{2}4,4/5,
{4}3,3,4,4,
{2}5,4/5,
{4}5,5,4/5,,
{4}4,4,3/6,,
{4}7,7,6,6,
{2}5,4/5,
{4}2,2,3,3,
{2}4,4/5,
{4}7,7,6,6,
{2}5,4/5,
{4}3,3,2,2,
{2}1/8,2b/7b,
{2}6h[2:1],5,
{2}3h[2:1],4,
{4}6h[2:1],,5,5,
{4}6,6,5,,
{2}3h[2:1],4,
{2}6h[2:1],5,
{4}3h[2:1],,4,4,
{2}3,3/5,
{4}6,6,5,,
{4}3,3,4,,
{4}6,6,7,7,
{4}8,8,1,,
{4}2,2,1,,
{4}7,7,8,,
{4}2,2,1s5[8:7],,
{1},
{2},B4,
{2}B5,B3,
{2}C1,B6,
{1}C1,
{2}B5,B4,
{2}B6,B3,
{1}C1xh[1:1],
{1},
{1}1>6[8:7],
{2},7,
{1}8<3[8:7],
{2},2,
{2}3,3/4,
{2}6,5/6,
{2}7,7/8,
{2}1,2b/7b,
{4}8,7,5/6,,
{4}4,3,1/2,,
{4}3,4,5,6,
{2}5/7,7h[2:1],
{2}8,2h[2:1],
{4}1,,7,6,
{4}5,4,4/5,4-1[8:3]/5-8[8:3],
{1},
{4}1,2,3/4,,
{4}5,6,7/8,,
{4}7,8,1,2,
{4}1/3,,3,3,
{4}4,4,5,5,
{4}6,6,5,5p8[8:5],
{1},
{2}1,2/8,
{1}2>5[8:3],
{4}6,6,5/6,,
{1}7<4[8:3],
{4}3,3,3/4,,
{1}2>5[8:3],
{4}6,7,7/8,,
{4}6,6,5,5,
{4}3/4,3/4,2/5,,
{1}7-3[8:3],
{4}2,2,1/3,,
{1}2-6[8:3],
{4}7,7,6/8,,
{1}7-3[8:3],
{4}2,1/2,3/8,,
{4}3,2,1,8,
{4}1/8,2/7,3b/6b,,
{1},
{1},
{1},
E
&inote_4=
(200){1},
{1}5xh[8:15]/7xh[8:29],
{1},
{8},,,,,,,4,
{8},4,,3,,3,,2xh[1:3]/4xh[1:2],
{1},
{1},
{8},,,,,,,6,
{8},4/5,4/5,,3/6,3/6,,,
{4}2x/7xh[4:7],2,5,5,
{4}1,1,6,4,
{4}2h[4:7]/7,7,4,4,
{4}8,8,3,5,
{4}2/7h[4:7],2,5,5,
{4}1,1,6,4,
{4}2h[4:3]/7,7,4,4,
{8}6,5,6,,4/5,,3/6,,
{4}2x/6xh[4:7],2,5,5,
{4}7,8,1,2,
{4}3h[4:7]/7,7,4,4,
{4}2,1,8,7,
{4}2/6h[4:7],2,5,5,
{4}7,8,1,2,
{8}2x/5x,,,4x/7x,,,2x/7x,,
{8}3,,3,,4/5,4/5,,1b/6b,
{8},,3/6,,5,4,5,,
{4}2h[4:1],3h[4:1],4h[4:1],5,
{4}6,5/6,3,3/4,
{4}6,5/7,3,2/4,
{8}5,,3/6,,4,5,4,,
{4}7h[4:1],6h[4:1],5h[4:1],4,
{8}3,,3/4,,6,,4/5,4/5,
{8},3/6,,2/7,,1/8,,3b/8b,
{8},,2/7,,5,4,5,,
{4}2,2/4,7,5/7,
{4}2h[4:1],3h[4:1],4h[4:1],5,
{4}7h[4:1],6h[4:1],5h[4:1],4,
{8}3,,2/4,,5,4,5,,
{8}6,,5/7,,4,5,4,,
{4}2h[4:3],4,5,6,
{8}5/6,5/6,,4,,5,,4x/8xh[8:25],
{2},E6,
{2}E4,E2,
{4}E8,,1,1,
{4}1>4[4:1],,8,7,
{2}6h[1:3],E4,
{2}E2,E8,
{4}E6,,4,4,
{4}4>1[4:1],,6,7,
{2}8xh[1:3],E6,
{2}E8,E2,
{4}E4,,2,2,
{4}2,4/5,3/6,2/7,
{8}6,5,6,,3,4,3,,
{8}7,5,7,,2,4,2,,
{8}4x/7x,,,2x/5x,,,4x/8x,,
{8},1x/5x,,,3b/8b,,,,
{8}2x/5x,,3/8,,2/5,,3,3,
{8},5/6,,3/4,,3/6,3/6,,
{8}2,4,2,,4/5,,3/6,3-8[8:1]/6,
{2},3/6-1[8:1],
{4}3h[2:1],5,6h[2:1],4,
{4}2h[2:1],4,7h[2:1],5,
{8}1h[2:1],,3,,8,,2/7,2-4[8:1]/7-5[8:1],
{4},,1/2,7/8,
{8}4x/7x,,1/6,,4/7,,6,6,
{8},3/4,,5/6,,3/6,3/6,,
{8}7,5,7,,5/6,,1/8,1>4[8:1]/8<5[8:1],
{4},,4/5,3/6,
{8}7h[4:1],,6h[4:1],,5h[4:1],,4,4h[8:7],
{4},3,5,6,
{2}3h[4:1]/7h[4:1],4>6[2:1]/5xh[4:3],
{8},,,,4,5,4,,
{8}5/6,,4/7,4/7,,8,1,8h[8:7],
{4},E2,E8,E6,
{8}3/4,,2/5,2/5,,1,8,1h[8:7],
{4},E8,E2,E4,
{8}5/6,,4/7,4/7,,8,1,8h[8:7],
{4},E2,E8,E6,
{8}3/4,,2/5,2xh[4:1]/5xh[4:1],,,1/6,1xh[8:5]/6x>2[8:3],
{4},,,2/7,
{4}4x/6x,4/6,3/5,3/5,
{4}5/6,7/8,1/2,3/4,
{4}3x/5x,3/5,4/6,4/6,
{4}3/4,1/2,7/8,5/6,
{4}4x/6x,4/6,3/5,3/5,
{8}5/6,,7/8,,1/2,,3,3xh[8:5],
{8},,6,,6,,4/5,4/5,
{8},4/5,,1x/6x,1b/6b,,,,
{1},
{1},
{1},
E
&inote_5=
(200){1},
{1}3h[8:27]/5h[8:23],
{1},
{1},
{8},6,,6h[8:27],,4,,4h[8:23],
{1},
{1},
{8},,,,,,,4x/6x,
{8},1/8,2/7,3/6,4x/5x,4x/5x,,,
{8}2/7,,4,5,3,8,1-3[8:1],,
{4}7-5[8:1],2-5[8:1],8-5[8:1],4,
{8}3/6,,8,1,7,4,5-7[8:1],,
{4}3-1[8:1],6-1[8:1],4-1[8:1],8,
{8}2/7,,4,5,3,8,1-3[8:1],,
{4}7-5[8:1],2-5[8:1],8-5[8:1],4,
{4}7-5[8:1],3,7-4[8:1],1,
{8}7,8,6,1,5,2,4,3,
{8}3/5,,8,1,7,4,5-7[8:1],,
{4}3-5[8:1],6-1[8:1],4-1[8:1],8,
{8}2/7,,4,5,3,8,1-3[8:1],,
{4}7-1[8:1],2-5[8:1],8-5[8:1],3,
{8}3/6,,1,8,2,6,4-2[8:1],,
{4}6-4[8:1],3-8[8:1],5-8[8:1],2,
{8}2,4,3,7,5,6,1,3,
{8}2,8,6,7,1/8,1-4[8:1]/8-5[8:1],,,
{8},,3/6h[4:1],,5,5,5/7h[4:1],,
{8}4,,5/6h[4:1],,4,4,4/7h[4:1],,
{8}5,,3/6h[4:1],,5,,7,5/7,
{8},4/5,,3/5,3/5,,4/6,4/6,
{8},4,3h[4:1]/6,,4,4,2h[4:1]/4,,
{8}5,,3h[4:1]/4,,5,5,2h[4:1]/5,,
{8}4,,3h[4:1]/4,,5,,2,2/4,
{8},4/5,,5/7,,2/8,,4x/5x,
{8},4,4/6h[4:1],,5,5,5/7h[4:1],,
{8}4,,2/6h[4:1],,5,5,5/7h[4:1],,
{8}4,,3/6h[4:1],,4,,7,5/7,
{8},3/6,3/6,,3x/5x,,4x/6x,,
{8}4/5,,3,3h[4:1]/5,,4,,2h[4:1]/4,
{8},3,3,,4/5,,2h[4:1]/6,,
{4}4,3h[4:1]/4,6,3/5h[8:3],
{8}1s5[4:3],1,,6x,,7x,,8xh[8:5],
{2},5>2[2:1],
{2}8<5[2:1],3>8[2:1],
{8}5pp1[4:5],,,,,,4x,3x,
{1}2h[2:1],
{2}1>4[2:1],6<1[2:1],
{2}3<6[2:1],7p4[4:3],
{2}3h[8:3],3pp4[2:1]*V14[2:1],
{4},,7,6,
{4}4h[4:3]/5,5,B6/B7,,
{4}4h[4:3]/5,5,B6/B7,,
{4}4/5h[4:3],4,B2/B3,4-1[4:1],
{4},,4/5,2/7,
{4}6h[2:1],B6,4h[2:1],B4,
{4}5h[2:1],B5,3h[4:1],B3,
{8}2x/4x,2xh[8:1]/4xh[8:1],,5x/7x,5xh[8:1]/7xh[8:1],,3x/6x,3xh[8:1]/6xh[8:1],
{8},1x/8x,1xh[8:1]/8xh[8:1],,2b/7b,,,,
{8}1/6,,7-4[8:1]/8-4[8:1],,7/8,,3,2/8,
{8},1-5[8:1]/2-5[8:1],,1/2,,7,7>2[4:1],,
{8}2>5[4:1],,5<8[4:1],,8,,2,1/2,
{8},4,3b/5b,,6,5,4,3,
{8}2>5[8:1],,1,,7<4[8:1],,8,8>3[8:1],
{8},4,5,6>3[8:1],,3,2,1,
{8}8>3[4:1],,3<6[4:1],,6-2[4:1],,8,8,
{8},5,4b/6b,,4/5,,1-4[8:1]/8-5[8:1],,
{8}1/8,,1-5[8:1]/2-5[8:1],,1/2,,6,1/7,
{8},7-4[8:1]/8-4[8:1],,7/8,,2,2<7[4:1],,
{8}7<4[4:1],,4>1[4:1],,1,,7,4/7,
{8},1,2b/8b,,3,4,5,6,
{8}7<4[8:1],,8,,2>5[8:1],,1,1-6[8:1],
{8},5,5-1[8:1],,7-3[8:1],,8-3[8:1],,
{4}4<7[4:1],7>2[4:1],2>5[4:1],5,
{4}8,1w5[8:1],1b,,
{8}1/7-4[8:1],,1,2,,2-5[8:1],1,2,
{8},8,7,6,1,5,2,4,
{8}3-8[8:1],,8,7,,7<4[8:1],8,7,
{8},2<7[8:1],4,2,5,6,3b/7b,,
{8}2-5[8:1]/8,,8,7,,7-4[8:1],8,7,
{8},1,2,3,8,4,7,5,
{8}6-1[8:1],,1,2,,2>5[8:1],1,2,
{8},8w4[8:1],,8b,,1,1,,
{8}2<7[8:1]/4,,5,5,,6>3[8:1],7,6,
{8},8,1,2,3,4,5,6,
{8}5/7>2[8:1],,4,4,,3<6[8:1],2,3,
{8},1,8,7,6,5,4,3,
{8}2/8,3,4/5,6,7/8,1,2/8,3,
{8}4x/5x,1x/8x,2b/7b,,6-1[8:1],2-5[8:1],6,2,
{8},8,8h[4:1],,3,7,2,2-5[8:1]/6-1[8:1],
{8},2b/6b,,4,3b/7b,,,,
{1},
{1},
{1},
E
