&title=アウトサイダー
&wholebpm=172
&artist=Eve
&des=はっぴー
&shortid=11045
&genre=niconicoボーカロイド
&cabinet=DX
&version=maimai DX
&chartconverter=Neskol
&lv_2=4
&des_2=-
&lv_3=7
&des_3=-
&lv_4=9
&des_4=サファ太
&lv_5=12+
&des_5=はっぴー
&des_6=
&inote_2=
(172){1},
{1},
{1},
{1},
{1},
{1}4,
{1}4,
{1}5,
{1}5x,
{1}6,
{1}6,
{1}7,
{1}7,
{1}8,
{1}8,
{1}1,
{1}1b,
{1}2h[1:1],
{1},
{1}3h[1:1],
{1},
{1}4h[1:1],
{1},
{2}5,5,
{1}4x/5x,
{1}B4/B5,
{2},C1hf[8:11],
{1},
{1},
{4},,,1,
{4},1,,2,
{4},2,,3,
{4},3,,4,
{4}4,4,,5h[2:1],
{4},,,4h[2:1],
{4},,,5,
{4},5,,4/5,
{4}4/5,4b/5b,,5,
{4},5,,6,
{4},6,,7,
{4},7,,8,
{4}8,8,,1h[2:1],
{4},,,8h[2:1],
{4},,,1,
{4},1,,1/8,
{4}1/8,1b/8b,,1-5[4:5],
{1},
{1},
{4},,,8-4[4:5],
{1},
{1},
{4},,,B3,
{1},
{4},B4,,,
{4},,,B5,
{1},
{4},B6,,,
{4},,,C1hf[1:3],
{1},
{1},
{1},
{1},
{2},1,
{2},2,
{2},3,
{2},4/5,
{2},5,
{2},6,
{2},7,
{2},1b/8b,
{1},
{1},
{4},,8,8,
{4}8,,7,7,
{4}7,,6,6,
{4}6,,5,5,
{2}4/5,4h[2:1],
{2},5h[2:1],
{4},,4,5,
{4}4,,4/5,4/5,
{4}4b/5b,,4,4,
{4}4,,3,3,
{4}3,,2,2,
{4}2,,1,1,
{2}1/8,8h[2:1],
{2},1h[2:1],
{4},,8,1,
{4}8,,1/8,1/8,
{2}1b/8b,1,
{2}1,2,
{2}2,3,
{4}3,,4,4,
{2}4,5,
{2}5,6,
{2}6,7,
{4}7,,8,8,
{2}8,1h[8:3],
{4},1h[8:3],,,
{4}8h[8:3],,,8-4[4:3],
{1},
{1},
{1},
E
&inote_3=
(172){1},
{4}6,6,5,,
{4}3,3,4,,
{4}5,5,4,4,
{4}5,5,4x/5x,,
{4}3,3,4,,
{4}6,6,5,,
{4}4,4,5,5,
{4}4,4,3x/6x,,
{4}6,5,4,,
{4}3,4,5,,
{4}6,6,5,5,
{4}6,5,4x/6x,,
{4}3,4,5,,
{4}6,5,4,,
{4}3,3,2,2,
{4}1,8,2x/7x,,
{2}6h[2:1],5,
{4}4,5,4/5,,
{2}3h[2:1],4,
{4}5,4,4/5,,
{4}6h[2:1],,5,5,
{4}4,5,3/6,,
{4}3,3,2,2,
{4}1,1,8,8,
{1}1-4[8:3]/7,
{8},5,,,5-8[8:3],,,,
{8},,,,,1,,,
{8}8,,,1/8,,,2b/7b,,
{4},,,2,
{4}1/2,7,7/8,2,
{4}1/2,3/8,,6,
{4}6,5,5,4,
{4}4,3,3,2/4,
{4},2,1,1/8,
{4}1/8,2/7,,3,
{4}3/4,5,4/5,4-1[8:3]/5-8[8:3],
{4},,,7,
{4}7/8,2,1/2,7,
{4}7/8,1/6,,3,
{4}3,4,4,5,
{4}5,6,6,5/7,
{4},7,8,1/8,
{4}1/8,2/7,,2h[4:1],
{4}1,8,8,1h[4:1],
{4}8,2b/7b,,5<8[8:3],
{8},,,,,,,1,
{4},1>4[8:3],,,
{8},,,5,,,5>2[8:3],,
{8},,,,,,,1,
{4},1<6[8:3],,,
{8},,,5,,,4/5,,
{8},3h[4:3],,,4,,,4,
{8},,6h[4:3],,,5,,,
{8}5,,,5/6,,,,,
{8},6h[4:3],,,5,,,5,
{8},,3h[4:3],,,4,,,
{8}4,,,3/4,,,,,
{8},2h[4:3],,,1,,,1,
{8},,8h[4:3],,,1,,,
{8}1,,,2h[8:9]/7h[8:9],,,,,
{1},
{2},B3,
{2}C1,B7,
{2},B6,
{2}C1,B2,
{2},B3,
{2}C1,B6,
{2},B4,
{2}B5,C1hf[1:2],
{1},
{1},
{4},,2,1/2,
{4}7,7/8,6,5/6,
{4}4/7,,6h[4:1],5,
{4}4,5,3h[4:1],4,
{4}3/4,3/4,2/5,,
{4}2,1,7/8,7/8,
{4}1/6,,3,3/4,
{4}6,5/6,5-2[8:3]/6-1[8:3],,
{4},,7,7/8,
{4}2,1/2,3,3/4,
{4}2/5,,3h[4:1],4,
{4}5,4,6h[4:1],5,
{4}5/6,5/6,4/7,,
{4}7,8,1/2,1/2,
{4}3/8,,2h[4:1],1,
{4}8,1,7/8,7/8,
{2}1b/6b,B7,
{2}C1,B3,
{2},B5,
{2}B4,C1,
{4}B2/B7,,8,8,
{4}1,2,3,4,
{4}5/6,5/6,6,5,
{4}4,3,2,1/8,
{2}2/7,5<8[8:3],
{8},,,,,1,,,
{1}1>4[8:3],
{4},C1f,,,
{1},
{1},
{1},
E
&inote_4=
(172){1},
{4}2,4,5,4/6,
{4}7,5,4,3/5,
{4}2,4,5,4/6,
{8}5,5,4,,3/6,,,,
{4}2/5,3,5,6,
{4}4/7,6,4,3,
{4}2/5,3,5,4/6h[2:1],
{4}5,5,3x/6x,,
{4}B3,B4,B5,,
{4}E8,C1,E3,,
{4}B6,B5,B4,B3,
{4}E2,C1,B2/B7,,
{4}E5,E6,E7,,
{4}E1,C1,E2/E8,,
{4}E5,E4,E3,E2,
{4}E1,C1,2x/7x,,
{8}3h[4:1],,4,,5,5,4,,
{8}6h[4:1],,5,,4,4,5,,
{8}2h[4:1],,4,,6,6,5,,
{8}7h[4:1],,5,,3,3,4,,
{8}2h[4:1],,1,,8,8,1,,
{8}7h[4:1],,8,,1,1,8,,
{2}4h[4:1]/7h[4:1],2h[4:1]/5h[4:1],
{4}2/5,3/4,5/6,4/7,
{4}3x/8x<5[4:1],,,4x>1[4:1],
{2},8x-4[4:1],
{8},,3x/6x,,,C1hf[8:9],,,
{1},
{4},,3x/6x,4b/5b,
{8}1/2,1/2,,4/5,,3/6,3/6,,
{8}7/8,7/8,,1/6,,3,3,,
{8}4/5,,6,6,5,,3,3,
{8}5,5,2,,1x/8x,,2x/7x,,
{8},6,6h[4:1],,5,5,,2/6,
{8},3/7,,1,1,,2-5[8:1]/8,,
{4},1/8,1/7-4[8:1],,
{8}2/7,2b/7b,,,4/5,,3x/6x,,
{8}7/8,7/8,,4/5,,3/6,3/6,,
{8}1/2,1/2,,3/8,,6,6,,
{8}4/5,,3,3,4,,6,6,
{8}4,4,7,,1x/8x,,2x/7x,,
{8},3,3h[4:1],,4,4,,3/7,
{8},2/6,,8,8,,1/7-4[8:1],,
{4},2-5[8:1]/8,,1/7-4[8:1],
{4},4/5,3b/6b,5h[4:3],
{8},4,,,4h[4:3],,,5,
{8},,5h[4:3],,,4,,,
{8}4h[4:3],,,5,,,6h[4:3],,
{8},5,,,3h[4:3],,,4,
{8},,6h[4:3],,,5,,,
{8}3,,,2x/7x,,,3h[4:3]/6,,
{8},E5,,,5h[4:3],,,C1,
{8},,2h[4:3],,,E1,,,
{8}B3/E4,,,E6/B6,,,7h[4:3],,
{8},E1,,,3h[4:3],,,C1,
{8},,6h[4:3],,,E5,,,
{8}B6/E6,,,B3/E4,,,2h[8:3],,
{8},3h[8:3],,,4h[8:3],,,C1,
{8},,8h[8:3],,,7h[8:3],,,
{8}6h[8:3],,,C1hf[8:9],,,,,
{1},
{2},3/6h[1:2],
{2},3h[1:2],
{1},
{2},5h[1:1],
{2},4h[2:1],
{2}3h[2:1],2h[2:1],
{2}1,1h[2:3]/8h[1:1],
{1},
{1}8<1[2:3],
{1},
{8},,4/5,,3b/6b,,1/2,1/2,
{8},4/6,,3/5,3/5,,7/8,7/8,
{8},1/6,,4/5,4/5,,6,6,
{8}5,,4/7,,7,7,3,3,
{8}4,,4x/5x,,2x/7x,,,2,
{8}2h[4:1],,1,1/2,,3/8,,1/6,
{8},4/5,4/5,,1-5[8:1]/2-5[8:1],,,,
{8}1/8,,7-4[8:1]/8-4[8:1],,,,2x/7x,2x/7x,
{8},,4/5,,4b/6b,,1/2,1/2,
{8},4/6,,3/5,3/5,,7/8,7/8,
{8},1/6,,4/5,4/5,,2,2,
{8}1,,3/8,,4,4,7,7,
{8}8,,1x/8x,,3x/6x,,,7,
{8}7h[4:1],,8,7/8,,1/2,,3/8,
{8},5/6,5/6,,7-4[8:1]/8-4[8:1],,,,
{2}1-5[8:1]/2-5[8:1],7-4[8:1]/8-4[8:1],
{4}1/8,2b/7b,3h[4:1]/5,4,
{8}2,2,4,,4/6h[4:1],,5,,
{8}7,7,5,,2h[4:1]/4h[4:1],,,,
{4}5h[4:1]/7h[4:1],,1/8,2/7,
{8}4h[4:1]/5h[4:1],,,,2x/7x,,,2/4,
{4}2/4,5/7,1/8,4/5,
{4}2/7-3[8:1],,1/2,4/5,
{4}7/8,4qq2[4:1]/5pp7[4:1],,,
{8}1/8,,3x/6x,,2h[8:3],,,3h[8:3],
{8},,4h[8:3],,,5h[8:3],,,
{8}6h[8:3],,,7h[8:3],,,C1hf[2:1],,
{1},
{1},
{1},
E
&inote_5=
(172){1},
{8}2-5[8:1],,6,6,5/6,,4/7,,
{8}6,5,4,3,2,,3/4,,
{8}7-4[8:1],,3,3,3/4,,2/5,,
{16}3,,4,,5,,6,,5h[16:3]/6,,,4h[16:3],,,3,,
{8}2-5[8:1],,6,6,5/6,,4/7,,
{8}6,5,4,3,2,,3/4,,
{8}7-4[8:1],,3,3,3/4,,2/5,,
{8}3,4,5,6,3/6,,4/5,,
{4}3/6,6,4/6,6,
{4}E5/6,C1/6,E1/6,6,
{4}C1/6,6,E5/6,6,
{4}E4/6,B3/6,B2/6,E2/6,
{4}3/6,3,3/5,3,
{4}E5/3,C1/3,E1/3,3,
{4}C1/3,3,E5/3,3,
{4}E1/3,C1/3,E5/3,2x/7x,
{8}3/6-4[8:1],,1,1,2-8[8:1],,7,7,
{8}6-4[8:1],,1,1,2-8[8:1],,7,7,
{8}6,4,5,6,7-1[8:1],,2,2,
{8}3-5[8:1],,8,8,7-1[8:1],,2,2,
{8}3,5,4,3,2-8[8:1],,7,7,
{8}6-4[8:1],,1,1,2-8[8:1],,7,7,
{8}4/6,3,2/5,6,4/7,3,2-6[8:1]/8,8,
{4}7-3[8:1],1-5[8:1],8-4[8:1],1,
{8}2x-4[8:1]/6x,,2,7-5[8:1],,7,4-8[8:1],,
{8}4,5-1[8:1],,5,2-4[8:1],,2,7-5[8:1],
{8},7,4-8[8:1],,4,5-1[8:1],,5,
{8}2,2,2,3x/4x,2x/5x,1x/6x,7x/8x,,
{8},,,4/5,4/5,3,6,3-8[8:1]/7-4[8:1],
{8}4/8,3/7,,2/6,,5,3,2-5[8:1]/6-1[8:1],
{8}1/5,2/6,,3/7,,7-4[8:1],7,8-3[8:1],
{8}8,6-1[8:1],6,5-2[8:1],5,8-5[8:1],8,1-4[8:1],
{8}1,8<3[4:1],8,1,1,,2x/6x,,
{8},1-5[8:1],8-4[8:1],,,1h[4:1],,8,
{8},2/5,,6,5<8[8:1],4,3,,
{8}4>1[8:1],5,6,7,1x/8x,1x/8x,,5x/6x,
{8}4x/7x-3[8:1],,2x/7x,,4/5,,3,2-5[8:1]/6-1[8:1],
{8}1/5,2/6,,3/7,,4,6,3-8[8:1]/7-4[8:1],
{8}4/8,3/7,,2/6,,2-5[8:1],2,1-6[8:1],
{8}1,3-8[8:1],3,4-7[8:1],4,1-4[8:1],1,8-5[8:1],
{8}8,1>6[4:1],1,8,8,,3x/7x,,
{8},7-2[8:1],3-6[8:1],,,8h[4:1],,1,
{8},4/7,,3,4>1[8:1],5,6,,
{8}5<8[8:1],4,3,,4-8[8:1],5,6,,
{8}5-1[8:1],4,3,,2b/7b,,E4/B4/E5,,
{8},B6/E6/E7,,,E1/E8/B8,,,E2/B2/E3,
{8},,E4/B4/E5,,,B6/E6/E7,,,
{8}E1/E8/B8,,,B2/E2/E3,,,E4/B4/E5,,
{8}B7,E6/B6/E7,,B1,E1/B8/E8,,B3,B2/E2/E3,
{8},B5,B4/E4/E5,,B7,E6/B6/E7,,B1,
{8}E1/B8/E8,,B3,E2/B2/E3,,,1>4[8:1],,
{8}7,8<5[8:1],,2,1>4[8:1],,7,8<5[8:1],
{8},2,1>4[8:1],,7,8<5[8:1],,2,
{8}1h[4:1],,8,2/7,,,8<5[8:1],,
{8}E3,1>4[8:1],,E7,8<5[8:1],,E3,1>4[8:1],
{8},E7,8<5[8:1],,E3,1>4[8:1],,E7,
{8}8h[4:1],,1,2/7,,,1>4[8:1],B6,
{8}B7,8<5[8:1],B3,B2,1>4[8:1],B6,B7,8<5[8:1],
{8}B3,B2,1>4[8:1],B6,B7,8<5[8:1],B3,B2,
{8}1>4[8:1],B6,B7,8b,,6,5/7,3,
{8}2/4,5,4/6,3,2x/5x,,,4/6,
{4},4/5,C1f/B2/B6,,
{1},
{1},
{1},
{1},
{1},
{1},
{16},,,,,,,,4x/5x,,,4x/5x,,,4/5,,
{1}C1xh[1:2]/E3/E7,
{1},
{8},,2x/7x,,3,2>5[8:1]/6<1[8:1],1/5,2/6,
{8},3/7,,4,6,3>8[8:1]/7<4[8:1],4/8,3/7,
{8},2/6,,2-5[8:1],2,1-6[8:1],1,3-8[8:1],
{8}3,4-7[8:1],4,1-4[8:1],1,8-5[8:1],8,1>6[4:1],
{8}1,8,8,,3x/7x,,,4-8[8:1],
{8}5-1[8:1],,,3h[4:1],,4,,4/7,
{8},3,4-1[8:1],5,6,,5-8[8:1],4,
{8}3,2,1x/8x,1x/8x,,3x/4x,2x-6[8:1]/5x,,
{8}2x/7x,,4/5,,6,3>8[8:1]/7<4[8:1],4/8,3/7,
{8},2/6,,5,3,2>5[8:1]/6<1[8:1],1/5,2/6,
{8},3/7,,7-4[8:1],7,8-3[8:1],8,6-1[8:1],
{8}6,5-2[8:1],5,8-5[8:1],8,1-4[8:1],1,8<3[4:1],
{8}8,1,1,,2x/6x,,,2-6[8:1],
{8}5-8[8:1],,,1h[4:1],,8,,2/5,
{8},6,5<8[8:1],4,3,,4>1[8:1],5,
{8}6,,5-1[8:1],4,3,,4-8[8:1],5,
{8}6,,2b/7b,,6,5,4,3<6[8:1],
{8},8,8,8,2,1,8,7>2[8:1],
{8},4,4,,1>4[8:1],,6,5<8[8:1],
{8},2,1>4[8:1],,6x,,7x/8x,,
{4}1x/2x,3x/4x,2-4[8:1]/5-1[8:1],2/5,
{4}4-8[8:1]/7-5[8:1],4/7,2-4[8:1]/5-1[8:1],2/5,
{4}4-8[8:1]/7-5[8:1],4/7,1-5[8:1]/6-8[8:1],1/6,
{4}3-1[8:1]/8-4[8:1],3/8,1b/6b,,
{8}4/5,,2x/7x,,E3/B3/E4,,E8,B6/E6/E7,
{8},E2,E3/B3/E4,,E8,E6/B6/E7,,E2,
{8}B3/E3/E4,,E8,E5/B5/B6,,E2,B3/B4/E5,,
{16},,B2,C1f,B6,,,,,,,,,,,,
{1},
{1},
{1},
E
