&title=でらっくmaimai♪てんてこまい!
&wholebpm=178
&artist=やしきん feat.でらっくま(CV:三森すずこ)
&des=はっぴー
&shortid=11003
&genre=maimai
&cabinet=DX
&version=maimai DX
&chartconverter=Neskol
&lv_2=4
&des_2=-
&lv_3=7+
&des_3=-
&lv_4=10
&des_4=Jack
&lv_5=12+
&des_5=はっぴー
&des_6=
&inote_2=
(178){1},
{1},
{1},
{1}1,
{1}1,
{1}8,
{1}8,
{1}1,
{1}1,
{1}8h[1:1],
{1},
{1}1h[1:1],
{1},
{1}1,
{1}1,
{1}2,
{1}2x,
{1}3,
{1}3,
{1}4h[1:1],
{1},
{1}5h[4:3],
{2},6h[4:3],
{1},
{1}7h[4:3],
{2},8h[4:3],
{1},
{2}1x,1,
{1}1,
{2}8,8,
{1}8b,
{1}8-5[4:3],
{1},
{1}1,
{1}1-4[4:3],
{1},
{1}8,
{1}1,
{1}2x/7x,
{1}C1hf[4:3],
{1},
{2}8,8,
{2}7,7,
{2}6,6,
{1}4/5,
{2}4,4,
{2}5,5,
{2}4,4,
{1}4/5,
{2}4,4,
{2}3,3,
{2}2,2,
{1}1/8,
{2}1,1,
{2}2,2,
{2}3,3,
{2}4,4,
{1}4h[1:1]/5h[1:1],
{1},
{1}B5,
{1}B4,
{1}B3,
{1}B2,
{1}B1,
{1}B8,
{1}B7,
{1}B6,
{1}B4/B5,
{1}C1f,
{1}1h[1:1],
{1},
{1}8h[1:1],
{1},
{1}1-4[4:3],
{1},
{1}8-5[4:3],
{1},
{2}1,1,
{2}8,8,
{1}1h[1:1]/8h[1:1],
{1},
{4}8,8,8,,
{4}7,7,7,,
{4}6,6,5,5,
{2}4,4x/5x,
{1}4h[2:1],
{1}5h[2:1],
{4}4,5,4,,
{4}4/5,4/5,3b/6b,,
{4}4,4,4,,
{4}3,3,3,,
{4}2,2,1,1,
{2}8,1x/8x,
{2}8,8,
{2}7,7,
{4}6,6,6,,
{4}5,5,5,,
{1}4h[1:1]/5h[1:1],
{1},
{2}3/4,3/4,
{2}5/6,5/6,
{2}4,5,
{1}3b/6b,
{2}5/6,5/6,
{2}3/4,3/4,
{2}5,4,
{1}3b/6b,
{1}2h[1:1],
{1},
{2}1,1,
{4}8x,8x,8x,,
{1},
{1},
{1},
E
&inote_3=
(178){1},
{1},
{1},
{4}6,6,5/6,,
{4}3,3,3/4,,
{4}6,6,5,5,
{4}4,4,3/5,,
{4}2,2,1/2,,
{4}7,7,7/8,,
{2}6h[2:1],5,
{2}3h[2:1],4,
{1}4-1[2:1]/5-8[2:1],
{2},2x/7x,
{4}3,3,4,,
{4}6,6,5,,
{4}3,3,4,4-1[2:1],
{1},
{4}7,7,8,,
{4}2,2,1,1-5[2:1],
{1},
{4}6,6,5x/7x,,
{1}7-2[2:1],
{2},3-6[2:1],
{1},
{1}7-4[2:1],
{2},3x>6[4:3],
{1},
{4}5,5,4,4,
{4}3,3,2/4,,
{4}5,5,4,4,
{2}3x/5x,3,
{2}3h[2:1],4,
{2}6h[2:1],5,
{2}5/6,7,
{2}7h[2:1],8,
{2}2h[2:1],1b,
{4}3,3,4,4,
{4}5,5,6,6<3[4:3],
{1},
{2},4/5,
{4}4/5,4/5,3b/6b,,
{4}2,3,4,5,
{4}6,6,5/7,,
{4}3,3,2/4,,
{2}4h[4:1]/5h[4:1],3x/6x,
{4}3h[4:1],4,2/5,,
{4}6h[4:1],5,4/7,,
{4}6,4/5,3,4>1[2:1]/5<8[2:1],
{1},
{4}7x,6,5,4,
{4}3,3,2/4,,
{4}6,6,5/7,,
{4}8,1x,1x,,
{4}3/5,3/5,4,5x-8[2:1],
{1},
{4}7,7,6,6,
{4}5,5,4,4-1[8:5]*-7[8:5],
{1},
{2}8xh[2:1],1x,
{4}6,6,4,4,
{4}5,5,4/6,,
{4}2,2,8,8,
{4}1/7,1/7,1/7,,
{4}2,2,3,4,
{4}3/5,3/5,3/5,,
{4}7,6,5,4,
{4}3,2,1/8,,
{1}1-4[2:1]/8-5[2:1],
{2},3b/6b,
{2}B3,C1,
{1}B7,
{2}E6,C1,
{1}E2,
{2}E3,C1,
{1}E7,
{2}E4,C1,
{1}E8,
{1}C1hf[1:1],
{1},
{2}8h[2:1],1h[2:1],
{4}8x,8x,2b/7b,,
{4}2,3,4/5,4/5,
{4}6,6,5/7,,
{4}3,3,2/4,,
{2}4h[4:1]/5h[4:1],3x/6x,
{4}2h[4:1],1,3x/8x,,
{4}7h[4:1],8,1x/6x,,
{4}4,3,2,1,
{4}2x/8x,2x/8x,1x/7x,,
{4}7,6,4/5,4/5,
{4}3,3,2/4,,
{4}6,6,5/7,,
{4}1/8,1x/8x,2x/7x,,
{4}6h[4:1],5,3h[4:1],4-8[2:1],
{1},
{4}1,1,2,2,
{4}3,3,4,4>1[2:1]/5<8[2:1],
{1},
{1}2x/7x,
{4}2,2,1,1x,
{4}8,8,1/7,,
{4}3,3,4,4-8[2:1],
{1},
{4}7,7,8,8x,
{4}1,1,2/8,,
{4}3/4,3/4,4/5,4/5,
{4}5/6,5/6,4b/7b,,
{2}6h[2:1],5,
{2}3h[2:1],4,
{2}7h[2:1],5,
{4}4/5,4/5,4/5,,
{1},
{1},
{1},
E
&inote_4=
(178){1},
{1},
{1},
{4}3/4,1,3/4,1,
{4}5/6,8,5/6,8,
{4}4/5,2,4/5,7,
{8}4xh[4:1]/5xh[4:1],,,4x>1[8:1]/5x<8[8:1],,,,,
{4}1/2,5,1/2,5,
{4}7/8,4,7/8,4,
{1}1pp4[2:1]/8qq5[2:1],
{2}2-6[8:1],7-3[8:1],
{8}1,,8,,2/7,,3/4,3/4,
{8},5/6,,2/7,2b/7b,,,,
{8}1/2,,3,,4,4,5,,
{8}7/8,,6,,5,5,4,,
{8}1/2,,3,,4,4,5,,
{2}7-4[8:1]/8,1-6[8:1],
{8}7/8,,6,,5,5,4,,
{8}1/2,,3,,4,4,5,5,
{8},4/5,4/5,,7xh[4:1]/8xh[4:1],,,7/8,
{8},4/5,4/5,,1xh[4:1]/2xh[4:1],,,,
{4}3,4,5/6,7,
{4}6,4/5,3,4,
{1}5q4[2:1]/6<3[2:1],
{4}2,3,4/5,6,
{8}5,,3/4,,1xh[4:1]/2xh[4:1],,,5xh[4:1]/6xh[4:1],
{8},,7xh[4:1]/8xh[4:1],,,3xh[4:1]/4xh[4:1],,,
{4}1x/8x,2,4/5,7,
{2}1-4[8:1]/8-5[8:1],3x/6x,
{4}1/8,7,4/5,2,
{4}1h[2:1]/8,,3,3/4h[2:1],
{4},5,5/6,,
{4}1/8h[2:1],,6,5h[2:1]/6,
{4},4,3/4,,
{4}1h[2:1]/8,,3,3/4h[2:1],
{4},5,5/6,,
{4}1/8,2,3,4,
{4}5,6,5/6,4/5,
{1}3>6[2:1]/4p5[2:1],
{4}1/8,2/7,3/6,4/5,
{4}E2/B2,B7/E8,B3/E4,B6/E6,
{4}4-8[8:1],7x,6-2[8:1],4x,
{4}3-8[8:1],7x,6,5,
{4}3/4,2h[4:1],4h[4:1],5h[4:1],
{4}7h[4:1],1,C1f/B4/B8,,
{4}3/6h[2:1],2,1-5[8:1],,
{8}3h[2:1]/6,,7x,7x,7x,,2/6,,
{4}3/4,1,5/6,8,
{4}B3/E4,E6/B6,B2/E2,B7/E8,
{4}1-5[8:1],7x,8<5[8:1],3x,
{4}1>4[8:1],5x,6,7,
{4}1/8,2h[4:1],3h[4:1],4h[4:1],
{4}5-8[8:1],1,1b,,
{2}1/2>5[8:1],7<4[8:1]/8,
{8}1x,8x,1x,2x/7x,,,,,
{4}4/5,3/4,5/6,2/4,
{4}5/7,2/5,4/7,1/5,
{16}7xh[16:3],,,6xh[16:3],,,5x,,2xh[16:3],,,3xh[16:3],,,4x,,
{1}4x>5[2:1]/5x,
{4}4h[4:1],5,6h[4:1],5,
{8}2h[4:1],,3,,7,7,1,,
{4}5h[4:1],4,3h[4:1],4,
{8}7h[4:1],,6,,2,2,8,,
{4}3h[4:1],4,6h[4:1],5,
{4}2h[4:1],1,7h[4:1],8,
{2}1/2>5[8:1],7<4[8:1]/8,
{2}1/2q6[8:1],7p3[8:1]/8,
{4}B1/E2,B3/E4,B5/E6,B7/E8,
{8},4x/5x,,,1b/8b,,,,
{2}6h[1:1],B4/B5,
{2}3h[1:1],B4/B5,
{2}7h[1:1],B5/B6,
{2}2h[1:1],B3/B4,
{4}7,6,5,3/4,
{4}2,3,4,5/6,
{4}7,6,4/5,3/4,
{4}2,3,4/5,5/6,
{4}7h[4:1],5h[4:1],4h[4:1],2h[4:1],
{8}8x,8x,1x,1x,8x,8x,1x,,
{8}7/8,,1/2,,4/5,4/5,,2/7,
{4}2/7,E5,C1,E1,
{4}5-1[8:1],2x,3-7[8:1],5x,
{4}6-1[8:1],2x,3,4,
{4}5/6,7h[4:1],5h[4:1],4h[4:1],
{4}2h[4:1],8,B1/C1f/B5,,
{4}3/6h[2:1],2,1-5[8:1],,
{8}3h[2:1]/6,,7x,7x,7x,,2/6,,
{4}4/5,7,4/5,2,
{4}E6/B6,B3/E4,B7/E8,E2/B2,
{4}8-4[8:1],2x,1>4[8:1],6x,
{4}8<5[8:1],4x,3,2,
{4}1/8,7h[4:1],6h[4:1],5h[4:1],
{4}4-1[8:1],8,8b,,
{2}7<4[8:1]/8,1/2>5[8:1],
{8}8x,1x,8x,2x/7x,,,,,
{4}4/5,5/6,3/4,5/7,
{4}2/4,4/7,2/5,4/8,
{16}2xh[16:3],,,3xh[16:3],,,4x,,7xh[16:3],,,6xh[16:3],,,5x,,
{1}4x/5x<4[2:1],
{4}4/5,2,3/4,1b,
{4}4/5,7,5/6,8b,
{4}3/4,1,5/6,8,
{8}3xh[4:1]/4xh[4:1],,,3x>8[8:1]/4x<7[8:1],,,,,
{4}4/5,7,5/6,8b,
{4}4/5,2,3/4,1b,
{4}5/6,8,3/4,1,
{8}5xh[4:1]/6xh[4:1],,,5x>2[8:1]/6x<1[8:1],,,,,
{4}E2,E8,E3,E7,
{4}E4,E6,E3,E7,
{4}E2,E8,E3,E7,
{1}C1hf[2:1],
{1},
{1},
{1},
E
&inote_5=
(178){1},
{4}4,5,4,5,
{4}4,5,4,3x/6x<1[8:1],
{4}3>8[8:1],5q2[8:1],4p7[8:1],6<1[8:1],
{4}3>8[8:1],5q2[8:1],4p7[8:1],6<1[8:1],
{4}3>8[8:1],5q2[8:1],4,3/5pp4[8:3],
{8}1h[4:1],,,1,,3x/6x,3x>8[8:1]/6x,,
{4}6<1[8:1],4p7[8:1],5q2[8:1],3>8[8:1],
{4}6<1[8:1],4p7[8:1],5q2[8:1],3>8[8:1],
{4}6<1[8:1],4p7[8:1],5,4/5,
{4}5<8[8:1],3,4>1[8:1],6,
{8}5,,3/4,,5/6,,3,3<6[4:1],
{8},6,,1,1,,4/5,,
{4}3,5-8[8:1],4-2[8:1],8,
{4}6,4-1[8:1],5-7[8:1],1,
{4}3,5-1[8:1],4-8[8:1],1,
{8}1/8,,3/7,3/7,,1x,1x,,
{4}6,4>1[8:1],5<7[8:1],1,
{8}3,,5<8[8:1],,4>2[8:1],,8,8h[4:1],
{8},1,1,,2/7,8,8,1>4[8:1],
{8},5,5,,2/7,1,1,,
{4}8,8<5[4:1],1,E1,
{4}C1,B4/B5,1,1>4[4:1],
{4}8,E1,C1,B4/B5,
{4}8,8<5[4:1],1,E1,
{8}C1,,E5,,4x/5x,,,3x/6x,
{8},,2x/7x,,,1x/8x,,,
{4}2b/7b,4/5,2-7[8:1]/6-3[8:1],,
{8}1>4[8:1]/8<5[8:1],,,,1/8,1/8,,4/5,
{8}4>1[8:1]/5<8[8:1],,,,2/7,3/6,4/5,,
{4}3/6h[1:2],,C1,E8,
{4}E5,E2,E4,E1,
{8}3h[1:2],,5<8[4:1],,,,,8x,
{8}8x,,5x,5x,,8x,8x,,
{4}6h[2:3],E2,E5,E8,
{8}E1,,E5,,C1f,,,1xh[4:1]/7xh[4:1],
{8},,2/8,,1h[4:1]/7h[4:1],,,2xh[4:1]/8xh[4:1],
{4},1/6,3/8,1/6,
{1}3/8<1[2:1],
{4}1/8,1pp1[4:1]/8-5[8:1],,,
{4}7x/8x,5x/6x,3x/4x,1x/2x,
{4}7-5[8:1]/8-4[8:1],7x/8x,1-5[8:1]/2-4[8:1],1x/2x,
{4}2/8<4[4:1],4>8[4:1],8<4[4:1],4,
{4}3-8[8:1],5,6-1[8:1],4qq5[2:1],
{8}5,,,7,7,,8,,
{8}1,1-5[8:1],5-1[8:1],,,8b,8b,,
{8}1>4[8:1],1,7,7,7,1x/8x,1x/8x,,
{2}3-1[8:1]/4-8[8:1],5-1[8:1]/6-8[8:1],
{4}1x/8x,5x/7x,4x/5x,2x/4x,
{4}2-5[8:1]/6-1[8:1],2x/6x,4pp6[4:1]*qq2[4:1]/8,,
{4},2h[8:1]/8h[8:1],2h[8:1]/8h[8:1],3h[8:1]/7h[8:1],
{4}4pp4[4:1]*qq4[4:1]/6,,,4-1[8:1],
{8}5-8[8:1],,1b,,8b,,,6,
{4}6h[4:1],8h[4:1],1h[4:1],3,
{8}1x/2x,3x/8x,4x/7x,5x/6x,,8,8,1>7[4:1],
{8},8,8,,1/8,,5/7,,
{4}2/4,5/6,3/7,2/8<2[2:1],
{1}1h[1:1],
{2}C1f,4/5,
{16}3,4,3,4,2h[4:1],,,,4,3,4,3,4h[4:1],,,,
{16}3,4,3,4,2,5,2,5,3,4,3,4,3,,,,
{16}6,5,6,5,7h[4:1],,,,5,6,5,6,5h[4:1],,,,
{16}6,5,6,5,7,4,7,4,6,,,,4/5,,,,
{16}3,4,3,4,3h[4:1],,,,6,5,6,5,6h[4:1],,,,
{16}4,5,4,5,3,6,3,6,4,5,4,5,4,,,,
{4}1>4[4:1],4,5<8[4:1],8,
{4}1>4[8:1],5<8[8:1],1>4[8:1],5,
{32}1x,,2x,,3x,,4x,,5x,,6x,,7x,,8x,,1x,2x,3x,4x,5x,6x,7x,8x,1x,2x,3x,4x,5p4[8:3],6x,7x,8x,
{4}1x,,,1>8[2:7],
{1}C1xh[2:7],
{1},
{1},
{1},
{4}E1,C1,E5,E3/E7,
{4}E1,C1,E5,E3/B3/B6/E7,
{4}E1,C1,E5,B2/E3/B7/E7,
{4}E1,C1,E5,B2/B3/E3/B6/E7/B7,
{8}4,4,5,5,4,4,5,5,
{16}4,5,4,5,3,6,3,6,2,7,2,7,1x,,,,
{1}C1hf[2:1],
{4}1x/2x,3x/4x,5x/6x,7x/8x,
{4}2-4[8:1]/5-1[8:1],2x/5x,4-8[8:1]/7-5[8:1],4x/7x,
{4}1>5[4:1]/7,5<1[4:1],1>5[4:1],5,
{4}6-1[8:1],4,3-8[8:1],5pp4[2:1],
{8}4,,,1,1,,8,,
{8}1,1-5[8:1],5-1[8:1],,,8b,8b,,
{8}1>4[8:1],1,7,7,7,1x/8x,1x/8x,,
{2}5-1[8:1]/6-8[8:1],3-1[8:1]/4-8[8:1],
{4}1x/8x,2x/4x,4x/5x,5x/7x,
{4}3-8[8:1]/7-4[8:1],3x/7x,1/5pp6[4:1]*qq4[4:1],,
{4},1h[8:1]/7h[8:1],1h[8:1]/7h[8:1],2h[8:1]/6h[8:1],
{4}3/5pp5[4:1]*qq5[4:1],,,5-8[8:1],
{8}4-1[8:1],,8b,,1b,,,3,
{4}3h[4:1],1h[4:1],8h[4:1],6,
{8}7x/8x,1x/6x,2x/5x,3x/4x,,1,1,8<2[4:1],
{8},1,1,,1/8,,2/4,,
{4}5/7,4/5,3/6,2/7,
{16}2/4,,,4/5,,,5/7,,1/8,,,2/4,,,4/5,,
{4}C1f,,1/8,3x>8[8:1]/6x,
{4}6<1[8:1],4p7[8:1],5q2[8:1],3x>8[8:1],
{4}6<1[8:1],4p7[8:1],5q2[8:1],3x>8[8:1],
{4}6<1[8:1],4p7[8:1],5,4/6,
{8}1h[4:1]/7h[4:1],,,2x/8x,,3/6,3x/6x<1[8:1],,
{4}3>8[8:1],5q2[8:1],4p7[8:1],6x<1[8:1],
{4}3>8[8:1],5q2[8:1],4p7[8:1],6x<1[8:1],
{4}3>8[8:1],5q2[8:1],4,3/5,
{8}1h[4:1]/6h[4:1],,,3h[8:3]/8h[8:3],,,,,
{4}E1/E8,3/5,E1/E2,4/6,
{4}E1/E8,3/5,E1/E2,4/6,
{4}E1/E8/B8,3/5,B1/E1/E2,4/5,
{4}3/6,3/6,C1f,,
{1},
{1},
{1},
E
