&title=だれかの心臓になれたなら
&wholebpm=145
&artist=ユリイ・カノン feat.GUMI
&des=サファ太
&shortid=11086
&genre=niconicoボーカロイド
&cabinet=DX
&version=maimai DX
&chartconverter=Neskol
&lv_2=3
&des_2=-
&lv_3=6
&des_3=-
&lv_4=9
&des_4=はっぴー
&lv_5=11+
&des_5=サファ太
&des_6=
&inote_2=
(145){1},
{1},
{1},
{1},
{1},
{1},
{1},
{1},
{1},
{1},
{1}1,
{1}1,
{1}2,
{1}2,
{1}3,
{1}3,
{1}4,
{1}4x/5x,
{1}5h[2:1],
{1}5,
{1}6h[2:1],
{1}6,
{2}7,7,
{2}8,8,
{2}1,1,
{1}1x/8x,
{2}8,8,
{1}8,
{2}7,7,
{1}7,
{2}6,6,
{2}5,5,
{2}4,4,
{1}4x/5x,
{1}B3,
{1}B2,
{1}B1,
{1}B8,
{1}B7,
{1}B6,
{1}C1hf[1:1],
{1},
{4}1,1,1,,
{4}2,2,2,,
{4}3,3,3,,
{4}4,4,4/5,,
{4}5,5,5,,
{4}6,6,6,,
{4}7,7,7,,
{4}1x/8x,1x/8x,1b/8b,,
{4}8,8,8,,
{4}7,7,7,,
{4}6,6,6,,
{4}5,5,4x/5x,,
{4}4,4,4,,
{4}3,3,3,,
{4}2,2,2,,
{4}1x/8x,1x/8x,1x/8x,,
{4}2,2,3,3,
{4}4,4,4/5,,
{4}6,6,7,7,
{4}8,8,1/8,,
{4}7,7,6,6,
{4}5,5,4/5,,
{4}3,3,2,2,
{4}1x/8x,1x/8x,1b/8b,,
{2}1,1,
{4}1,8,1,,
{1}1-5[4:3],
{1},
{2}8,8,
{4}8,1,8,,
{1}8-4[4:3],
{1},
{1}3h[2:1],
{1}2h[2:1],
{1}1h[2:1],
{1}8h[2:1],
{2}7,7,
{2}6,6,
{2}4/5,4/5,
{4}4x,5x,4b,,
{1},
{1},
{1},
E
&inote_3=
(145){1},
{1},
{2}1h[2:1],2h[2:1],
{2}3h[2:1],4,
{2}5h[2:1],6h[2:1],
{2}7h[2:1],8,
{4}2,1/2,2,1/2,
{4}7,7/8,1x/6x,,
{4}7,7/8,7,7/8,
{4}1,1/8,2b/7b,,
{4}1,2,3/4,,
{4}5,6,7/8,,
{4}8,7,6,5,
{4}4,3,1x/2x,,
{4}8,7,5/6,,
{4}4,3,1/2,,
{4}3,4,5,6,
{4}7,1x/8x,2b/7b,,
{4}6h[4:3],,,5,
{4}4h[4:3],,,5,
{4}6h[4:3],,,5,
{4}4,3,3x/4x,,
{4}3h[4:3],,,4,
{4}5h[4:3],,,4,
{4}3h[4:3],,,4,
{4}5,6,5x/7x,,
{4}6,6,5/6,,
{4}4,4,4/5,,
{4}6,6,6,5,
{4}4,3,2x/4x,,
{4}3,3,3/4,,
{4}5,5,4/5,,
{4}3,3,3,2,
{4}1,8,2x/7x,,
{1}8-5[8:3],
{4}4,4,4x,,
{1}4-1[8:3],
{4}8,8,8x,,
{1}7-4[8:3],
{4}3,3,3x,,
{4}2,2,1,1,
{4}1/8,1/8,2b/7b,,
{4}8,7,6,5,
{4}4,3,1/2,,
{4}3h[4:1],4,5h[4:1],4,
{4}3,1/2,3x/8x,,
{4}1,2,3,4,
{4}5,6,7/8,,
{4}6h[4:1],5,4h[4:1],5,
{1}4-1[8:3]/5-8[8:3],
{4}1,2,3,4,
{4}5,6,7/8,,
{4}6h[4:1],5,4h[4:1],5,
{4}6,7/8,1x/6x,,
{4}8,7,6,5,
{4}4,3,1/2,,
{4}3h[4:1],4,5h[4:1],4,
{4}4/5,3h[4:1]/6h[4:1],,,
{4}2,1/2,7,7/8,
{4}6,5/6,4x/7x,,
{4}6h[4:1],5,3h[4:1],4,
{1}4>1[8:3]/5<8[8:3],
{4}7,7/8,2,1/2,
{4}3,3/4,2x/5x,,
{4}3h[4:1],4,6h[4:1],5,
{4}4/5,3/6,2b/7b,,
{4}8,7,5/6,4,
{4}5/6,4/7,3x/8x,,
{1}1>4[8:3],
{1}5<8[8:3],
{4}1,2,3/4,5,
{4}3/4,2/5,1x/6x,,
{1}7<4[8:3],
{1}3>8[8:3],
{2}B7,B5,
{1}B3,
{2}B2,B4,
{1}B6,
{2}B7,C1,
{2}B3,B2,
{2}C1,B6,
{1}C1hf[2:1],
{1},
{1},
{1},
E
&inote_4=
(145){1},
{1},
{2}1-4[8:1],8-5[8:1],
{4}1,2/8,3/7,,
{2}8-5[8:1],1-4[8:1],
{4}8,1/7,2/6,,
{2}1>4[8:1],8<5[8:1],
{4}1,2/8,3/7,,
{2}8<5[8:1],1>4[8:1],
{4}8b,,1/8,4/5,
{8}3,3,4,,6,6,5,,
{4}3/4,1/2,7/8,5/6,
{8}6,6,5,,3,3,4,,
{4}5/6,7/8,1/2,3/4,
{8}3,3,4,,6,6,5,,
{4}2/4,1/8,5/7,4/5,
{8}6,6,5,,3,3,4,,
{4}5/7,1/8,2/4,4/5,
{4}6h[1:2],5,5,5,
{4}7,8,1,2,
{4}3h[1:2],4,4,4,
{4}2,1,8,7,
{4}6h[2:1],5,3h[2:1],4,
{4}6,4/5,2/7,,
{4}1/8,2/7,3/6,4>5[2:1]/5,
{4},,,4/5,
{4}6h[2:1],5,3h[2:1],4,
{4}7h[2:1],5,2h[2:1],4,
{4}8h[2:1],6,1h[2:1],3,
{4}8h[2:1],5,1,4/5,
{4}2h[4:1],1h[4:1],8h[4:1],7h[4:1],
{4}6h[4:1],5h[4:1],4,3/6,
{2}2-5[8:1],6-1[8:1],
{4}2h[4:1],3h[4:1],4h[4:1],5,
{1}C1xh[2:1],
{4}1,2/4,8,5/7,
{1}C1xh[2:1]/B3/B6,
{4}8,4/7,1,2/5,
{1}C1xh[2:1]/B2/B3/B6/B7,
{4}1,2/6,8,3/7,
{4}6h[4:1],8h[4:1],1h[4:1],3h[4:1],
{4}6,1/8,2b/7b,1-5[8:1]/8-6[8:1],
{8},,1-3[8:1]/8-4[8:1],,,,1,1,
{4}8,B2/B3/E4,E6/B6/B7,1-3[8:1]/8-4[8:1],
{8},,1-5[8:1]/8-6[8:1],,,,8,8,
{4}1,B5/B6/E7,E3/B3/B4,7-5[8:1]/8-4[8:1],
{8},,1-5[8:1]/2-4[8:1],,,,8,8,
{4}1,B3/E3/B4,B5/B6/E7,1-5[8:1]/2-4[8:1],
{8},,7-5[8:1]/8-4[8:1],,,,1,1,
{4}8,4/5,C1f/B2/B3/B6/B7,,
{8}1/8,,4/5,,2b/7b,,1,1,
{4}8-5[8:1],1-4[8:1],8,5-2[8:1]/6,
{8},,3/4-7[8:1],,,,8,8,
{4}1-4[8:1],8,2/7,3/4-7[8:1],
{8},,5-2[8:1]/6,,,,8,8,
{4}1>4[8:1],8<5[8:1],1,3/4-8[8:1],
{4},5-1[8:1]/6,,3/4-8[8:1],
{4},1,2b/7b,3-1[8:1]/8-4[8:1],
{8},,1-5[8:1]/6-8[8:1],,,,8,8,
{4}1,B4/B5/E6,B2/B3/E4,1-5[8:1]/6-8[8:1],
{8},,3-1[8:1]/8-4[8:1],,,,1,1,
{4}8,B3/E3/B4,B5/B6/E7,2-8[8:1]/7-3[8:1],
{8},,1-5[8:1]/6-8[8:1],,,,8,8,
{4}1,B5/B6/E7,E3/B3/B4,2-6[8:1]/7-1[8:1],
{8},,3-1[8:1]/8-4[8:1],,,,1,1,
{4}8,4/5,C1f/B2/B3/B6/B7,,
{8}1/8,1/8,1/8,,3b/6b,,8,8,
{4}1>4[8:1],6-3[8:1],1,2/4-7[8:1],
{8},,5-2[8:1]/7,,,,1,1,
{4}8-5[8:1],1-4[8:1],8,5-2[8:1]/6,
{8},,3/4-7[8:1],,,,1,1,
{4}8<5[8:1],3-6[8:1],8,5-1[8:1]/7,
{4},2/4-8[8:1],,5-1[8:1]/7,
{4},8,3b/6b,,
{8}5/7,,4,4,5,,3,,
{4}2/4h[4:1],5h[4:1],7h[4:1],4,
{8}2/5,,8,8,1,,6,,
{8}4/7,,1,1,2/7,,4/5,,
{8}6h[4:1],,5,5,8h[4:1],,1,8,
{8}3h[4:1],,4,4,1h[4:1],,8,1,
{8}6,6,5,,3,3,4,,
{4}E4/E6,B1/B8,C1f/B2/B3/B6/B7,,
{1},
{1},
{1},
E
&inote_5=
(145){1},
{4},,,4/5,
{2}3xh[2:1]/6,2xh[2:1],
{4}1xh[2:1],,8,7,
{2}3/6xh[2:1],7xh[2:1],
{4}8xh[2:1],,1,2,
{4}3/5h[4:1],4,4h[4:1]/6,5,
{8}2/4h[4:1],,3,,5/6,,4,3,
{8}2h[4:1]/5,,5,6,4h[4:1]/7,,5,,
{4}C1xh[2:1]/B2/B7,,,2x/7x,
{16}3x,4,,4,2,,2,,6,5,,5,7,,7,,
{8}7-5[8:1]/8,,1-5[8:1],,7,7,4/7,,
{16}6,5,,5,7,,7,,3,4,,4,2,,2,,
{8}2/5,3,4/5,6,4/7,,B3/B4/B7/B8,,
{16}6x,5,,5,8,,8,,3,4,,4,1,,1,,
{8}2-4[8:1]/5,,8-4[8:1],,2,2,2/8,,
{16}3,5,,5,1,,1,,6,4,,4,8,,8,,
{8}1/7,2,3/5,6,2-4[8:1]/7x-5[8:1],,,,
{8}3/5,,3/5,3,3h[4:1]/5,,B7/B8,,
{8}5/6,4,3h[4:1]/6-4[8:1],,,,B2/B3,,
{8}4h[4:1]/6,,6,6,5/6h[4:1],,B1/E2,,
{8}3/4,5,3<5[8:1]/6h[4:1],,,,B6/E6,,
{4}7-5[8:1],B5,2-4[8:1],B4,
{8}7-5[8:1],,C1,,2x/7x,,4/5,5,
{8}3h[4:1]/5,,4,5,2/6>3[4:1],,3pp6[4:3],,
{4}1xh[2:1],,,2,
{8}3/4h[4:1],,2,3,4h[2:1]/6,,B8/E8,,
{8}6,3/5,2/4h[4:1],,B2/E2,,4x/5x,,
{8}4h[4:1]/6,,7,3/6,2h[2:1]/5,,B8/E8,,
{8}5,3/6,4/7h[4:1],,B1/E2,,3x/5x,,
{4}2-4[8:1],B4/B5,7-5[8:1],B3/E3,
{8}2-4[8:1],,B7/E8,,1x/8x,,3x/6x,3,
{8}4/7h[4:1],,4,5,2h[4:1]/6,,7,1,
{16}2/8,,2/8,,4/6,,4/6,,3,5,3,5,2b,,,,
{16}4h[16:3],,,2h[16:3],,,1>4[8:1],,1,,8h[4:1],,,,1,,
{4}1-4[8:1],5-8[8:1],1>4[8:1],5,
{16}5h[16:3],,,7h[16:3],,,8<5[8:1],,8,,1h[4:1],,,,8,,
{4}8-5[8:1],4-1[8:1],8<5[8:1],4,
{16}4h[16:3],,,2h[16:3],,,1>4[8:1],,1,,8h[4:1],,,,1,,
{4}1-4[8:1],5<8[8:1],3,B4/E4/B6/E7,
{8}3/5,3,4/6,6,2/5,2,3x/7x,,
{8}B2/E2/B3/E4,,B6/E6/B7/E8,,E1/C1/E5,,1-5[8:1]/8,7,
{8}6x,,4/6-1[8:1],3,2x,,1/8,2,
{8}3/4,5,6/7,8,2x/6x,,1/8-4[8:1],2,
{8}3x,,3-8[8:1]/5,6,7xh[4:1],,5>2[8:1],5,
{8}8<5[8:1],8,1,1,3x/7x,,2-5[8:1]/5,6,
{8}8x,,4/7-4[8:1],3,1x,,1/8,7,
{8}5/6,4,2/3,1,3x/7x,,1x-5[8:1]/5x-7[8:1],1x/5x,
{8},,4x-2[8:1]/8x-4[8:1],4x/8x,,,5,6,
{4}7x<4[8:1]/8x-4[8:1],7x/8x,B1/C1f/B8,,
{8}1b/8b,2b/7b,3b>1[8:1]/6b<8[8:1],,,,2/7,3,
{16}4/5,,6,5,7,,1/8,,2x/7x,,,,4-8[8:1]/8,,7,,
{8}5x,,1/7-4[8:1],2,3xh[4:1],,2<7[8:1],2,
{8}5>2[8:1],5,8,8,2x/6x,,3-8[8:1]/8,6,
{8}4x,,1/5-1[8:1],2,4x,,2/8,7,
{16}4/6,,3,4,2,,1/8,,2x/7x,,,,1x>3[8:1]/5x-1[8:1],,1x/5x,,
{8},,4x-8[8:1]/8x<6[8:1],4x/8x,,,1/8,2,
{16}3/5,,6,5,7,,1/8,,3x/6x,,,,2>4[8:1]/8,,C1,,
{8}E5,,1/7<5[8:1],C1,E5,,1/6,2,
{16}3/4,,6,5,7,,1/8,,3x/6x,,,,7<5[8:1]/8,,C1,,
{8}E5,,1/2>4[8:1],C1,E5,,5/6,7,
{16}1/8,,2,4,3,,4/5,,3x/6x,,,,2>5[8:1]/6,,C1,,
{8}E2,,3/7<4[8:1],C1,E8,,2/8,7,
{16}4/6,,3,4,2,,1/8,,2x/7x,,,,2/6<1[8:1],,C1,,
{8}E6,,3>8[8:1]/7,C1,E4,,5,6,
{4}1x>4[8:1]/7x<4[8:1],1x/7x,3b/8b,,
{16}C1f/B2/B3/B4/B5/E5/B6/B7,,,,1x/8x,,2x/7x,,3x/6xh[16:3],,,5,7,,1,,
{16}2/8,,3,5,4,,5/7,,1-5[8:1]/8,,,,6,,7,,
{8}8<5[8:1],,3,1,8>3[8:1],,5,7,
{16}4/8,,7,5,6,,4/5,,3x/6x,,,,2x/8x,,3x/7x,,
{16}4x/6xh[16:3],,,5,7,,2/8,,3h[16:3],,,4,2,,8,,
{16}1/7,,6,4,5,,3/4,,2/5-1[8:1],,,,2,,3,,
{8}4>1[8:1],,7,5,4<7[8:1],,1,3,
{16}4w8[8:1],,,,,,,,2b/6b,,,,,,3,4,
{4}2x-5[8:1],6h[4:3],E8,E6,
{16}4xh[2:1],,,,E5,,,,E1,,,,B2/E3/B7/E7,,5,4,
{4}5x-1[8:1],3h[4:3],E2,E4,
{4}5x<8[8:1],1x>4[8:1],8x,E1/C1f/E5,
{16}7xh[16:3],,,8,6,,1/5,,2h[16:3],,,1,3,,4/8,,
{16}5h[16:3]/7,,,6,5,,4/5,,3x-1[8:1]/6x-4[8:1],,,,,,,,
{16}3xh[16:3]/7xh[16:3],,,,3/7,,6,,2/5,,3,4,3,,2/7,,
{16}E2,E8,B2,B7,B3,B6,E4,E6,B1/C1f/B8,,,,,,,,
{1},
{1},
{1},
E
