&title=だからパンを焼いたんだ
&wholebpm=170
&artist=あわのあゆむ
&des=はっぴー
&shortid=11070
&genre=niconicoボーカロイド
&cabinet=DX
&version=maimai DX
&chartconverter=Neskol
&lv_2=3
&des_2=-
&lv_3=6
&des_3=-
&lv_4=9
&des_4=畳返し
&lv_5=12
&des_5=はっぴー
&des_6=
&inote_2=
(170){1},
{1},
{1},
{1},
{1},
{1},
{1},
{1},
{1},
{1},
{1}1,
{1}1,
{1}2,
{1}2,
{1}3x,
{1}3x,
{1}4,
{1}4/5,
{1}4h[1:1]/5h[1:1],
{1},
{1}5h[1:1],
{1},
{2}6,6,
{1}6,
{2}7,7,
{2}8,8,
{1}8h[1:1],
{1},
{2}1,1,
{1}1,
{2}2,2,
{1}2,
{2}3,3,
{2}4,4,
{1}4h[1:1]/5h[1:1],
{1},
{1}B6,
{1}B7,
{1}B8,
{1}B1,
{1}B2,
{1}B3,
{1}4h[1:1]/5h[1:1],
{1},
{1}B3,
{1}B2,
{1}B1,
{1}B8,
{1}B7,
{1}B6,
{1}4h[1:1]/5h[1:1],
{1},
{1}B4/B5,
{1}B3/B6,
{1}B2/B7,
{1}B1/B8,
{1}C1xh[1:1],
{1},
{1},
{1}B4/B5,
{1}B3/B6,
{1}C1f,
{2}1,1,
{1}1b,
{2}2,2,
{4}3,3,3,,
{2}4/5,4/5,
{1}4b/5b,
{4}6,6,6,,
{4}7,7,7,,
{2}8,8,
{1}1xh[2:1],
{2}2,2,
{4}3,3,3,,
{2}4/5,4/5,
{1}4b/5b,
{1}6-3[4:3],
{1},
{1}2-7[4:3],
{1},
{2}8,8,
{4}7,7,7,,
{1}5xh[2:1]/6xh[2:1],
{1}3xh[2:1]/4xh[2:1],
{2}5x,4x,
{4}5,5,4,4,
{1}3x/6x,
{2}2x,2,
{2}3,3,
{2}4,4,
{1}5h[2:1],
{1}4x/6x,
{1}3x/5x,
{2}6,6,
{2}7,7,
{1}1/8,
{1}1xh[16:49]/8xh[16:49],
{1},
{1},
{1},
{1},
{1},
E
&inote_3=
(170){1},
{1}5xh[4:3]/6xh[4:3],
{4}6,5,4/5,,
{1}3h[4:3]/4h[4:3],
{4}3,4,4/5,,
{1}5h[4:3]/7h[4:3],
{4}6,5,4/5,,
{1}2h[4:3]/4h[4:3],
{4}3,4/5,3x/6x,,
{4}1x,2x,3x,,
{4}2,1,7x/8x,,
{4}7,8,1x/2x,,
{4}2,2,1,1,
{4}8,7,7x/8x,,
{1}1h[2:1]/7h[2:1],
{1}2h[2:1]/8h[2:1],
{4}2,2,1x/2x,,
{4}7,7,7x/8x,,
{4}1,1,8,8,
{4}1x/8x,2b/7b,,,
{2}6h[2:1],5,
{2}4h[2:1],5,
{4}6,6,5,5,
{4}4,3,3x/4x,,
{4}3,3,4,,
{4}6,6,5,,
{4}3,3,4,4,
{4}5,6,5x/7x,,
{4}6,6,5/6,,
{4}3,3,3/4,,
{4}6,6,5,5,
{4}4,3,2x/4x,,
{4}3,2,3/4,,
{4}6,7,5/6,,
{4}3,3,2,2,
{4}1x,1x/8x,2b/7b,,
{1}6h[1:1],
{1}5h[1:1],
{1}4h[1:1],
{4}3,3,3x/4x,,
{1}3h[1:1],
{1}4h[1:1],
{1}5h[1:1],
{4}6,6,5x/6x,,
{2}B6,B5,
{1}E5,
{2}B3,B4,
{1}E5,
{2}B7,C1,
{2}B3,B2,
{2}C1,B6,
{1}C1,
{2}B2,C1,
{2}B6,B7,
{2}C1,B3,
{1}C1xh[1:1],
{1},
{1}1xh[2:3]/8xh[2:3],
{1},
{1}2b/7b,
{2}1x/2x,1x/8x,
{4}7,7,7x/8x,,
{4}6,5,4,3,
{4}1x/2x,1x/2x,3x/8x,,
{4}7,7,7x/8x,7x/8x,
{4}1,1,2x/8x,,
{4}3,4,4-1[2:1]/5-8[2:1],,
{2},2x/7x,
{4}7,7,7x/8x,7x/8x,
{4}1,1,2x/8x,,
{4}3,4,5,6,
{4}7x/8x,7x/8x,1x/6x,,
{4}2,2,1x/2x,1x/2x,
{4}8,8,1x/7x,,
{4}6,5,4>1[2:1]/5<8[2:1],,
{2},2x/7x,
{1}7-5[2:1]/8-4[2:1],
{1}1-5[2:1]/2-4[2:1],
{1}1-4[2:1]/8-5[2:1],
{4}3x/6x,2x/7x,1b/8b,,
{1}1-5[2:1]/2-4[2:1],
{1}7-5[2:1]/8-4[2:1],
{1}1xh[2:1]/8xh[2:1],
{1}2xh[2:1]/7xh[2:1],
{4}1,1,2,2,
{4}3,4,4/5,3/6,
{4}2x/7x,2x/7x,,2x,
{4}2x,3,4,5,
{4}6,6,5x/6x,,
{4}7x,7x,6,5,
{4}4,3,3x/4x,,
{1}3xh[2:1]/5xh[2:1],
{1}4xh[2:1]/6xh[2:1],
{2}B6,B5,
{2}E5,B4/B5,
{2}B3/B6,B2/B7,
{1}C1hf[1:3],
{1},
{1},
{1},
{1},
{1},
E
&inote_4=
(170){1},
{4}1,2,3,4,
{1}3/5,
{4}8,7,6,5,
{1}4/6,
{4}1,2,3,4/5,
{1}5/6,
{8}8,,7,,6,,5x,5x,
{1}4x,
{4}E5,E4/E6,C1/B2/B7,,
{1}1>5[4:1],
{4}5,4/6,5/7,,
{1}8<4[4:1],
{4}4,3/5,2/4,,
{8}1/7,,8,1,8h[4:1],,,,
{8}3/5,,4,5,4h[4:1],,,,
{2}7<3[4:1],1h[4:1],
{4}2/8,1/7,6/8,5/7,
{4}8h[1:1],1>4[4:1],,,
{4},3h[2:1]/6h[2:1],,,
{2}B1/B2/E2,B3/E4/B4,
{4}5,4/6,5/7,,
{2}B7/B8/E8,B5/E6/B6,
{4}4,3/5,2/4,,
{2}B4/E5/B5,B6/B7/E7,
{4}8,1/7,2/8,,
{2}B4/B5/E5,B2/E3/B3,
{2}1h[4:1]/3h[4:1],2xh[8:1]/8xh[8:1],
{2}2h[2:1]/4,5h[2:1],
{4}2,5-8[8:1],,,
{2}1/3h[2:1],8h[2:1],
{4}3,8-5[8:1],,,
{2}5/7h[2:1],4h[2:1],
{4}7,4-1[8:1],,,
{2}6h[2:1]/8,1h[2:1],
{4}6,4/5,3/6,,
{1}1q6[8:3]/2>5[8:3],
{4}5,4/6,3/7,,
{1}7<4[8:3]/8p3[8:3],
{4}4,3/5,2/6,,
{1}3>8[8:3]/4p7[8:3],
{4}8,1/7,2/6,,
{1}5q2[8:3]/6<1[8:3],
{8}1/2,,3x,3x,4x,,,,
{4}4/6h[2:1],4,4h[2:1],6,
{4}6,5/7,4/8,,
{4}3h[2:1]/5,5,5h[4:1],3<6[4:1],
{2},8b,
{4}4>2[4:1]/6h[1:1],,,1,
{4}2h[2:1],4,5,,
{4}2h[1:1]/4<6[4:1],,,7,
{4}6h[2:1],4,3,,
{4}5>3[4:1]/7h[1:1],,,2,
{4}3h[4:1],5,4/6,,
{1}3h[2:3]/4<1[4:5],
{1},
{4}2/3,4,5,6,
{2}1/7,1h[4:1]/8h[4:1],
{16}2h[4:1]/7h[4:1],,,,,,,,3h[4:1]/6h[4:1],,,,,,,4x,
{4}5x,2/3,1/2,1/8,
{4}2b>5[4:1],,6,1/7,
{4}7b<4[4:1],,3,2/8,
{4}1h[8:1]/3h[8:1],1/3,5h[8:1]/7h[8:1],5/7,
{4}6,7/8,1/8,1/2,
{4}8-4[4:1],,3,2/8,
{4}1-5[4:1],,6,1/7,
{8}6x,6x,5/7,,4x,4x,3/5,,
{8}2h[4:1]/4h[4:1],,,,,1x,1x,,
{4}7b<4[4:1],,3,2/8,
{4}2b>5[4:1],,6,1/7,
{4}6h[8:1]/8h[8:1],6/8,2h[8:1]/4h[8:1],2/4,
{16}6h[16:3],,,5xh[16:3],,,4x,,3h[16:3],,,2xh[16:3],,,1x,,
{4}1,1b/8b,3,4/6,
{4}8-4[4:1],,3,2/8,
{8}7h[4:1],1x,1x,,2h[4:1],8x,8x,,
{1}1-4[4:1]/7-4[4:1],
{8}2h[4:1],,1h[4:1],,3x,4x,3,,
{8}7h[4:1],,8h[4:1],,6x,5x,6,,
{8}3h[4:1],,4h[4:1],,5x,6x,5,,
{4}6h[4:1],5,5x/6x,,
{4}8<5[4:1],,4,2z6[2:1]/8x,
{1},
{8}3x/5x,3/5,,4x/6x,4/6,,,,
{8}2x/8x,2/8,,1x/7x,1/7,,,,
{8}2h[4:1],1x,1x,,7h[4:1],8x,8x,,
{8}3h[4:1],4x,5x,,6h[4:1],5x,4x,,
{1}C1f,
{2}3-1[4:1],5-7[4:1],
{2}4-2[4:1],6-8[4:1],
{2}1q5[4:1],7p3[4:1],
{2}2q6[4:1],8p4[4:1],
{4}3,2/4,3h[2:1]/5,,
{4}6,5/7,4/6h[2:1],,
{4}1,2/8,1/3h[2:1],,
{4}8,1/7,6h[4:3]/8,3h[2:1],
{8},,,4x,5b,,,,
{1}8<1[4:9],
{1},
{1},
{12}1x,8x,1x,,,,,,,,,,
{1},
{1},
{1},
E
&inote_5=
(170){1},
{16}3,4,3,4,3,,6,5,6,5,6,,3,4,3q5[8:5],4,
{1}3,
{16}6,5,6,5,6,,3,4,3,4,3,,6,5,6pp3[8:5],5,
{1}6,
{16}3,4,3,4,3,,6,5,6,5,6,,3,4,3V15[8:5]*V16[8:5],4,
{1}3,
{16}6,5,6,5,6,,3,4,3,4,3,,6,5,6q8[8:5]*qq8[8:5],5,
{1}6,
{16}E5,,,,E4/E6,,,,C1/E3/E7,,,,,,8,1,
{8}8<5[8:1],,3,2,1>4[8:1],,6,7,
{8}8<5[8:1],,3,2,1>4[8:1],,6,7,
{8}8<5[8:1],,3,2,1>4[8:1],,6,7,
{8}8<5[8:1],,3,2,1,,1/8,,
{16}2/5,,3,4,,4,2,,1-5[8:1],,,,1x,,,,
{16}4/7,,6,5,,5,6,,8-4[8:1],,,,8x,,,,
{4}3<6[8:1],6,7>2[8:1],2,
{8}3,4,5,4,5,6,7,8,
{4}1<2[2:1],C1f,,,
{8}4/5,3/6,2b/7b,,,,4/5,,
{1}3h[4:3]/6h[4:3],
{16}3/6,,4,5,,5,4,,2-4[8:1]/7-5[8:1],,,,2x/7x,,,,
{8}7,6,4/5,3,2,3,4/6,7,
{8}8,7,5/6,4,3,2,1/8,7,
{8}6,7,2/8,3,4,3,3/5,6,
{8}5,6,4/6,3,2,1,7/8,6,
{8}5,4,3/5,6,7,8,1>4[8:1]/7,,
{8}8<5[8:1],,1,,2/7,3/6,4/5,,
{8}2,3,4/5,6,7,6,3/5,2,
{8}1,2,3/4,5,6,7,1/8,2,
{8}3,2,1/7,6,5,6,4/6,3,
{8}4,3,3/5,6,7,8,1/8,1/8,
{8},2-4[8:1]/7-5[8:1],,2x/7x,,1/8,2/7,3>6[8:3]/6,
{8},C1f,,,,,3/6>3[4:1],,
{4}2,2q7[4:1],7,8<1[8:3],
{8}1,,,,,4/5,4/5,,
{8}6h[8:3],,,5,5-2[8:1],,7,,
{4}1/8,B3/E3/B4/E5,C1f/B5/B6/E7,1/8,
{8}3h[8:3],,,4,4-7[8:1],,2,,
{4}1/8,B5/E5/B6/E7,C1f/B3/E3/B4,1/8,
{8}6h[8:3],,,5,5-2[8:1],,7,,
{4}1/8,B3/E3/B4/E5,C1f/B5/B6/E7,1/8,
{8}3h[8:3],,,4,4-7[8:1],,2,,
{4}1/8,B5/E5/B6/E7,C1f/E3/B3/B4,1/8,
{8}7h[8:3],,,8,8>3[8:1],,6,,
{4}2/5,B3/E3/B4/E5,C1f/B5/B6/E7,1/8,
{8}2h[8:3],,,1,1<6[8:1],,3,,
{8}4/7,4/7,,2/5,2/5,,4/6,,
{8}7<4[8:1],,,2<7[8:1],,,5>2[8:1],,
{4}7h[4:1],8,1/6,3/4,
{8}2>5[8:1],,,7>2[8:1],,,4<7[8:1],,
{4}2h[4:1],1,3/8,5/6,
{8}7<4[8:1],,,2<7[8:1],,,5>2[8:1],,
{4}7h[4:1],8,1/6,3/4,
{4}5,6,7,8,
{4}1,2,3,4,
{4}E1/B8,B2/E3,B4/E5,B6/E7,
{2}C1,E5,
{16}C1,,,,,,,,1/8,,,,,,4,5,
{4}3/6,E4/E6,E3/E7,E2/E8,
{8}2h[2:1]/7h[2:1],,,,,,1b/8b,1b/8b,
{8},4/5,4/5,4/5,3/6,3/6,2/7,2/7,
{16}1/8,,6,5,7,,1/8,,3,4,2,,1/8,,6,5,
{16}7,,1/8,,3,4,2,,1x/8x,,2x/7x,,3x/6x,,4x/5x,,
{4}4-1[8:1]/5-8[8:1],4x/5x,3xp7[8:1]/7xp3[8:1],,
{8}2xq6[8:1]/6xq2[8:1],,,,3x/7x,8,2/6,3,
{2}4>1[8:1]/8<5[8:1],1>4[8:1]/5<8[8:1],
{8}4/8,3/7,2/6,1/5,,8,8,1,
{16}2/5,,,3,4>1[8:1]*<7[8:1],,4,,,,,,2/6,,,,
{16}4/7,,,6,5>2[8:1]*<8[8:1],,5,,,,,,3/7,,8,,
{16}8h[16:3],,,6,,,1,,1h[16:3],,,3,,,8,,
{16}1/8,,,2/4,,,5/7,,1/8,,,2/4,,,5/7,,
{16}8,1,8,,3b/6b,,,,4v1[8:1]/8v5[8:1],,,,,,,,
{4}1v4[8:1]/5v8[8:1],,3/7,7<4[8:1]/8>3[8:1],
{4},1<6[8:1]/2>5[8:1],,7/8,
{8}1/2,3/8,4/7,5/6,,3/6,3/6-3[8:1],,
{4}1-5[8:1],8-4[8:1],3<6[8:1],7>2[8:1],
{8}3,3h[4:1],,8b,,2/7,2-5[8:1]/7,,
{16}6-1[8:1],,,,2,,,,3,4,3,4,3-8[8:1],,,,
{8}7-4[8:1],,1,1,,2/6,2-6[8:1]/6,,
{8}7-3[8:1],,4-1[8:1],,8<5[8:1],,1,1,
{8}C1hf[8:3],,,,,8,8,,
{16}3,4,3,,,,6,5,7,,8,,1/8,,,,
{16}6,5,6,,,,3,4,2,,1,,1/8,,,,
{16}2/5,,6,5,,5,7,,4/7,,3,4,,4,2,,
{4}8<4[4:1],4>8[4:1],8<4[4:1],4>4[2:1],
{4}C1f,,,2b/7b,
{8}3-1[8:1],,5,5,6-8[8:1],,4,4,
{8}3-1[8:1],,5,5,6-8[8:1],,5,5,
{8}4-2[8:1],,5,5,6-8[8:1],,4,4,
{4}3-1[8:1],6-8[8:1],4-2[8:1],8,
{16}1/8,,6,5,,5,7,,1/8,,,,5/7,,,,
{16}4/6,,3,4,,4,2,,1/8,,,,2/4,,,,
{8}3-1[8:1],,4,5,6-8[8:1],,5,4,
{8}3-1[8:1],3,6-8[8:1],6,4-2[8:1],4,8,8,
{16}1/8,,,,,,5,4,6,,,,,,,,
{24}2b/7b,,,,,,,,,,,,,1x/8x,,,,2x/3x,,,,4x/5x,,,
{24},,6x/7x,,,,1x/8x,,,,,2x/7x,,,,,,,,,,,1x,,
{12}8x,1x,,,,,,,,,,,
{12},4,5,3q5[4:3],,,,,,,,,
{1},
{1},
{1},
E
