&title=げきオコスティックファイナリアリティぷんぷんマスタースパーク
&wholebpm=200
&artist=ARM (IOSYS)
&des=某S氏
&shortid=11066
&genre=東方Project
&cabinet=DX
&version=maimai DX
&chartconverter=Neskol
&lv_2=3
&des_2=-
&lv_3=7
&des_3=-
&lv_4=10
&des_4=はっぴー
&lv_5=12+
&des_5=某S氏
&des_6=
&inote_2=
(200){1},
{1},
{1},
{1},
{1},
{1}1x/8x,
{1}1x/8x,
{2}1x/8x,1x/8x,
{1}1b/8b,
{1}1,
{1}1,
{2}2x,2x,
{1}2x,
{1}3,
{1}3,
{2}4x,4x,
{1}4x,
{1}5,
{1}5,
{2}6x,6x,
{1}6x,
{1}7,
{1}7,
{2}8x,8x,
{1}8b,
{2}7,7,
{1}7,
{2}6,6,
{1}6,
{2}5,5,
{1}5,
{2}4/5,4/5,
{1}3x/6x,
{2}2,2,
{1}2,
{2}1,1,
{1}1x/8x,
{2}7,7,
{1}7,
{2}8,8,
{1}1x/8x,
{1}2h[1:1],
{1},
{2}3,3,
{1}3/4,
{2}5,5,
{2}6,6,
{2}7,7,
{1}1h[2:1]/8h[2:1],
{1}1-5[4:3],
{1},
{2}6,6,
{1}6,
{1}8-4[4:3],
{1},
{1}3h[1:1],
{1},
{1}B4,
{1}B5,
{1}B6,
{1}B7,
{1}B1/B8,
{1}B2/B7,
{1}B3/B6,
{1}C1hf[1:2],
{1},
{1},
{4}8,8,8,,
{1}8,
{4}7,7,7,,
{1}7,
{2}6,6,
{2}5,5,
{4}4,4,4,,
{1}4b/5b,
{4}4,4,4,,
{1}4,
{4}3,3,3,,
{1}3,
{2}2,2,
{2}1,1,
{4}8,8,8,,
{1}1h[1:1]/8h[1:1],
{1},
{4}1,1,1,,
{4}2,2,2,,
{4}3,3,3,,
{1}4h[2:1],
{4}5,5,5,,
{4}6,6,6,,
{4}7,7,7,,
{1}8h[2:1],
{1}C1hf[2:3],
{1},
{1},
{1},
E
&inote_3=
(200){1},
{1}6xh[1:1],
{1}5h[1:1],
{1}4h[1:1],
{2}3,3,
{4}2,2,2,,
{4}1,1,1,,
{4}8,8,1/8,1/8,
{1}2b/7b,
{2}5h[4:1]/6h[4:1],4h[4:1]/5h[4:1],
{2}3h[4:1]/4h[4:1],4h[4:1]/5h[4:1],
{4}6,6,5,,
{4}3,3,3x/4x,,
{2}3h[4:1]/4h[4:1],4h[4:1]/5h[4:1],
{2}5h[4:1]/6h[4:1],4h[4:1]/5h[4:1],
{4}3,3,4,,
{4}6,6,5x/7x,,
{4}6,6,5,,
{4}3,3,4,,
{4}6,6,5,5,
{4}4,3,2x/4x,,
{4}3,3,4,,
{4}6,6,5,,
{4}3,3,2,2,
{4}1,8,2b/7b,,
{4}7,7,8,1,
{4}2,2,1/2,,
{4}2,2,1,8,
{4}7,7/8,1x/6x,,
{4}7,7,8,1,
{4}2,2,1/2,,
{4}2,2,1,8,
{4}1x/8x,1x/8x,2b/7b,,
{4}6h[2:1],,5,5,
{4}4h[2:1],,5,5,
{4}6,6,5,4,
{4}3,2x/4x,2x/4x,,
{4}3h[2:1],,4,4,
{4}5h[2:1],,4,4,
{2}3h[2:1],4h[2:1],
{2}5h[2:1],6x,
{4}6h[2:1],,5,4,
{4}3h[2:1],,4,5,
{4}6,6,5,4,
{4}3,2x/4x,2x/4x,,
{4}3h[2:1],,4,5,
{4}6h[2:1],,5,4,
{4}3,3,2,1,
{4}8,1/8,2x/7x,,
{1}8-5[2:1],
{1}4-1[2:1],
{1}8<4[4:3],
{4},3x,3x,,
{1}2-5[2:1],
{1}6-1[2:1],
{1}2>5[2:1],
{4}6x,6x,6x,,
{2}B7,C1,
{1}B3,
{2}B2,C1,
{1}B6,
{2}B7,C1,
{2}B3,B2,
{2}C1,B6,
{1}C1hf[1:1],
{1},
{4}2x/7x,2x/7x,,,
{4}7,7x/8x,2,1x/2x,
{4}1x/2x,8b,8b,,
{4}7,6,4-1[2:1]/5-8[2:1],,
{2},2x/7x,
{4}7,7x/8x,2,1x/2x,
{4}8,8,2x/7x,,
{4}6,5,3,4v1[8:5]*v7[8:5],
{1},
{4}2,1x/2x,7,7x/8x,
{4}1x/6x,8b,8b,,
{4}2,3,4>1[2:1]/5<8[2:1],,
{2},2x/7x,
{4}2,1x/2x,7,7x/8x,
{4}1,1,2x/7x,,
{4}3,4,6,5,
{4}4,3,2,1/8,
{1}2b/7b,
{4}2,2,3,3,
{4}4,4,5/6,,
{4}7,7,6,5,
{4}4,3x/4x,3x/4x,,
{4}2,2,3,3,
{4}4,4,5x/6x,,
{2}7x/8x,1x/2x,
{4}1x/8x,2x/7x,3b/6b,,
{2}B4/B5,B3/B6,
{1}C1hf[16:7],
{1},
{1},
{1},
E
&inote_4=
(200){1},
{1}2h[1:1]/6h[1:1],
{1},
{1}4v2[4:3]/8v6[4:3],
{1},
{1}2v8[4:3]/6v4[4:3],
{1},
{1}C1hf[1:1],
{1},
{2}1/2,3/4,
{2}5/6,7/8,
{8}2h[4:1],,8,8,,3qq5[8:5]/7,,,
{4},,8,8,
{2}7/8,5/6,
{2}3/4,1/2,
{8}7h[4:1],,1,1,,2/6pp4[8:5],,,
{4},,1,1,
{2}1h[4:1]/8h[4:1],2h[4:1]/3h[4:1],
{2}4h[4:1]/5h[4:1],6h[4:1]/7h[4:1],
{8}2h[4:1],,8,8,,3pp1[8:5]/7,,,
{4},,8,8,
{2}1h[4:1]/8h[4:1],6h[4:1]/7h[4:1],
{2}4h[4:1]/5h[4:1],2h[4:1]/3h[4:1],
{8},1xh[4:1],,8,1/8,,,,
{16}2x/7x,,,3x/6x,,,4x/5x,,4x/5x,,,,,,,,
{8}3,,2/5,,1,1,8,,
{4}7h[4:1],5h[4:1],4h[4:1],3,
{2}1>4[4:1],5<8[4:1],
{4}2h[4:1],1,3/8,5/6,
{8}6,,4/7,,8,8,1,,
{4}2h[4:1],4h[4:1],5h[4:1],6,
{2}7-3[4:1],2-6[4:1],
{4}8,1/8,2b/7b,,
{4}4/6h[4:7],4,5,5,
{4}4,5,4,5,
{4}1/7,3/5,1/7,3/5,
{4}3-1[4:1]/5-7[4:1],,,1x,
{4}3h[4:7]/5,5,4,4,
{4}5,4,5,4,
{2}8-4[4:1],1-5[4:1],
{4}8h[4:3],1b,1b,1b,
{4}E1,E2,E3,E4,
{4}B4/B5,E3/E7,E2/E8,,
{4}2/8,4/6,2/8,4/6,
{4}4-2[4:1]/6-8[4:1],,,8x,
{4}5h[4:1]/7h[4:1],,4/6,3/5,
{4}2h[4:1]/4h[4:1],,3/5,4/6,
{2}5h[4:1]/7h[4:1],2h[4:1]/4h[4:1],
{4}1/8,2b/7b,2b/7b,6,
{4}4/5<8[4:1],,,3,
{4}4>1[4:1]/5,,,6,
{2}6h[2:1],8h[2:1],
{4}1h[2:1],,3,3,
{4}4v1[4:1]/5,,,6,
{4}4/5v8[4:1],,,3,
{2}3h[2:1],1h[2:1],
{4}8,,3b/7b,6,
{4}4/7-3[4:1],,2,3,
{4}2-6[4:1]/5,,7,6,
{2}6h[2:1],8h[2:1],
{4}1h[2:1],,3,3,
{4}2-6[4:1]/5,,8,6,
{4}4/7-3[4:1],,1,3,
{2}3h[2:1],1h[2:1],
{2}8h[2:1],6,
{1}C1hf[1:1],
{4},,,1x/8x,
{4}1/7,2/8,1/7,2/8,
{4}1/7,8b,8b,3/6,
{4}7h[4:1],5h[4:1],4h[4:1],2,
{8}1v3[4:1]/5v7[4:1],,,,,,1,1,
{4}8h[4:1],5b,1b,2/6pp4[4:3],
{8},,,,,,2,2,
{4}1/2,3/4,5/6,7-4[4:1]/8-3[4:1],
{8},,,2x/5x,,,,,
{4}3/8,1/6,3/8,1/6,
{4}3/8,1b,1b,3/6,
{4}2h[4:1],4h[4:1],5h[4:1],7,
{8}4v2[4:1]/8v6[4:1],,,,,,8,8,
{4}1h[4:1],4b,8b,3qq5[4:3]/7,
{8},,,,,,7,7,
{2}7h[4:1]/8h[4:1],1h[4:1]/2h[4:1],
{1}4>1[8:3]/5<8[8:3],
{1}C1f/E3/E7,
{8}7h[4:1],,8,,6,6,5,,
{4}4h[4:1],3h[4:1],2h[4:1],1,
{2}3<6[4:1],7>2[4:1],
{4}3,4/6,7,1/8,
{8}2h[4:1],,1,,3,3,4,,
{4}5h[4:1],6h[4:1],7h[4:1],8,
{2}6>3[4:1],2<7[4:1],
{1}6pp3[4:3],
{1}1h[1:1],
{2}8b,E1/C1f/E5,
{1},
{1},
{1},
E
&inote_5=
(200){1},
{8},,,,,1-5[4:1]/8-4[4:1],,,
{2},4v1[4:1]/5v8[4:1],
{8},,,2x,1x,2x,1x,,
{8}8x,8x,,7x,7x,,,,
{8}4x,4,5,5,4,4h[4:1],,5,
{8}3x/5x,4,5,4x/6x,5,4,3/5,,
{8}2x/6x,2/6,3/7,3/7,4/8,4/8,1qq6[8:5]/5qq2[8:5],,
{1}1b/5b,
{2}1v3[4:1],7v5[4:1],
{2}2v4[4:1],8v6[4:1],
{8}1h[4:1],,8,2/8,,5/7,,3/4pp7[8:3],
{8},3,2,1,8,,1/6,,
{2}8v6[4:1],2v4[4:1],
{2}7v5[4:1],1v3[4:1],
{8}8h[4:1],,1,1/7,,2/4,,5/6pp1[8:3],
{8},5,4,3,2,,3/8,,
{8}3h[4:1]/4h[4:1],,,3/4,2/5,,,5/6,
{8},5/6,,5/6,4/7,,3/5,,
{8}1/2,,2/5,4/7,,7/8,,1h[4:1]/6h[4:1],
{8},,2/5,2/5,3-8[8:1]/4-7[8:1],,,,
{8}5h[4:1]/6h[4:1],,,5/6,4/7,,,3/4,
{8},3/4,,3/4,2/5,,4h[4:1]/6h[4:1],,
{8},7x/8x,,1x/6x,2x/5x,,,,
{16}3xh[16:3],,,5xh[16:3],,,4x-7[8:1],,4x,,6b,,,,,,
{8}6,5,6,2h[4:1],,1,2,8h[4:1],
{8},7h[4:1],,6,4,5,4,5,
{8}3,4,3,7h[4:1],,8,7,,
{4}1h[2:1]/6pp4[2:1],,,2,
{8}3,4,3,7h[4:1],,8,7,1h[4:1],
{8},2h[4:1],,3,5,4,5,4,
{16}3/5,,4,,5,,,,4/5,,,3/6,,,2/7,,
{1}1pp4[2:1]/8qq5[2:1],
{8}6,5,7,1h[4:1],,3,2,8h[4:1],
{8},6,7,1,1/8,,3/6,,
{8}2-5[8:1],,8,8,7-4[8:1],,1-4[8:1],1,
{4}1-6[8:1],1w5[8:1],,,
{2}5-1[8:1]/6-1[8:1],3-8[8:1]/4-8[8:1],
{4}5/7,2/4,7b/8b,7b/8b,
{2}2v5[8:1]/6v1[8:1],3v8[8:1]/7v4[8:1],
{4}1v3[4:1]/5v7[4:1],,,1/8,
{8}3,4,2,8h[4:1],,6,7,1h[4:1],
{8},3,2,8,1/8,,3/6,,
{8}7-4[8:1],,1,1,2-5[8:1],,8-5[8:1],8,
{4}8-3[8:1],8w4[8:1],,,
{4}6h[4:1],E4,3h[4:1],E8,
{4}7h[4:1],E2,2h[4:1],E6,
{2}4-6[8:1]/5-3[8:1],4-7[8:1]/5-2[8:1],
{8}4z8[16:3]/5s1[16:3],,,,,,8,1,
{8}2h[2:1],,1x,8x,7xh[2:1],5,4,3,
{8}2h[2:1],4x,5x,6x,7x,1/8x,2/7x,3/6x,
{4}4h[4:1]/5xh[4:1],,1/2x,3x/8,
{8}4xh[2:1]/7h[2:1],,,,,6,5,4,
{8}4<7[8:1],3x,2x,1x,1x>4[8:1],8,7,6,
{8}6<1[8:1],5x,4x,3x,2/3x,,1/4x,,
{1}4xqq1[2:1]/8qq5[2:1],
{8}2x/7,1b/8b,,1b,8b,,1,2,
{8}3-8[8:1],,7x,6x,5x-1[8:1],4,3,2,
{8}2-5[8:1],5x,6x,7x,7x,4/8x,3/7x,2/6x,
{4}1h[4:1]/5xh[4:1],,1/5x,3/7x,
{8}2z6[4:1]/6xz2[4:1],,,,,,4/8x,3/7x,
{8}2-7[8:1]/6x-3[8:1],,,,,1/5x,2/6x,3/7x,
{8}4-1[8:1]/8x-5[8:1],,,,,3/7x,2/6x,1/5x,
{4}4<7[8:1]/8>3[8:1],,4/8x,3/7x,
{16}1x,8,1x,8,1x,8,1x,8,1xw5[8:1],,,,1b,,,,
{16}8x,1,8x,1,8x,1,8x,1,8xw4[8:1],,,,8b,,,,
{8}2x/7x,,2x/7x,,1,8,2bq6[16:3]/7b,,
{8}2/7,,7<4[16:3],,3/7,,3pp6[2:1],3/5,
{8},,8b,,8b,7,7,,
{8}5/7,6,5/7,,2/4,3,2q8[8:3]/4<8[8:3],,
{8}2/4,,,,,,7,8,
{8}7h[2:1],,1b,1b,1b,2,1,3,
{8}3h[4:1]/4h[4:1],,,2/5,,,1,1,
{32}7/8,,,,6,,,,4/5,,,,3,,,,1/2,,,,3,,,,4/5,,,6,,,,,
{8}7h[4:1]/8h[4:1],,,1/6,,5/6,4b/7bp3[16:3],,
{8}2/7,,2>5[16:3],,2/6,,6qq3[2:1],4/6,
{8},,1b,,1b,2,2,,
{8}1/3,2,1/3,,6/8,7,6>1[8:3]/8pp1[8:3],,
{8}6/8,,,,,,6,5,
{8}6h[2:1],,7,,5,3,4,2,
{8}1h[4:1]/2h[4:1],,,3/8,,,4,6,
{8}1x/8x,1/8,2/7,2/7,3x/6x,3/6,4/5,4/5,
{16}4,5,4,5,4,5,4,5,4,5,4,5,4,5,4,5,
{4}3b/6b,,1x,1x,
{8}3,4,3,7h[4:1],,8,7,1h[4:1],
{8},2h[4:1],,3,5,4,5,4,
{8}6,5,6,2h[4:1],,1,2,,
{4}3qq5[2:1]/8h[2:1],,,7,
{8}6,5,6,2h[4:1],,1,2,8h[4:1],
{8},7h[4:1],,6,4,5,4,5,
{16}4/6,,5,,4,,,,4/5,,,3/6,,,2/7,,
{1}1pp4[2:1]/8qq5[2:1],
{1}C1hf[2:3]/B3/B4/B5/B6,
{2},7b-3[4:7],
{8},,,,,,,E6,
{1},
{1},
{1},
E
