&title=the EmpErroR
&artist=sasakure.UK
&first=0
&des=小鳥遊さん
&wholebpm=240
&shortid=833
&genre=maimai
&cabinet=SD
&version=maimai FiNALE
&chartconverter=Neskol
&des_2=-
&des_3=-
&des_4=すきやき奉行
&des_5=小鳥遊さん
&des_6=-ZONE- SaFaRi
&lv_2=5
&lv_3=10+
&lv_4=13
&lv_5=14+
&lv_6=14+
&inote_2=(240)
{1},
{1},
{1},
{1},
{1},
{1},
{1},
{1},
{1},
{2}1,1,
{1}1,
{2}2,2,
{1}2,
{2}3,3,
{1}3,
{2}4,5,
{1}4,
{2}5,5,
{1}5,
{2}6,6,
{1}6,
{2}7,7,
{1}7,
{2}8,1,
{1}8b,
{1}1-4[4:3],
{1},
{1}8-5[4:3],
{1},
{2}1,1,
{1}1/2,
{2}2,2,
{1}1/3,
{2}8,8,
{1}7/8,
{2}7,7,
{1}6/8,
{2}1,1,
{2}2,2,
{2}3,3,
{2}4,4,
{2}5,5,
{1}6h[2:1],
{4}5/6,,,3/4,
{2},5/6,
{4},3h[4:3]/4h[4:3],,,
{2},3/5,
{4},4/6,,,
{4}3/5,,,4h[4:3]/6h[4:3],
{1},
{2}6,6,
{2}5,5,
{2}4,4,
{2}3/4,3,
{2}3,4,
{2}4,5,
{2}5,5/6,
{4}6h[8:3],,,5h[8:3],
{2},4h[8:3],
{4},3h[8:3],,,
{2}3/4,3h[8:3],
{4},4h[8:3],,,
{4}5h[8:3],,,6h[8:3],
{2},5/6,
{1}5b/6b,
{1},
{2}6,6,
{1}6,
{2}7,7,
{1}7,
{2}8,8,
{2}1,1,
{2}8,8,
{1}1/8,
{2}2,2,
{1}2,
{2}3,3,
{1}3,
{2}4,4,
{2}5,5,
{2}4,4,
{1}4/5,
{4}6,6,6,,
{4}6,6,6,,
{4}5,5,5,,
{4}5,5,5,,
{4}4,4,4,,
{4}4,4,4,,
{4}3,3,3,,
{1}3/4,
{4}3,3,3,,
{4}3,3,3,,
{4}4,4,4,,
{4}4,4,4,,
{4}5,5,5,,
{4}5,5,5,,
{4}6,6,6,,
{1}5/6,
{1}7-3[4:3],
{1},
{1}2-6[4:3],
{1},
{1}8-4[4:3],
{1},
{1}1-5[4:3],
{1},
{4}8,8,8,,
{4}7,7,7,,
{4}6,6,6,,
{1}5h[2:1],
{4}4,4,4,,
{4}3,3,3,,
{4}2,2,2,,
{1}1h[2:1],
{1}1-4[4:3],
{1},
{1}8-5[4:3],
{1},
{2}1,1,
{2}8,8,
{1},
{1}1h[1:4]/8h[1:4],
{1},
{1},
{1},
{1},
{1},
{1},
E
&inote_3=(240)
{1},
{2}5h[2:3],4,
{2}4,4,
{2}4h[2:3],5,
{2}5,5,
{2}5h[2:3],4,
{2}4,4-1[2:1],
{4},,,2/7,
{8}1,1,8,8,1,,2/7,,
{4}3,3,3/4,3/4,
{4}3,3,3/4,4/5,
{4}6,6,5/6,5/6,
{4}6,6,5/6,4/5,
{4}3,3,3/4,3/4,
{4}3,3,3/4,4-1[2:1]/5-8[2:1],
{1},
{8}8,8,1,1,8,,2/7,,
{4}6,6,5/6,5/6,
{4}6,6,4/6,3/5,
{4}3,3,3/4,3/4,
{4}3,3,3/5,4/6,
{4}6,6,5/6,5/6,
{4}6,6,5/6,4-1[2:1]/5-8[2:1],
{1},
{4}1/8,2/7,3/6,4b/5b,
{2}6h[2:3],5,
{2},5,
{2}3h[2:3],4,
{2},4,
{2}4h[2:1],3h[2:1],
{2}2h[2:1],1,
{1}8-5[2:1],
{1}4-1[2:1],
{2}8h[2:1],7h[2:1],
{2}6h[2:1],5,
{1}4-1[2:1],
{1}8-5[2:1],
{2}4h[2:1],3h[2:1],
{2}2h[2:1],1,
{1}8-4[2:1],
{1}2-6[2:1],
{2}7h[2:1],6h[2:1],
{4}5,5,4/5,,
{4}4,4,4,3,
{4}3,3,2,2,
{4}2,1,1,1,
{4}1/8,1/8,8,8,
{4}8,7,7,7,
{4}6,6,6,5,
{4}5,5,4/5,4/5,
{4}4/5,5,5,4/5,
{4}4,4,4/6,6,
{4}6,3/6,3,3,
{4}3/6,3/6,2/7,2,
{4}2,2/7,7,7,
{4}1/7,1,1,1/8,
{4}8,8,1/8,1/8,
{4}1/8,1,1,1/8,
{4}8,8,2/8,2,
{4}2,2/7,7,7,
{4}2/7,2/7,3/6,3,
{4}3,3/6,6,6,
{4}4/6,4,4,4/5,
{4}5,5,4/5,4q5[2:3]/5,
{1},
{1},
{1}5/6h[2:3],
{2}5,5,
{1}3h[2:3]/4,
{2}4,4,
{1}5h[2:3]/6,
{2}6,6,
{1}3/4h[2:3],
{2}3,3,
{2}4/6h[2:3],5,
{2}4,5,
{2}3h[2:3]/5,4,
{2}5,4,
{2}4h[2:3]/6,5,
{2}6,5,
{1}3h[1:1]/6h[1:1],
{1},
{8}6,,5/6,,7,7,7,,
{4}7/8,1/6,2/5,3/4,
{4}5,6,7,1/8,
{4}2,3,4/5,4/5,
{8}3,,3/4,,2,2,2,,
{4}1/2,3/8,4/7,5/6,
{4}4,3,2,1/8,
{4}2/7,2/7,4/5,4/5,
{8}6,,5/6,,7,7,7,,
{8}1/8,,2,,3,3,3/4,,
{8}5,,6,,7,7,7,,
{4}1/8,2/7,4/5,4/5,
{8}3,,3/4,,2,2,2,,
{8}1/8,,7,,6,6,5/6,,
{8}4,,3,,2,2,2,,
{8}1/8,1/8,1/8,,2/7,2/7,2b/7b,,
{4}6,5/6,3,3/4,
{4}2,1/2,8,7,
{4}6,6,7h[4:1],6h[4:1],
{4}5h[4:1],4h[4:1],3h[4:1],2,
{4}3/4,3/4,4,5,
{4}5/6,5/6,5,4,
{1}3-8[2:1],
{1}7-4[2:1],
{8}3,3,3/4,,6,6,5/6,,
{8}7,7,7/8,,2,2,1/2,,
{8}3,3,3,,2h[4:1],,3h[4:1],,
{4}4h[4:1],5h[4:1],6h[4:1],7,
{8}8,8,7,7,6,6,5,,
{8}4,4,3,3,2,2,1,,
{8}1,1,2,2,3,3,4,4,
{8}5,5,6,6,7,7,8,8,
{1}1-5[4:3],
{1},
{1}5-1[4:3],
{1},
{1}8-4[4:3],
{1},
{1}4/5,
{8}4,4,4,4,5,5,5,5,
{8}4,4,4,4,5,5,5,5,
{8}4,4,5,5,4,4,5,5,
{8}4,3,2,1,8,7,6-3[2:1],,
{1},
{1},
{1},
E
&inote_4=(240)
{1},
{8}6h[8:3],,5,5h[4:1],,6,,3h[8:3],
{8},4,4h[4:1],,3,,2/5,,
{4}3h[4:1],4h[4:1],5h[4:1],6h[4:1],
{4}3h[4:1],4h[4:1],5h[4:1],6,
{8}3h[8:3],,4,4h[4:1],,3,,6h[8:3],
{8},5,5h[4:1],,6,,2/7,,
{8}1/8,1>4[4:1]/8<5[4:1],,,,,,,
{8}1/8,1/8,1/8,1/8,1/8,1/8,2b/7b,,
{8}3,,2/4,,5,5,4,5h[4:1],
{8},3,3,4,3/4,,2/5,,
{8}6,,5/7,,4,4,5,4h[4:1],
{8},6,6,5,5/6,,4/7,,
{8}3,,2/5,,6,6,5,6h[4:1],
{8},3,3,4,3/4,,2/7,,
{1}1V74[2:1]/8V25[2:1],
{8}2,4,3,5,4,6,5,,
{8}7,,6/8,,1,1,8,1h[4:1],
{8},7,7,8,7/8,,1/6,,
{8}2,,1/3,,8,8,1,8h[4:1],
{8},2,2,1,1/2,,3/8,,
{8}7,,1/6,,2,2,1,2h[4:1],
{8},7,7,8,7/8,,3/6,,
{4}2-5[8:1],1,7-4[8:1],8,
{4}1-5[8:1],8,2b/7b,,
{8}6h[8:3],,5,5h[2:1],,,,4h[8:7],
{8},,,3h[8:3],,,,,
{8}3h[8:3],,4,4h[8:11],,,,5<2[8:5],
{1},
{8}3/4,,3/4,,4,3h[4:1],,4,
{8}3h[4:1],,4,3h[4:1],,4,3,,
{8}7,,5,5,,5/6,,5/6,
{8},5/7,,5/7,,5/6,,,
{8}2/4,,2/4,,4,2h[4:1],,4,
{8}2h[4:1],,4,2h[4:1],,4,2,,
{8}7,,5,5,,5/7,,5/7,
{8},6/7,,6/7,,5/7,,,
{8}1/4,,1/4,,4,1h[4:1],,4,
{8}1h[4:1],,4,1h[4:1],,4,1,,
{8}7,,5,5,,5/7,,5/7,
{8},5/8,,5/8,,5/7,,,
{8}4,,4/5,,3/6,3h[4:1]/6h[4:1],,,
{8}1/8,1/8,1/8,1/8,1/8,1/8,2b/7b,,
{8}3/4,3/4,,2/5,,,1/2,1/2,
{8},3/8,,,5/6,5/6,,4/7,
{8},,7,7,8,8,6,6,
{8}1,,2/7,,5/6,5/6,,4/7,
{8},,7/8,7/8,,1/6,,,
{8}3/4,3/4,,2/5,,,2,2,
{8}1,1,3,3,8,,2b/7b,,
{8}4/5,,3,3/4,,3,3/5,,
{8}3,3/6,,3,3/7,,3,3/8,
{8},3,1/3,,3,2/3,,3,
{8}3/4,,2/7,,4/5,,6,5/6,
{8},6,4/6,,6,3/6,,6,
{8}2/6,,6,1/6,,6,6/8,,
{8}6,6/7,,6,5/6,,2b/7b,,
{4}1,1/2,2,2/3,
{4}3,3/4,4,4/5,
{4}5,5/6,6,6/7,
{8}7,,7b/8b,,1,1,7,7,
{8}5,5,8,8,2,2,4,4,
{8}8,8,6,6,4,4,2,2,
{8}1,1,7,7,5,5,3,3,
{1}2b<5[4:5]*p4[4:5],
{1},
{1}6h[1:2],
{1}5,
{1}3h[1:2],
{1}4,
{1}6>3[4:3],
{1}2h[1:1],
{1}3<6[4:3],
{1}7,
{2}2>5[4:3]/7h[4:1],6h[4:1],
{2}7h[4:1],4h[4:1]/6h[4:1],
{2}3h[4:1]/7<4[4:3],2h[4:1],
{2}3h[4:1],4h[4:1]/5h[4:1],
{2}3>8[4:3]/6h[4:1],5h[4:1],
{2}6h[4:1],2h[4:1]/7h[4:1],
{1}1pp4[8:9]/8qq5[8:9],
{1},
{8}3/4,,6,5,7,8,7,1/6,
{16},,7,,7,,1,,1,2,3,,8,,,,
{8}2,2,4,4,5,5,7,7,
{8}8,7,8,7,,1/6,1/6,,
{8}5/6,,3,4,2,1,2,3/8,
{16},,2,,2,,8,,8,7,6,,1,,,,
{8}4/7,4/7,,2/5,,3/6,,2/7,
{16}1,8,1,8,1,,,,4/5,,,,3/6,,,,
{8}1/2,,7,8,6,5,6,4/7h[8:5],
{16},,8,,8,,1,,1,2,3,,8,,,,
{8}7,7,5,5,4,4,2,2,
{8}1,2,1,2,,3/8,3/8,,
{8}7/8,,2,1,3,4,3,2h[8:5]/5,
{16},,1,,1,,8,,8,7,6,,1,,,,
{8}2/4,2-5[4:1]/4,,6,6,6,6,,
{8}1/8,1/8,1/8,1/8,1/8,1/8,2b/7b,,
{8}4/7,,2/5,2-5[8:1]/5,,6-1[8:1],,2-5[8:1],
{8},6-1[8:1],,2>5[8:1],,6<1[8:1],,2>5[8:1],
{24},,,6<1[8:1],,,,,,2,,,,,,,3h[6:1],,,,4h[6:1],,,,
{6}5h[6:1],6h[6:1],7h[6:1],8h[6:1],1h[6:1],2h[6:1],
{8}3,,5/6,5/6-8[8:1],,5-3[8:1],,6-1[8:1],
{8},5-2[8:1],,6,,4/8,,7,
{8}7,5h[4:1],,3h[8:3],,1,1<5[4:1]*>4[4:1],,
{2},2b/7b,
{8}2/5,,4/7,4/7-4[8:1],,3-8[8:1],,7-4[8:1],
{8},3-8[8:1],,7<4[8:1],,3>8[8:1],,7<4[8:1],
{24},,,3>8[8:1],,,,,,7,,,,,,,6h[6:1],,,,5h[6:1],,,,
{6}4h[6:1],3h[6:1],2h[6:1],1h[6:1],8h[6:1],7h[6:1],
{8}6,,3/4,3-1[8:1]/4,,4-6[8:1],,3-8[8:1],
{8},4-7[8:1],,3,,2/6,2/6,,
{8}3/4,3/4,2/5,,5/6,5/6,4/7,,
{8}1/8,1/8,1/8,1/8,1/8,1/8,2b/7b,,
{8}7,8,7,1/6h[4:1],,5h[4:1],,4h[4:1],
{8},3h[4:1],,2,,1/2,1/2,,
{8}2,1,2,3h[4:1]/8,,4h[4:1],,5h[4:1],
{8},6h[4:1],,7,,7/8,7/8,,
{8}6,5,6,4h[4:1]/7,,2h[4:1],,8h[4:1],
{8},6h[4:1],,4,,2/7,2/7,,
{1}4-1[4:1]/5-8[4:1],
{4}1,8,2,7,
{8}1,1,8,8,2,2,7,7,
{16}1,8,1,8,1,8,1,8,1,8,1,8,1,8,1,8,
{16}1,8,1,8,1,8,1,8,1,8,1,8,1-5[4:1]*s5[4:1],8,1,8,
{1},
{1},
{1},
E
&inote_5=(240)
{1},
{8}4/5,,3,3,,6,6,,
{8}4,5,4,,2/5,,4/7,,
{8}1v2[4:1],,8,8v7[4:1],,,,,
{8}2/5,,3/6,,5,4,4/5,,
{8}1/8,,7,7,,2,2,,
{8}8,1,8,,2,3,4/5,,
{8}5s1[2:1],5,,,,,5b,,
{8}4,4,5,5,2/6,2/6,3/7,3/7,
{8}4b/8b,,3,3,5,4,6,5,
{8}4/7,,2,1/2,,7,7/8,,
{8}2,1<6[8:1],2,1>4[8:1],,1-6[8:1],,1-4[8:1],
{16},,1,,,,1,,1,8,7,6,1/5,,,,
{8}4/5,,5,5,3,4,2/5,,
{8}1/8,,7,7/8,,2,1/2,,
{8}3h[4:1]/8h[4:1],,,1h[4:1]/4h[4:1],,,1/4,,
{8}3/7h[4:3],3,3,3,3,3,3,,
{8}1b/5b,,6,6,4,5,3,4,
{8}2/5,,7,7/8,,2,1/2,,
{8}7,8>3[8:1],7,8<5[8:1],,8-3[8:1],,8-5[8:1],
{16},,8,,,,8,,8,1,2,3,4/8,,,,
{8}4/5,5,4,4,6,5,4/7b,,
{8}1/8,,2,1/2,,7,7/8,,
{8}3,3,5,5,4,4,6,6,
{8}4/5,4/5,4/5,4/5,3/6,2/7,1b/8b,,
{8}1,2,3,4,,6,5,4,
{8},3,4,5,,4,4,,
{8}6,5,4,5,,4,5,6,
{8}7h[4:3],5,4,3,,5,5,,
{8}5/6,,4,,6,4,,3,
{4}3/6,4,6,5,
{96}5h[4:1]/6h[4:1],,,,,,,,,,,,,,,,,,,,,,,,,,,,,,,,,,,,5/6,,,,,,,,,,,,,,,,,,,,,,,,6,5,,,,,,,,,,,,,,,,,,,,,,,5/6,,,,,,,,,,,,
{96},,,,,,,,,,,,5,6,,,,,,,,,,,,,,,,,,,,,,,5/6,,,,,,,,,,,,4,,,,,,,,,,,,4,,,,,,,,,,,,,,,,,,,,,,,,3,,,,,,,,,,,,
{8}6,5,4,3,5,4,3,3,
{8}5h[8:3],,3,4h[8:3],,6,5,,
{8}4/5,4/5v6[4:1],,4v3[4:1],,,,,
{16}8,1,8,1,8,,,,4,,4,,4/5,,,,
{8}3/4,,5,,3,5,,6,
{4}3/6,5,3,4,
{96}3h[4:1]/4h[4:1],,,,,,,,,,,,,,,,,,,,,,,,,,,,,,,,,,,,3/4,,,,,,,,,,,,,,,,,,,,,,,,3,4,,,,,,,,,,,,,,,,,,,,,,,3/4,,,,,,,,,,,,
{96},,,,,,,,,,,,4,3,,,,,,,,,,,,,,,,,,,,,,,3/4,,,,,,,,,,,,5,,,,,,,,,,,,5,,,,,,,,,,,,,,,,,,,,,,,,6,,,,,,,,,,,,
{8}3,4,5,6,4,5,6b,6,
{8}1,1,1,1,1/8,1/8,1,1,
{8}7,7-3[16:3],7,7h[4:1],,,2,2-6[16:3],
{8}2,2h[4:1],,,5,5-1[16:3],5,5h[4:1],
{8},,4,4-8[16:3],4,4h[4:1],,,
{8}4/8,,2/6,,8,8-4[16:3],8,8h[4:1],
{8},,1,1-5[16:3],1,1h[4:1],,,
{8}6,6-2[16:3],6,6h[4:1],,,3,3-7[16:3],
{8}3,3h[4:1],,,8,8,1,1,
{8}7-5[8:1],,7,1-3[8:1],,1,6-8[8:1],,
{8}6,4-2[8:1],,4,6-4[8:1],,6,8-2[8:1],
{8},8,4-8[8:1],,4,1,,1,
{8}2/6,,4/8,,2-4[8:1],,2,8-6[8:1],
{8},8,3-1[8:1],,3,5-7[8:1],,5,
{8}3-5[8:1],,3,1-7[8:1],,1,5-1[8:1],,
{8}5,8,,8,1,1,8,8,
{8}3-1[8:1],,3,5-7[8:1],,5,4-1[8:1],,
{8}4,5-8[8:1],,5,1>4[8:1],,1,8q5[8:1],
{8},8,1p4[8:1],,1,8<5[8:1],,8,
{8}1,,3/7,,2-4[8:1],,2/6,7-5[8:1],
{8},4/7,3-5[8:1],,3/5,6-4[8:1],,3/6,
{8}2-5[8:1],,2/6,7-4[8:1],,2/7,1-5[8:1],,
{8}1/7,8-4[8:1],,2/8,1b,1b,1b,1b,
{8}6,5,3,4,,6,,4,
{8},3,,5,,4,3,,
{8}1h[1:1]/8,,7,7,,6,,6,
{8},6,,5,,5,,5,
{24}3h[1:1],,,6,,,,,,6,,,,,,,7,,,,7,,,,
{6}7,7,7,7,7,7,
{8}4h[1:1]/6,,5,5,,6,,6,
{8},6,,7,,7,,8,
{8}5h[1:1]/8,8,,7,,6,6,,
{1},
{8}1/8h[1:1],,2,2,,3,,3,
{8},3,,4,,4,,4,
{24}6h[1:1],,,3,,,,,,3,,,,,,,2,,,,2,,,,
{6}2,2,2,2,2,2,
{8}3/5h[1:1],,4,4,,3,,3,
{8},3,,2,,2,,1,
{8}1/4h[1:1],1,,2,,3,3s7[4:3],,
{1},
{8}4/5,,3,4,5,4,3,2,
{16}1/8,,7,,1/8,,2,,1/8,7,6,,2,,2,,
{16}8,7,6,5,1,2,3,4,5,6,7,8,1/7,2/6,3/5,,
{16}1,2,3,4,8,7,6,5,4,3,2,1,2/8,3/7,4/6,,
{8}2/7,,6,5,4,5,6,7,
{16}1/8,,2,,1/8,,7,,1/8,2,3,,7,,7,,
{8}2,1-6[8:1],2,1-4[8:1],,1,,1,
{16}3,4,3,4,3,,2/5,,1,8,1,8,2b/7b,,,,
{8}4/5,,3,4,3/5,4,3,2,
{16}1/8,,7,,1/8,,2,,1/8,7,2/6,,3,,3,,
{16}5,6,7,8,4,3,2,1,8,7,6,5,4/6,3/7,2/8,,
{16}4,3,2,1,5,6,7,8,1,2,3,4,3/5,2/6,1/7,,
{8}3/6,,6,5,4/6,5,6,7,
{16}1/8,,2,,1/8,,7,,1/8,2,3/7,,6,,6,,
{8}4,4h[4:1],,6,5,4,3,2,
{16}1/5,,2/6,,3/7,,4/8,,3/7,,2/6,,1/5,2,3/7,4,
{8}1b/5b,,3/6,,5/6,,4/6,6,
{8}5/6,,2/6,,5/6,,4/6,6,
{8}6/8,,1/6,,5/6,,3/6,6,
{12}5/6,,,4/6,,,3/6,5,4,3,4,5,
{8}3/6,,3/6,,3/4,,3/5,3,
{8}1/3,,3/7,,3/4,,3/6,3,
{8}3/4,,2/3,,3/4,3,3/6,,
{8}3/6,3/6,2/7,2/7,1/8,1/8,2b/7b,,
{16}3/8,,2,1,2,,8,1,8,,3/7,,,,1/5,,
{16}2,4,2,4,2,,8,,7,5,7,5,7-4[8:1],,,,
{8}7/8,1-5[8:1],2,1<6[8:1],,1,,4,
{8}5/7,6,3/5,4,3/5,2,1/8,,
{8}4/8,4/8,3/6,3/6,1/4,1/4,2/7,2/7,
{8}1/8,2/8,3/8,4/8,5/8,6/8,7/8,1/8,
{16}1/8,2,3,4,5,6,7,8,1/5,4,3,2,1,8,7,6,
{32}1/5,,2,,3,,4,,5/8,,7,,6,,5,,2/4,3,4,5,6,7,8,1,2,3,4,5,6,7,8,1,
{1}2bz6[2:3]/6b,
{1},
{4}3h[1:0]/5h[1:0],4h[1:0]/6z2[4:5],,,
{1},
{4}4h[1:0]/6h[1:0],3z7[4:5]/5h[1:0],,,
{1},
{1}5-1[8:1],
{16}1,8,1,8,1,8,1,8,1,8,1,8,1,8,1,8,
{16}1,8,2,7,1,8,2,7,1,8,2,7,1,8,2,7,
{16}1,8,1,8,1,8,1,8,1,8,1,8,1,8,1,8,
{16}2,3,4/8,7,1/6,2,3/7,6,2/5,3,4/8,7,1-5[8:1]/6,2,3/7,6,
{1}1b/5,
{1},
{1},
{1},
E
&inote_6=(240)
{1},
{8}3h[4:1],,5h[4:1],,4h[4:1],5,6h[8:3],5h[8:3],
{4},6,5/6,4/7,
{8}5/7-5[8:1],,3,,2,2,4,4,
{4}2-4[8:1]/4,6,6,5/6,
{8}6h[4:1],,4h[4:1],,5h[4:1],4,3h[8:3],4h[8:3],
{4},3,3/4,2/5,
{8}6,6h[4:1],3,3h[4:1],5,5h[8:1],2b,,
{8}1,1,8,8,3/7,3/7,2/6,2/6,
{4}2-4[8:1]/6,1/2,1-5[8:1],1/8,
{4}8-6[8:1],6/8,5,4/6,
{8}5h[4:1]/7,7,6,6h[4:1],4,4,5h[4:1]/7,7,
{8}6,4,4/5,,4/5,,3/6,,
{8}2/8V62[8:3],,4,,3,3,1/3,,
{8}1V37[8:3]/7,,5,,6,6,6/8,,
{8}7-4[8:1],2-5[8:1],,,8,,1/8,,
{8}5/7,7,4/6,4,3/5,5,2/6,,
{4}7-5[8:1],7/8,8-4[8:1],1/8,
{4}1-3[8:1],1/3,4,3/5,
{8}2/4h[4:1],2,3,3h[4:1],5,5,2/4h[4:1],2,
{8}3,3/4,2/5,,1/8,,4/5,,
{8}1V37[8:3]/7,,5,,6,6,1/6,,
{8}2/8V62[8:3],,4,,3,3,3/8,,
{8}2-6[8:1]/6,2/6-2[8:1],,8,8-4[8:1],,1,,
{8}2,2,2/6,2/6,2,2,3/7,,
{8}5h[4:1]/6h[4:1],,,4h[4:1]/5h[4:1],,,3h[8:3],4h[4:1],
{8},,5h[8:3],3h[4:1],,,3h[8:3]/5h[4:1],,
{8},,5h[8:3],4h[8:3],,,5s1[4:3],4z8[8:5],
{1},
{4}7-5[4:1],5-3[4:1],3,2,
{4}2V46[2:1],4,6,7,
{8}1h[4:1]/8h[4:1],,,1/8V63[2:1],,2,,3V58[2:1],
{8},2,,1,1,,2/7,,
{8}3h[4:1],5h[4:1],,,4h[4:1],6h[4:1],,,
{8}4h[4:1]/5,,6h[8:3],3h[4:1],,,3/6,,
{8}4/5,4v3[4:1]/5,,5v6[4:1],,,,,
{16}1,8,1,8,1,,,,5,,5,,4/5,,,,
{4}2V46[2:1],4,6,8,
{4}7V53[2:1],5,3,1,
{8}1h[4:1]/8h[4:1],,,1V36[2:1]/8,,7,,6V41[2:1],
{8},7,,8,8,,2/7,,
{16}3,,4,,5,,6,,4,5,4,,2/7,,,,
{8}2,2,2/8,8,4/8,4,4/6,6,
{8}2-5[4:1]/6,,8,8h[4:1],,,4/7-4[4:1],,
{8}2,2h[4:1],,,3-8[4:1]/8,,6,6h[4:1],
{8},,2/6,3,4,4/7,6,5,
{8}2/5,,4/6,,3/7-4[4:1],3,2,1h[4:1],
{8},,2-5[4:1]/5,5,6,7h[4:1],,,
{16}1/7-4[4:1],,1,,2,,3h[4:1],,,,,,3,4,3,4,
{16}3,5,4,5,4,6,5,6,5,4,3,2,1,8,7,6,
{8}4/5,,5,4h[4:1],,5,3h[4:1]/6,,
{8}4,2h[4:1]/5,,1,3/8h[4:1],,1,2/7h[4:1],
{8},8,1/6h[4:1],,5,4/7,,3/4,
{8}2/5,,3,,4h[16:1]/7h[4:1],,8,1h[4:1]/6h[16:1],
{8},8,2h[4:1]/7h[16:1],,1,3h[4:1]/8h[16:1],,4,
{8}2h[16:1]/5h[4:1],,4,3h[16:1]/6h[4:1],,5,4h[16:1]/7h[4:1],,
{8}8,1h[4:1]/6h[16:1],,,2/5,2,4/8,8,
{4}2/8V62[2:1],1h[16:1],2V48[2:1],1h[16:1],
{4}8V62[2:1],1h[16:1],2V48[2:1],1h[16:1],
{8}8,,1h[16:1],,1/8,2h[16:1]/7h[4:1],,8,
{4}1h[16:1]/6h[4:1],5b,4<8[4:1],8>4[4:1],
{4}4<8[4:1],8>4[4:1],4<8[4:1],8>4[4:1],
{8}4V68[4:1],4,8V24[4:1],8,4V68[4:1],4,8V24[4:1],8,
{8}4,4,5,6,2/7b,2b/7,2/7b,2b/7,
{8}2h[4:1]/7h[8:3],,,3h[4:1],,6h[4:1],,4h[2:1],
{8},5h[4:1],,,,4h[8:1]/5h[8:1],,,
{2}6V48[1:1],2,
{2}8V64[1:1],2,
{2}4V62[1:1],3,
{2}2V84[1:1],3,
{2}4V68[1:1],2,
{2}8z4[1:1],2,
{2}4s8[1:1],2,
{2}1,4/5,
{4}3V51[1:1],6,7h[16:1],8,
{4}1V35[1:1],8,7h[16:1],6,
{4}5V37[1:1],6,7h[16:1],8,
{4}7V15[1:1],6,6h[16:1],6,
{4}5V31[1:1],6,7h[16:1],8,
{4}1s5[1:1],8,7h[16:1],6,
{1}6h[1:1],
{1}5s1[2:1],
{4}7<4[8:1]/8,3,1/2>5[8:1],7,
{16}1/8-4[8:1],,,,3,,,,3/5,2/6,1/7,,1/7,,,,
{16}1/8,7,6,5,3/4,5,6,7,1/8,2,3,4,5/6,4,3,2,
{16}1/8,7,6,5,3/4,5,6,7,1/8,2,3,4,5/7,,,,
{4}3-6[8:1]/4,8,5/7-2[8:1],4,
{16}1/3<6[8:1],,,,8,,,,8,1/7,2/6,,2/6,,,,
{8}3,4<7[8:1],3,4>1[8:1],,4,,7/8,
{16}6,5,6,5,7,,7,,2,1,2,1,3/8,,,,
{8}3>8[8:1]/4,,7,7,5/6<1[8:1],,3,3,
{16}4-8[8:1]/5,,,,7,,7,,1/7,2/6,3/5,,3/5,,,,
{16}4/5,3,2,1,7/8,1,2,3,4/5,6,7,8,1/2,8,7,6,
{16}4/5,3,2,1,7/8,1,2,3,4/5,6,7,8,1/3,,,,
{8}2-7[8:1]/4,,5,5,6-3[8:1]/8,,1,1,
{16}2<7[8:1]/4,,,,5,,5,,5,4/6,3/7,,3/7,,,,
{8}1/6,3h[4:1]/4,,8,5/6,,3/4,,
{32}2/7,,,,2/7,,,,3/6,,,,3/6,,,,4/5h[4:1],,,,,,,,4,3,2,1,8,7,6,5,
{8}4b/8b,,1/6,1/6-1[8:1],,2-6[8:1],,7-2[8:1],
{8},3-7[8:1],,8-3[8:1],,4-8[8:1],,8,
{24}7,,,1-5[8:1]/6,,,,,,1/5>1[16:17],,,,,,,6h[1:0],,,,6,,,,
{6}6h[1:0],5h[1:0],5,5h[1:0],4h[1:0],4h[1:0],
{8}1/4,,4/7,4-8[8:1]/7<4[8:1],,4/7,,2-4[8:1]/6-4[8:1],
{8},2-8[8:1]/6-8[8:1],,2/6,,2/6,2/6,,
{8}4/8,4-8[8:1]/8-4[8:1],,4/8,,2/6,2/6,,
{16}1/5,,2/6,,3/7,,4/8,,3/7,,2/6,,1/5,6,3/7,8,
{16}1/5b,,,,2/7,,6,5,6,,4,5,4,5,4,,
{16}3/6,,2,1,2,,3/6,,7,8,7,,1,8,1,8,
{16}2/7,,3,4,3,4,2,,6,5,6,5,7,,1/8,,
{16}2,4,3,7,5,6,3,4,1,8,1,8,2b/7b,,,,
{8}1/5,1/5,3/6,3/6,4/8,4/8,2,2,
{8}1/2,2/3,3/4,4/5,4/5,3/6,2/7,2/7,
{16}2/7,3,4,5,6,7,8,1,2/5,4,3,2,1,8,7,6,
{32}1b/5,2,3,4,5,6,7,8,1,2,3,4,5,6,7,8,1/6b,5,4,3,2,1,8,7,6b,5,4,3,2,1,8,7,
{1}2bz6[8:11]/6,
{1},
{1}3h[4:1]/7z3[8:11],
{1},
{1}1z5[4:5]*z5[4:5]/5h[96:23],
{4},,,3/4-8[8:5]*-8[8:5],
{1},
{16}1,8,1,8,1,8,1,8,1,8,1,8,1,8,1,8,
{16}2,8,1,8,1,8,1,8,2,8,1,8,1,8,1,8,
{16}2,7,1,8,2,7,1,8,1,8,1,8,2,8,1,8,
{16}1,7,1,8,2,8,1,7,1,8,2,8,1s5[8:3]*v3[8:3],7,1,8,
{1},
{1},
{1},
E
