&title=White Traveling Girl
&wholebpm=154
&artist=A-One
&des=某S氏
&shortid=819
&genre=東方Project
&cabinet=SD
&version=maimai FiNALE
&chartconverter=Neskol
&lv_2=4
&des_2=-
&lv_3=7+
&des_3=-
&lv_4=10+
&des_4=華火職人
&lv_5=13
&des_5=某S氏
&des_6=
&inote_2=
(154){1},
{1},
{1},
{1},
{4}1,1,1,,
{1}1h[2:1],
{4}8,8,8,,
{1}8h[2:1],
{4}1,1,1/8,,
{1}1h[2:1]/8h[2:1],
{4}8,8,1/8,,
{1}1b/8b,
{2}2,2,
{2}3,3,
{2}4,4,
{1}4/5,
{2}5,5,
{2}6,6,
{2}7,7,
{2}1/8,1/8,
{4}7,7,7,,
{4}6,6,6,,
{4}5,5,5,,
{1}4/5,
{4}4,4,4,,
{4}3,3,3,,
{4}2,2,2,,
{2}1/8,1/8,
{1}1-4[4:3],
{1},
{1}8-5[4:3],
{1},
{1}2-7[4:3],
{1},
{1}6-3[4:3],
{1},
{1}4/5,
{4}5,5,5,,
{4}6,6,6,,
{4}7,7,7,,
{4}1/8,,1,1,
{4}1/8,,8,8,
{2}1/8,1/8,
{1}1-4[4:3]/8-5[4:3],
{1},
{4}6,6,6,,
{4}5,5,5,,
{4}4,4,4,,
{4}4/5,,3,3,
{4}4/5,,6,6,
{2}4/5,4/5,
{1}4-1[4:3]/5-8[4:3],
{1},
{1}1-5[4:3],
{1},
{1}8-4[4:3],
{1},
{1}2-5[4:3],
{1},
{1}7-4[4:3],
{1},
{1}4b/5b,
{4}4,4,5,5,
{1}4h[2:1],
{4}5,5,4,4,
{1}5h[2:1],
{2}5/6,5/6,
{2}3/4,3/4,
{1}4b/5b,
{1},
{4}4,4,3,3,
{1}2h[2:1],
{4}1,1,8,8,
{2}1/8,1/8,
{2}7/8,7/8,
{2}1/2,1/2,
{1}1-4[4:3]/8-5[4:3],
{1},
{4}4,4,3,3,
{1}3h[2:1]/4h[2:1],
{4}5,5,6,6,
{1}5h[2:1]/6h[2:1],
{4}6,6,5,5,
{1}4h[2:1]/6h[2:1],
{4}3,3,4,4,
{1}3h[2:1]/5h[2:1],
{1}4/5,
{1},
{1},
{1},
E
&inote_3=
(154){1},
{1},
{1},
{1},
{4}2,1/2,7,7/8,
{4}6,5,4/6,,
{4}7,7/8,2,1/2,
{4}7h[4:1],8,1/6,,
{4}7,7/8,2,1/2,
{4}3,4,3/5,,
{4}2,1/2,7,7/8,
{4}1h[4:1],8,2b/7b,,
{4}2,3,3/4,,
{4}7,6,5/6,,
{4}2,3,4,5,
{1}6-2[8:3],
{4}2,3,4/5,,
{4}7,6,4/5,,
{4}3,3,2/4,,
{4}6,6,5/7,,
{4}7,6,5/6,,
{4}2,3,4,3/4,
{4}2/5,,4,3,
{1}2-6[8:3],
{4}8,7,5/6,,
{4}1,2,3/4,,
{4}6,6,5/7,,
{4}3,3,2b/4b,,
{2}2h[2:1],3h[2:1],
{4}4h[2:1],,5,5,
{2}6h[2:1],5-1[2:1],
{4},,8,8,
{2}7h[2:1],6h[2:1],
{4}5h[2:1],,4,4,
{2}3h[2:1],4-8[2:1],
{4},,1,1,
{1}1-4[2:1]*-6[2:1],
{4}6,5/7,8,1/7,
{4}1/7,,1,2/8,
{4}7,6,5,4-8[2:1],
{4},,,7/8,
{4}1/6,,2,1/2,
{4}3/8,,5,4/5,
{2}3h[4:1]/4h[4:1],5h[4:1]/6h[4:1],
{4}4/7,,5,4,
{4}3,2/4,1,2/8,
{4}2/8,,8,1/7,
{4}2,3,4,5-1[2:1],
{4},,,1/2,
{4}3/8,,7,7/8,
{4}1/6,,4,4/5,
{1}3/6<3[4:5],
{4},,,4/5,
{2}3h[2:1]/6,4h[2:1],
{4}5h[2:1],,6,6,
{2}7h[2:1],6-2[2:1],
{4},,8,7,
{2}6h[2:1],5h[2:1],
{4}4h[2:1],,3,3,
{2}2h[2:1],3-7[2:1],
{4},,1,1,
{1}1-4[2:1]*-6[2:1],
{2}3,4/5,
{2}6,4/5,
{2}3,4/5,
{4}5/6,,5,5,
{4}3,,4,4,
{4}6,,5,5,
{1}3>6[4:5],
{1},
{4}5b/6b,4/7,8,1/7,
{4}1/7,,1/2,3/8,
{4}7,6,5,3-8[2:1]/4-7[2:1],
{4},,,7/8,
{4}1/6,,2,1/2,
{4}3/8,,5,4/5,
{1}4>5[4:5]/5,
{1},
{4}7,7/8,2,1/2,
{4}3,4/5,3/6,,
{4}2,1/2,7,7/8,
{2}1h[4:1]/2h[4:1],3/8,
{4}2,1/2,7,7/8,
{4}6,4/5,3/6,,
{4}7,7/8,2,1/2,
{4}8h[4:1],1,1/8,1/8,
{1}2b/7b,
{1},
{1},
{1},
E
&inote_4=
(154){1},
{1},
{8}8h[8:7],,,,,,,1b,
{8},,,,,1/8,2b/7b,,
{8}3,5,4,6,5/6,,4/5,,
{16}3h[16:3],,,4h[16:3],,,5h[16:3],,,6,,,4/7,,,,
{8}6,4,5,3,3/4,,4/5,,
{16}6h[16:3],,,5h[16:3],,,4h[16:3],,,3,,,2/5,,,,
{8}3,5,4,6,5/6,,4/5,,
{16}3h[16:3],,,4h[16:3],,,5h[16:3],,,6,,,4/7,,,,
{8}6,4,5,3,3/4,,5/6,,
{16}4h[16:3],,,5,,,3b-1[8:1]/6b-8[8:1],,,,,,,,,,
{4}3h[4:3],5,4,6,
{4}7h[4:3],4,6,3<6[4:1],
{8},,,,7,7,5,,
{8}2,2,4,,4/5,,3/6,,
{4}2h[4:3],1,8,7,
{4}6h[4:3],5,4,3,
{4}2h[4:1],1,7h[4:1],8,
{4}1-4[4:1]/8-5[4:1],,,3b/6b,
{4}7h[4:3],4,5,3,
{4}2h[4:3],5,4,7>2[4:1],
{8},,,,1,1,2,,
{8}8,8,7,,5/6,,1/2,,
{4}7h[4:1],8,2h[4:1],1,
{4}1/8,2/7,3/6,4/5,
{4}6h[4:1],8,3h[4:1],1,
{4}4-1[4:1]/5-8[4:1],,,2b/7b,
{8}5h[4:1]/6h[4:1],,,5/6,,3/4,3h[4:1]/4h[4:1],,
{8},3/4,,5/6,5/6h[4:1],,2,,
{8}1h[4:1]/2h[4:1],,,1/2,,7/8,7h[4:1]/8h[4:1],,
{8},7/8,,1/2,1/2h[4:1],,6,,
{8}5h[4:1]/6h[4:1],,,5/6,,1/2,1h[4:1]/2h[4:1],,
{8},1/2,,5/6,5/6h[4:1],,1,,
{8}3h[4:1]/4h[4:1],,,3/4,,7/8,7h[4:1]/8h[4:1],,
{8},7/8w4[8:3],,,,,,,
{8}4h[2:1]/5h[2:1],,,,,4/5,3b/6b,,
{8}4/5,,1/3,,7/8,7/8,,2/5,
{8},8,8,,5/7,,2/4,,
{8}4/5,,6/8,,1/2,1/2,,4/7,
{8},1,1,,3/6,3/6,4-1[16:3]/5,,
{8}8b,,,,3/6,3/6,4/5-8[16:3],,
{4}1b,2-5[16:3],1b,6pp1[16:9],
{8}1b,,,,,,2/8,2h[4:1]/8h[4:1],
{8},,,4/5,4/5,,2b/7b,,
{8}4/5,,1/3,,7/8,7/8,,2/5,
{8},8,8,,6/8,,1/3,,
{8}4/5,,6/8,,1/2,1/2,,4/7,
{8},1,1,,3/6,3/6,4/5-8[16:3],,
{8}1b,,,,3/6,3/6,4-1[16:3]/5,,
{8}8b,,7-4[16:3],,8b,,3>6[2:1],3,
{8},,,,,,2/7,2h[4:1]/7h[4:1],
{8},,,4/5,4/5,,2b/7b,,
{8}3h[4:1]/4h[4:1],,,3/4,,7/8,7h[4:1]/8h[4:1],,
{8},7/8,,3/4,3h[4:1]/4,,8,,
{8}5h[4:1]/6h[4:1],,,5/6,,1/2,1h[4:1]/2h[4:1],,
{8},1/2,,5/6,5/6h[4:1],,1,,
{8}3h[4:1]/5h[4:1],,,3/5,,1/7,1h[4:1]/7h[4:1],,
{8},1/7,,3/5,3h[4:1]/5,,1,,
{8}4h[4:1]/6h[4:1],,,4/6,,2/8,2h[4:1]/8h[4:1],,
{8},2/8w4[8:3],,,,,,,
{4}4h[2:1]/5h[2:1],,,3b/6b,
{8}3/4,,3/5,,3/6,6,3/6,,
{8}3/6,,3/5,,3/4,4,3/4,,
{8}3/5,,3/6,,3/7,7,3/7,,
{8}3/6,,3/7,,8,8,1,,
{8}2b/7b,,,,4,4,5,,
{4}5/6,3/4,5/7,2/4,
{1}2b/7b,
{16}4/5,,4/5,,3/6,,,,4,5,4,,3/6,,,,
{8}1/8,,5/7,,3/4,3/4,,1/6,
{8},8,8,,6/8,,1/3,,
{8}1/8,,2/4,,5/6,5/6,,3/8,
{8},1,1,,2/5,2/5,3-8[16:3]/4,,
{8}5b,,,,4/7,4/7,5/6-1[16:3],,
{8}4b,,2-5[16:3],,8b,,7<2[2:1],7,
{8},,,,,,3/6,3h[4:1]/6h[4:1],
{8},,,1/8,1/8,,2b/7b,,
{8}7,1,8,2,1/2,,4/5,,
{16}6h[16:3],,,8h[16:3],,,1h[16:3],,,3,,,3/4,,,,
{8}2,8,1,7,7/8,,4/5,,
{16}3h[16:3],,,1h[16:3],,,8h[16:3],,,6,,,5/6,,,,
{8}7,1,8,2,1/2,,4/5,,
{16}6h[16:3],,,8h[16:3],,,1h[16:3],,,3,,,3/4,,,,
{8}2,8,1,7,7/8,,3/6,,
{16}5h[16:3],,,4,,,3b-1[8:1]/6b-8[8:1],,,,,,,,,,
{1}2b/7b,
{1},
{1},
{1},
E
&inote_5=
(154){1},
{1},
{8}8h[8:7],,,,,,,1b,
{16},,,,,,,,,,4,5,3,,,,
{16}3/4,,3,4,,3/4,,2/5,,3,3,,4,,3/5,,
{8}3h[4:1],8,5h[4:1],1,4h[4:1],8,6,1,
{16}7,8,7,8,,7/8,,1/6,,7,7,,8,,1/7,,
{16}1,8,,1,8,,4,5,,4,5,,1/8,,2/7,,
{16}5/6,,6,5,,5/6,,4/7,,6,6,,5,,4/6,,
{8}6h[4:1],1,4h[4:1],8,5h[4:1],1,3,8,
{16}2,1,2,1,,1/2,,3/8,,2,2,,1,,2/8,,
{16}1/7,1/7,,4/8,4/8,,2/6,2/6,,2,3,4,5,6,7,8,
{8}1h[4:3]/5,,5,,5-1[8:1],,5,2,
{8}1/3h[4:3],,1,,1-6[8:1],,1,2,
{8}6/8h[4:3],,6,,6>3[8:1],,6,1,
{16}1,,,,2/8,,,,2,8,3,7,4,6,5,,
{8}4/8h[4:3],,4,,4-8[8:1],,4,7,
{8}6h[4:3]/8,,8,,8>3[8:1],,8,7,
{16}4h[4:1]/8h[4:1],,,,,,,,4h[8:1]/8h[8:1],,,3h[8:1]/7h[8:1],,,2/6,,
{16}1h[8:1]/5h[8:1],,,2h[8:1]/6h[8:1],,,3/7,,4/8,1,2,3,4,5,6,7,
{8}8h[4:1],3,2h[4:1],7,6h[4:1],1,2,8,
{8}3h[4:1],5,6h[4:1],1,2h[4:1],7,8,3,
{8}4/8p4[8:1],3,2,1,4/8q4[8:1],5,6,7,
{8}1<6[8:1]/5,4,3,2,1>4[8:1]/5,6,7,8,
{8}8h[4:1],,7,7h[4:1],,6,6,5>1[8:1],
{8},8,8,,7/8,7/8,1/6,2/5,
{16}3-8[8:1]/4-8[8:1],,,,,,,,3h[8:1]/7h[8:1],,,1h[8:1]/5h[8:1],,,4/8,,
{16}1h[8:1]/5h[8:1],,,3h[8:1]/7h[8:1],,,1/5,,4>1[8:1]/8<5[8:1],,,,,,,,
{8}1-5[8:1],,1/7,7-3[8:1],,4/7,4-8[8:1],,
{8}4/6,6-2[8:1],,1/6,1b,,3b/7b,,
{8}8-4[8:1],,2/8,2-6[8:1],,2/5,5-1[8:1],,
{8}3/5,3-7[8:1],,3/8,8b,,2b/6b,,
{8}4>1[8:1],5,6,7<4[8:1],8,1,2<7[8:1],3,
{8}4,5>2[8:1],6,7,8b,,2b/6b,,
{8}5<8[8:1],4,3,2>5[8:1],1,8,7>2[8:1],6,
{8}5,4<7[8:1],3,2,1w5[8:1],,1,,
{8},,,,,1/8,2b/7b,,
{8}2/4,3,5/7,6,2-5[8:1],5-8[8:1],8>5[4:1],7h[8:3],
{4},,2-5[8:1]/8-5[8:1],2b/8b,
{8}6/8,7,1/3,2,8<5[8:1],5>2[8:1],2p8[4:1],1h[8:3],
{8},,,,1h[8:1],3h[8:1],5h[8:1],7h[8:1],
{8}1-5[8:1],,1b,,8h[8:1],6h[8:1],4h[8:1],2h[8:1],
{4}8-5[8:1]*<5[8:1],8-3[8:1]*>3[8:1],8w4[8:1],8,
{8}2h[4:1],1,8,7h[4:1],6,5pp1[8:3]*qq1[8:3],5,5,
{16},,,,,,,,6,5,6,,3,4,3,,
{8}5/7,6,2/4,3,7-4[8:1],4-1[8:1],1<4[4:1],2h[8:3],
{4},,1-4[8:1]/7-4[8:1],1b/7b,
{8}1/3,2,6/8,7,1>4[8:1],4<7[8:1],7q1[4:1],8h[8:3],
{8},,,,1/7,2,3/5,6,
{8}3-8[8:1]/7-4[8:1],,3b/7b,,1-5[8:1],1,8-4[8:1],8,
{8}3-8[8:1],3,6-1[8:1],6,4>7[16:3],4,5pp5[2:1]*qq5[2:1],5,
{4},,,2/7,
{16}2,1,2,,7,8,7,,3,4,3,,6,5,6,,
{8}1-5[8:1],,1/7,7-3[8:1],,5/7,5-1[8:1],,
{8}3/5,3-7[8:1],,1/3,1b,,2b/6b,,
{8}8-4[8:1],,2/8,2-6[8:1],,2/4,4-8[8:1],,
{8}4/6,6-2[8:1],,6/8,8b,,3b/7b,,
{8}1-5[8:1],8,7,6-2[8:1],5,4,3-7[8:1],2,
{8}1,8-4[8:1],7,6,5b,,3b/7b,,
{8}8-4[8:1],1,2,3-7[8:1],4,5,6-2[8:1],7,
{8}8,1-5[8:1],2,3,4w8[8:1],,4,,
{8},,,,,1/8,2/7,,
{4}5h[8:1],5h[8:1],4h[8:1],4h[8:1],
{4}4/5h[8:1],4h[8:1]/5,4/5h[8:1],4h[8:1]/5,
{4}4h[1:0]/5h[8:1],3h[8:1]/4h[1:0],4h[1:0]/6h[8:1],2h[8:1]/4h[1:0],
{8}4h[1:0]/7h[8:1],,1h[8:1]/5h[1:0],,2/6,3/7,4/8,1/5,
{8}2-7[8:1]/6-3[8:1],,,,4/8,3/7,2/6,1/5,
{4}4q8[8:1]/8q4[8:1],4>1[8:1]/8<5[8:1],4-7[8:1]/8-3[8:1],4/8,
{1}4b/8b,
{16}1,8,1h[8:1],,7,2,7h[8:1],,3,6,3h[8:1],,5,4,5,,
{8}1/3,2,6/8,7,3-8[8:1],8-5[8:1],5>8[4:1],6h[8:3],
{4},,3-8[8:1]/5-8[8:1],3b/5b,
{8}5/7,6,2/4,3,5<8[8:1],8>3[8:1],3q5[4:1],4h[8:3],
{8},,,,2/8,7,4/6,3,
{8}2-5[8:1]/6-1[8:1],,2b/6b,,8-4[8:1],8,1-5[8:1],1,
{8}6-1[8:1],6,3-8[8:1],3,5<2[16:3],5,4pp4[2:1]*qq4[2:1],4,
{4},,,2/7,
{16}7,8,7h[8:1],,2,1,2h[8:1],,6,5,6h[8:1],,3,4,3,,
{16}5/6,,6,5,,5/6,,4/7,,6,6,,5,,4/6,,
{8}6h[4:1],1b,4h[4:1],8b,5h[4:1],1b,3,8b,
{16}2,1,2,1,,1/2,,3/8,,2,2,,1,,2/8,,
{16}8b,1,,8b,1,,5b,4,,5b,4,,1b/8b,,2b/7b,,
{16}3/4,,3,4,,3/4,,2/5,,3,3,,4,,3/5,,
{8}3h[4:1],8b,5h[4:1],1b,4h[4:1],8b,6,1b,
{16}7,8,7,8,,7/8,,1/6,,7,7,,8,,1/7,,
{16}2b/8b,2/8,,1b/5b,1/5,,3b/7b,3/7,,5,4,3,2-6[8:1],1,8,7,
{1}2b/6b,
{1},
{1},
{1},
E
