&title=Scarlet Lance
&wholebpm=185
&artist=MASAKI(ZUNTATA)「グルーヴコースター3EXドリームパーティー」より
&des=サファ太
&shortid=797
&genre=ゲームバラエティ
&cabinet=SD
&version=maimai FiNALE
&chartconverter=Neskol
&lv_2=6
&des_2=-
&lv_3=9
&des_3=-
&lv_4=12+
&des_4=LabiLabi
&lv_5=14
&des_5=サファ太
&des_6=
&inote_2=
(185){1},
{1},
{1},
{1},
{1},
{1},
{4}4,4,4,,
{4}5,5,5,4b/5b,
{2}3/4,3/4,
{4}3/4,,4,4,
{4}5,5,5,,
{4}6,6,6,,
{4}7,7,7,,
{1}8h[2:1],
{2}7/8,7/8,
{4}7/8,,8,8,
{4}1,1,1,,
{4}2,2,2,,
{1}3-6[4:3],
{1},
{1}7-2[4:3],
{1},
{1}1-4[4:3],
{1},
{4}5,5,4,4,
{1}5h[4:3],
{1}4h[4:3],
{4}5,4,5,3b/6b,
{4}2,2,1/2,,
{4}8,8,1,1,
{4}7,7,7/8,,
{4}1/8,1/8,2/7,,
{4}6,6,5,5,
{4}4,4,3,3,
{4}4,4,5,5,
{4}6,6,7,7,
{1}8-4[4:3],
{1},
{1}1-5[4:3],
{1},
{4}3,3,4,4,
{4}5,5,6,6,
{4}5,5,4,4,
{4}3,3,2/4,,
{1}2h[2:1],
{1}1h[2:1],
{1}8-4[4:3],
{4},,3,3,
{1}4h[2:1],
{1}5h[2:1],
{4}6,6,5/7,,
{4}3,3,2/4,,
{4}1,1,2/8,,
{4}8,8,7,7,
{1}6>3[4:3],
{1},
{1}2<7[4:3],
{1},
{1}6>3[4:3],
{1},
{4}1,1,1,,
{4}8,8,8,,
{4}1/8,1/8,1/8,,
{4}2/7,2/7,2/7,,
{4}3/6,3/6,4/5,4/5,
{8}4,5,4,5,4,,4b/5b,,
{2}3h[4:1],3h[4:1],
{4}3h[4:1],,3,3,
{4}2,2,1/2,,
{4}7,7,7/8,,
{4}6,6,5/6,,
{4}4,5,4,,
{2}6h[4:1],6h[4:1],
{4}6h[4:1],,6,6,
{4}7,7,7/8,,
{4}2,2,1/2,,
{4}3,3,3/4,,
{4}5,4,3/6,,
{4}4h[8:3],,,4h[8:3],
{4},,4,4b,
{4}5,5,6,6,
{4}7,7,1/8,,
{4}1h[8:3]/8h[8:3],,,1h[8:3]/8h[8:3],
{4},,1/8,1b/8b,
{4}2,2,3,3,
{4}4,4,5,5,
{8}4/5,,4,4,,5,5,,
{8}4,4,,5,5,,4b/5b,,
{4}3,3,3,,
{4}2,2,2,,
{1}1-5[4:3],
{1},
{2}7/8,1/2,
{4}7/8,,1,1,
{2}1/2,7/8,
{4}1/2,,8,8,
{1}1-4[4:3]/8-5[4:3],
{1},
{1}3b/6b,
{1},
{1},
{1},
E
&inote_3=
(185){1},
{1},
{2}3h[2:1],4h[2:1],
{2}5h[2:1],6,
{4}5h[8:3]/6h[8:3],,,3h[8:3]/4h[8:3],
{4},,3/4,3/4,
{4}2,2,8,8,
{4}1/8,1/8,2b/7b,,
{4}3,2/4,6,5/7,
{4}1/8,2/7,3/6,,
{4}3,2/4,1,1/8,
{4}7,8,1/6,,
{4}6,5/7,8,1/8,
{4}2,1/2,3/8,,
{4}6,5/7,3,2/4,
{4}1/8,2/7,3/6,,
{4}7,6/8,5,4/5,
{4}3/4,5/6,4/7,,
{1}8V64[4:3],
{4},,4,4,
{1}3V57[4:3],
{4},,8,8,
{1}1V35[4:3],
{4},,6,4/5,
{4}3,4/5,6,4/5,
{1}2b/7b,
{2}3h[2:1],4h[2:1],
{4}5,5,4b/6b,,
{4}6h[1:1],5,5,5,
{4}5,3/4,2/5,,
{4}7h[1:1],5,5,5,
{1}5>1[2:1],
{4}8,7,5/6,5/6,
{4}4,3,2/5,,
{4}3,4,5/6,5/6,
{4}7,8,1/6,,
{4}3h[1:1],4,4,4,
{4}4,4/5,3/6,,
{4}2h[4:3],4,4,4,
{1}5<1[2:1],
{4}2,2,3/4,5/6,
{4}7,8,1/6,,
{4}3,3,1/2,7/8,
{4}6,7/8,1/6,,
{1}2h[2:1]/7h[2:1],
{4}3/6,4/5,2b/7b,,
{4}6h[2:1],5,5,4/5,
{4}3h[2:1],4,4,2p4[2:1],
{4},,,7q5[2:1],
{4},,,4,
{4}4h[8:3]/5h[8:3],,,4/5,
{4}3h[8:3]/6h[8:3],,,3/6,
{4}2h[8:3]/7h[8:3],,,1/8,
{2}2h[4:1]/4h[4:1],5h[4:1]/7h[4:1],
{1}4bq5[4:5],
{1},
{1}5b<4[4:5],
{1},
{4}3h[2:1],4,4,,
{4}6h[2:1],5,5,,
{4}3h[2:1],5,4,,
{4}6h[2:1],4,5,,
{4}2h[2:1],8,1,,
{4}7h[2:1],1,8,,
{8}1,1,1,,8,8,8,,
{4}2/7,4/5,1b/8b,,
{4}2h[4:1],4,7h[4:1],5,
{4}2h[4:1],1,3/8,,
{8}5/7,,5/7,,8,8,1,,
{4}2/4,4/5,3/6,,
{8}2/4,,2/4,,1,1,8,,
{4}5/7,4/5,2b/4b,,
{4}7h[4:1],8,2h[4:1],1,
{4}7h[4:1],5,2/4,,
{8}2/5,,2/5,,1,1,8,,
{4}4/7,4/5,2b/5b,,
{1}1v4[2:1]/8v5[2:1],
{2},3/6,
{4}2-5[4:1],,,7-4[4:1],
{4},,2,1/2,
{1}1v6[2:1]/2v5[2:1],
{4},,6,6,
{4}6-3[4:1],,,2-7[4:1],
{4},,6,5/6,
{1}5v2[2:1]/6v1[2:1],
{4},,8,8,
{4}8p4[4:1],,,3p7[4:1],
{4},,5/6,4/7,
{4}1/8,2/4,4/5,6<4[4:3],
{1},
{4}2,3/4,5/6,4/7,
{4}6,7/8,1/6,,
{4}2/4,4/5,5/7,4/5,
{4}2/4,4/5,2/7,,
{4}7/8,5/6,3/4,1/2,
{4}1/8,6/7,4/5,2/3,
{4}1/8,8bV63[2:3],,,
{1},
{1},
{1},
{1},
E
&inote_4=
(185){1},
{1},
{8}6h[8:5],,5,,,5,5/6,,
{8}3h[8:5],,4,,,4,3/4,,
{8}1/8,,2,2-5[8:1],,8,8-4[8:1],,
{8}1,1-5[8:1],,7,7-3[8:1],,2b,,
{8}4/5,4/5,3/6,3/6,2/7,2/7,1/8,1/8,
{16}1,8,1,8,1,8,1,8,1-5[8:1],,,,8b,,,,
{16}7h[16:3],,,6h[16:3],,,5,,2h[16:3],,,3h[16:3],,,4,,
{16}7h[16:3],,,6h[16:3],,,5,,2-6[8:1],,,,8,,,,
{8}7/8,,4,4,6,6,5/7,,
{8}1/2,,5,5,3,3,2/4,,
{8}7/8,,4,4,6,6,5/7,,
{8}4,5,3/6<3[4:1],,,,,,
{16}2h[16:3],,,3h[16:3],,,4,,7h[16:3],,,6h[16:3],,,5,,
{16}2h[16:3],,,3h[16:3],,,4,,7-3[8:1],,,,1,,,,
{8}1/2,,5,5,3,3,2/4,,
{8}1/8,1/8,1-5[8:1]/8-4[8:1],,,,2b/7b,,
{6}3h[4:1]/6h[4:1],,,2/4,2/4,2/4,
{6}3/5,3/5,3/5,4-1[8:1]/6,,,
{6}2h[4:1]/7h[4:1],,,5/7,5/7,5/7,
{6}4/6,4/6,4/6,3/5-8[8:1],,,
{6}2h[4:1]/7h[4:1],,,4/6,4/6,4/6,
{6}2/8,2/8,2/8,2-6[8:1]/8,,,
{6}7h[4:1]/8h[4:1],,,3/5,3/5,3>5[3:2]/5,
{1},
{2}6-3[8:1],2-7[8:1],
{4}6-3[8:1],,2,1b/8b,
{4}4,5h[4:1],7h[4:1],8,
{4}4h[4:1],2h[4:1],1,2/7,
{4}5,4h[4:1],2h[4:1],1,
{4}1>4[4:1]/5<8[4:1],,,3/7,
{8}2,2,4,4,3,3,2/4,,
{8}7,7,5,5,6,6,5/7,,
{8}3,3,4,4,2,2,1/4,,
{8}6,6,5,5,7,7,5/8,,
{4}5,4h[4:1],2h[4:1],1,
{4}5h[4:1],7h[4:1],8,2/7,
{4}4,5h[4:1],7h[4:1],8,
{4}4>1[4:1]/8<5[4:1],,,2/6,
{8}7,7,5,5,6,6,5/7,,
{8}2,2,4,4,3,3,2/4,,
{8}6,6,5,5,7,7,5/8,,
{8}3,3,4,4,2,2,1pp4[8:15]/4,,
{4}5,5,5,5,
{4}5,5,5-8[8:1],,
{8}3/7,3/7,,1/5,1/5,,4/8,4/8,
{8},2/6,2/6,,7-4[8:1]/8-3[8:1],,,,
{2}3-6[8:1],7-2[8:1],
{4}3-6[8:1],,7,1/8,
{8}4/6,,4/6,4b-1[8:1]/6b-1[8:1],,,,,
{8}3/5,,3/5,3b-8[8:1]/5b-8[8:1],,,,,
{8}3/6,,3/6,3b-8[8:1]/6b-1[8:1],,,,,
{16}3h[16:3],,,4h[16:3],,,5,,6h[16:3],,,5h[16:3],,,4,,
{1}3>5[2:3],
{8},,,,,,,6,
{1}6<4[2:3],
{8},,,,,,,3,
{8}3,,,7,7h[4:1],,5,5h[4:1],
{8},4,4h[4:1],,2,,4/5,,
{8}1/2,1/2,1/2,1/2,1-6[8:1]/2-5[8:1],,,,
{8}7/8,7/8,7/8,7/8,7-4[8:1]/8-3[8:1],,,,
{8}5/6,5/6,5/6,5/6,5-2[8:1]/6-1[8:1],,,,
{8}3/4,3/4,3/4,3/4,3-8[8:1]/4-7[8:1],,,,
{8}4/5,4/5,3/6,3/6,2/7,2/7,1/8,1/8,
{16}8,1,8,1,8,1,8,1,8-4[8:1],,,,1b,,,,
{16}1h[16:3],,,2h[16:3],,,3,,8h[16:3],,,7h[16:3],,,6,,
{16}1h[16:3],,,2h[16:3],,,3,,7-3[8:1],,,,1,,,,
{8}1/2,2,7,7,5,5,4/6,,
{8}7/8,7,2,2,4,4,3/5,,
{8}1/2,2,7,7,5,5,4/6,,
{8}5,4,3>6[4:1]/6,,,,,,
{16}8h[16:3],,,7h[16:3],,,6,,1h[16:3],,,2h[16:3],,,3,,
{16}8h[16:3],,,7h[16:3],,,6,,2-6[8:1],,,,8,,,,
{8}7/8,7,2,2,5,5,4/6,,
{8}1/8,1/8,1-5[8:1]/8-4[8:1],,,,2b/7b,,
{6}1-4[8:1]/5-8[8:1],,,3/7,5/6,3/4,
{6}2/6,3/4,5/6,3-8[8:1]/7-4[8:1],,,
{8}1/5,,6,7-4[8:1],,3,2-5[8:1],,
{8}6,7-4[8:1],,3,2-5[8:1],,8b,,
{6}4-1[8:1]/8-5[8:1],,,2/6,3/4,5/6,
{6}3/7,5/6,3/4,2-5[8:1]/6-1[8:1],,,
{8}4/8,,3,2-5[8:1],,6,7-4[8:1],,
{8}3,2-5[8:1],,6,7-4[8:1],,1b,,
{6}1-4[8:1]/5-8[8:1],,,3/7,2/8,4/6,
{6}7/8,3/4,5/6,3-8[8:1]/7-4[8:1],,,
{8}1/5,,6,8-5[8:1],,3,1-4[8:1],,
{8}6,8-5[8:1],,3,1-4[8:1],,8b,,
{6}4-1[8:1]/8-5[8:1],,,2/6,1/7,3/5,
{6}1/2,5/6,3/4,2-5[8:1]/6-1[8:1],,,
{1}4b>5[2:3]/8b,
{1},
{16}7,,7,5,,5,8,,2,,2,4,,4,1,,
{16}7,,7,5,,5,8,,4b-1[8:1]/5b-8[8:1],,,,,,,,
{16}2,,2,4,,4,1,,7,,7,5,,5,8,,
{16}2,,2,4,,4,1,,1b/8b,,2b/7b,,3b/6b,,4b/5b,,
{4},1b>8[2:3]/8b,,,
{1},
{1},
{1},
{1},
E
&inote_5=
(185){1},
{1},
{6}2/6h[2:1],,,2h[6:1],4h[6:1],3,
{6}7h[6:1],5h[6:1],6,2h[6:1],4h[6:1],3,
{8}3-8[8:1],,6,6-3[8:1],,1,1-6[8:1],,
{8}4,4-7[8:1],,1,1-4[8:1],,8,,
{8}5/7,7,4/6,6,2/4,2,3/5,3,
{16}4,5,2,7,3,6,1,8,1-5[8:1],8,1,8,1,,,,
{16}4b/7b,,6,5,,5,7,,2/5,,3,4,,4,2,,
{16}4/7,,6,5,,5,7,,1/8,,2,,3/5,,3,,
{16}4/7,,6,5,6,,4/7,,8,,8,3,,3,1,,
{16}2/5,,3,4,3,,2/5,,1,,1,6,,6,8,,
{16}4/7,,6,5,6,,4/7,,8-4[8:1],,2-5[8:1],,,,,,
{16}6,,6,,2/5,,3,4,,6,5,,4/7,,,,
{16}2/5,,3,4,,4,2,,4/7,,6,5,,5,7,,
{16}2/5,,3,4,,4,2,,1/8,,7,,4/6,,6,,
{16}2/5,,3,4,3,,2/5,,1,,6,5,,3,4,,
{16}2/5,,7,8,7,,2/6,,4>1[8:1]/8<5[8:1],,,,,,,,
{48}2b/6b,,,,,,,,,,,,1,,,8,,,1,,,,,,2/7h[3:1],,,,,,,,8,,,,,,,,6,,,,,,,,
{48}5h[3:1]/7,,,,,,,,6,,,,,,,,4,,,,,,,,3,,,,,,3,,,1,,,,,,1,,,2,,,,,,
{48}3b/8b,,,,,,,,,,,,8,,,1,,,8,,,,,,2h[3:1]/7,,,,,,,,1,,,,,,,,3,,,,,,,,
{48}2/4h[3:1],,,,,,,,3,,,,,,,,5,,,,,,,,6,,,,,,6,,,8,,,,,,8,,,7,,,,,,
{48}1b/6b,,,,,,,,,,,,5,,,4,,,5,,,,,,3h[3:1]/6,,,,,,,,4,,,,,,,,2,,,,,,,,
{48}1h[3:1]/3,,,,,,,,2,,,,,,,,8,,,,,,,,7,,,,,,7,,,5,,,,,,5,,,6,,,,,,
{48}4b/7b,,,,,,,,,,,,3,,,4,,,3,,,,,,2/5h[3:1],,,,,,,,4,,,,,,,,6,,,,,,,,
{1}4h[4:3]/7b<1[2:1],
{48}3h[16:3],,,,,,,,,5h[16:3],,,,,,,,,2,,,,,,2,,,,4,,,,2,,,,7,,,,5,,,,7,,,,
{16}4,5,4,5,3,6,3,6,2,7,1,8,2/7,,,,
{8}4/5,,2-4[8:1]/4,2/4-1[8:1]*-7[8:1],,,,,
{8}6-8[8:1]/8,6/8-3[8:1]*-5[8:1],,,,4,,2/6,
{8}2/6,,4/8-4[8:1],4-6[8:1]/8-2[8:1],,,,,
{8}2/6h[4:1],,2,4h[4:1]/8,,8,2b/6b,,
{16}2-4[8:1],5,2,5,2,,6,6,,2,1,,3/8,,,,
{16}2-5[8:1],6,2,6,2,,7,7,,3,4,,2/5,,,,
{16}6-8[8:1],1,6,1,6,,2,2,,6,5,,4/7,,,,
{16}6-1[8:1],2,6,2,6,,3,3,,7,8,,1/6,,2,,
{8}3b/8b,,1/3V14[4:1],1-6[8:1]/3,,,,,
{8}5/7V58[4:1],5-2[8:1]/7,,,,1,,3/7,
{8}3/7,,1/5-1[8:1],1-7[8:1]/5-3[8:1],,,,,
{8}3h[4:1]/7,,7,1/5h[4:1],,1,3b/7b,,
{16}7-4[8:1],3,7,3,7,,2,2,,7,8,,6,5,6,,
{16}3-8[8:1],7,3,7,3,,6,6,,3,4,,2,1,2,,
{16}7<4[8:1],8,7,8,7,,2,2,,7,8,,3,4,2/5,,
{16}6<1[8:1],5,6,5,6,,3,3,,6,5,,4/7,,6,,
{1}3/5w1[8:3],
{24}1,8,1,8,1,8,1,8,1,8,1,8,1-5[8:1],,,,,,8b,,,,,,
{8}7,7h[4:1],,5,5h[4:1],,3,3h[4:1],
{8},1,1h[4:1],,8,,2/7,,
{12}1b/5,2,3,4/7,5,6,2/7,8,1,2/5,3,4,
{12}5/8b,7,6,2/5,4,3,2/7,1,8,4/7,6,5,
{8}2>5[8:1]/4,,2,8-4[8:1],,8,2,3,
{8}4/7<4[8:1],,7,1-5[8:1],,1,7,6,
{8}2>5[8:1]/5,,2,8-4[8:1],,8,1,2,
{16}3h[8:3]/5,,,2,,,8,,4/6h[8:3],,,7,,,1,,
{24}2b/5h[6:5],,,,,,,,,,3,4,,,,,,,,3,4h[24:25],,,,
{24},,,6,5,,,,,,,,6,5,,,,,,,,5,,,
{24}4h[24:19]/7b,,,,,,,,,6,5,,,,,,,,6,5h[12:13],,,,,
{24},,,3,4,,,,,,,,3,4,,,,,,,,4,,,
{8}3b/5h[2:3],,,4,4,,6,6,
{8},2,2,,1-4[8:1]*-6[8:1],,,,
{8}3/5h[2:1],3,3,3,4,4,4/6,6,
{8}3h[2:1]/5,5,5,5,6,6,5/7,,
{8}2/5h[2:1],2,2,2,2,3,4/5,6,
{8}4h[2:1]/7,7,7,7,7,6,2/5,,
{16}2,6,2,6,3,7,3,7,4,8,4,8,5,1,5,1,
{16}5,4,3,2,8,7,6,5,8-4[8:1],1,2,3,4/8,,,,
{16}2b/5b,,3,4,,4,1,,4/7,,6,5,,5,8,,
{16}2/5,,3,4,,4,1,,7/8,,6,,5/7,,3,,
{16}2/5,,3,4,3,4,2/5,,2,,2>5[8:1],1,,1,2,,
{16}8,,6,5,6,5,4/7,,7,,7<4[8:1],8,,8,7,,
{16}2,,3,4,3,4,2/5,,1-5[8:1],,7-4[8:1],,1,,7,,
{16}2,,2,,3/4,,6,5,,5,8,,1/7,,2,,
{16}3/8,,2,1,,1,4,,1/6,,7,8,,8,5,,
{16}3/8,,2,1,,1,4,,5/6,,7,,6/8,,2,,
{16}3/8,,2,1,2,1,3/8,,3,,3>8[8:1],5,,5,3,,
{16}6,,7,8,7-3[8:1],8,1/6,,7<4[8:1]*>2[8:1],,,,,,,,
{48}1b/5b,,,,,,,,,,,,1/6,,,2,,,3,,,4,,,5/8-5[8:1],,,,,,,,1,,,,,,,,2,,,,,,,,
{48}3-8[8:1]/7,,,,,,,,4,,,,,,,,5,,,,,,,,2/5,,,,,,7,,,8,,,,,,2,,,1,,,,,,
{24}7/8,,,7,6,5,4,,,1/2,,,2,3,4,5,,,1/7,,,7,6,5,
{24}4,,,2/8,,,2,3,4,5,,,1-4[8:1]/7-4[8:1],,,,,,1b/7b,,,,,,
{48}2/6,,,,,,,,,,,,4/7,,,3,,,2,,,1,,,5-8[8:1]/8,,,,,,,,4,,,,,,,,3,,,,,,,,
{48}2-5[8:1]/6,,,,,,,,1,,,,,,,,8,,,,,,,,3/8,,,,,,6,,,5,,,,,,3,,,4,,,,,,
{24}2/8,,,6,5,4,3,,,1/7,,,3,4,5,6,,,2/8,,,6,5,4,
{24}3,,,1/7,,,3,4,5,6,,,2-5[8:1]/8-5[8:1],,,,,,2b/8b,,,,,,
{48}3/7,,,,,,,,,,,,2/5,,,6,,,7,,,8,,,1/4v1[8:1],,,,,,,,5,,,,,,,,6,,,,,,,,
{48}3/7v4[8:1],,,,,,,,8,,,,,,,,1,,,,,,,,1/6,,,,,,2,,,4,,,,,,7,,,5,,,,,,
{24}1/2,,,1/2,3,4,5,,,7/8,,,7/8,6,5,4,,,1/2,,,1/2,3/8,4/7,
{24}5/6,,,7/8,,,7/8,1/6,2/5,3/4,,,1z5[8:1]/2s6[8:1],,,,,,1b/2b,,,,,,
{48}4/7,,,,,,,,,,,,3,,,4,,,5,,,6,,,2/7v2[8:1],,,,,,,,6,,,,,,,,5,,,,,,,,
{48}4v7[8:1]/8,,,,,,,,3,,,,,,,,2,,,,,,,,1b/5b,,,,,,7,,,6/8,,,,,,3,,,2/4,,,,,,
{16}6,5,6,5,6,5,7h[8:1],,3,4,3,4,3,4,2h[8:1],,
{16}7,8,7,8,7,8,6h[2:1],,1b,,1b,,2b,,2b,,
{16}3,4,3,6,5,6,3h[8:1],,7,5,7,2,4,2,7h[8:1],,
{16}2,4,3,7,5,6,2h[2:1],,8b,,8b,,7b,,7b,,
{16}8,5,6,1,4,3,7h[8:1],,1,4,2,8,5,7,3h[8:1],,
{32}1,,4,,6,,8,,5,,3,,4h[8:1],,,,1,8,7,6,5,4,3,2,1-5[8:1],8,7,6,5,4,3,2,
{4}1b>8[4:7],1h[2:3],,,
{1},
{1}1b,
{1},
{1},
{1},
E
