&title=NOISY LOVE POWER☆
&wholebpm=140
&artist=大橋彩香
&des=はっぴー
&shortid=788
&genre=POPSアニメ
&cabinet=SD
&version=maimai FiNALE
&chartconverter=Neskol
&lv_2=4
&des_2=-
&lv_3=6
&des_3=-
&lv_4=10
&des_4=はっぴー
&lv_5=10+
&des_5=はっぴー
&lv_6=12+
&des_6=はっぴー
&inote_2=
(140){1},
{1},
{1}1/8,
{1}1/8,
{1}2/7,
{1}2/7,
{4}6,6,5/6,,
{4}3,3,3/4,,
{4}4,4,3,3,
{4}2,2,1/2,,
{4}3,3,3/4,,
{4}6,6,5/6,,
{4}5,5,6,6,
{4}7,7,7/8,,
{1}1h[2:1],
{1}8h[2:1],
{1}8-4[2:1],
{1},
{1}1-5[2:1],
{1},
{4}8,8,7,,
{4}6,6,5,,
{4}4,4,3,,
{4}2,2,1,,
{4}1,1,2,,
{4}3,3,4,,
{4}5,5,6,,
{4}7,7,8,,
{1}1b,
{1}2-7[2:1],
{2},7,
{1}6-3[2:1],
{2},2,
{1}1h[2:1],
{1}8h[2:1],
{4}1,2,1/2,,
{4}8,7,7/8,,
{4}6,6,5/6,,
{4}3,3,3/4,,
{4}4,4,3,3,
{4}1/2,1/2,1/2,,
{4}3,3,3/4,,
{4}6,6,5/6,,
{4}5,5,6,6,
{4}7/8,7/8,7/8,,
{4}6,6,5,,
{4}4,4,3,,
{4}3,3,4,,
{4}5,5,6,,
{4}7,7,8,8,
{4}1,1,2,,
{4}3,3,4,4,
{4}5,5,6,,
{4}4/5,4/5,4/5,,
{1},
{1},
{1},
E
&inote_3=
(140){1},
{1},
{1}4/5,
{1}3/6,
{1}2/7,
{1}1h[8:3]/8h[8:3],
{4}1,1,2,2,
{4}3,3,3/4,,
{4}5,5,6,6,
{4}7,7,7/8,,
{4}8,8,7,7,
{4}6,6,5/6,,
{4}4,4,3,3,
{4}2,2,1/2,,
{2}7h[2:1],8,
{2}2h[2:1],1,
{4}1,1,2,2,
{4}3,3,3/4,,
{4}5,5,6,6,
{4}7,7,7/8,,
{4}6,6,5/6,5/6,
{4}3,3,3/4,3/4,
{4}6,6,5/6,5/6,
{4}4/5,3/6,2/7,,
{4}3,3,3/4,3/4,
{4}6,6,5/6,5/6,
{4}3,3,3/4,3/4,
{4}4/5,4/5,3/6,2/7,
{1}1-4[8:3]/8-5[8:3],
{2}5h[4:1]/6h[4:1],5/6,
{4}6,5,4,3,
{2}3h[4:1]/4h[4:1],3/4,
{4}3,4,5,6,
{2}7h[2:1],8h[2:1],
{2}1h[2:1],2,
{4}3/4,3/4,5/6,5/6,
{4}1/8,1/8,2/7,,
{4}6,6,5/7,5/7,
{4}3,3,2/4,,
{4}2,1,8,7,
{4}7,8,1b,,
{4}3,3,2/4,2/4,
{4}6,6,5/7,,
{4}7,8,1,2,
{4}2,1,8b,,
{1}7-4[8:3]/8-3[8:3],
{4}3/4,3/4,2/5,,
{1}1-6[8:3]/2-5[8:3],
{4}5/6,5/6,4/7,,
{4}8,8,7,7,
{4}5/6,4/7,3/8,,
{4}1,1,2,2,
{4}3/4,2/5,1/6,,
{4}1/8,1/8,2/7,,
{1},
{1},
{1},
E
&inote_4=
(140){1},
{1},
{8}4/6,4/6,,,,,,,
{8}3/5,3/5,,,,,,,
{8}1/8,1/8,,,,,,,
{16}4/5,,,3/6,,,2/7,,,,,,1b/8b,,,,
{8}6,5/6,4/7,,7-4[8:1]/8-3[8:1],,,,
{8}1,2,3/4,3/4,2-6[8:1]/5,,,,
{8}8,7,6,5,4,3,2,1,
{8}1/8,1/8,2/7,3/6,4/5,,2b/7b,,
{8}3,3/4,2/5,,1-6[8:1]/2-5[8:1],,,,
{8}8,7,5/6,5/6,4/7-3[8:1],,,,
{8}2,3,4/5,4/5,2/6,,,8,
{8}8,4/7,5>2[4:1]/6<1[4:1],,,,,,
{16}7h[16:3],,,6h[16:3],,,5,,2h[16:3],,,3h[16:3],,,4,,
{8}4>6[8:3],,,,,8b,8b,,
{8}3,3,3/4,3/4,2,1,8,7,
{8}6,6,5/6,5/6,7,8,1,2,
{8}3,3,3/4,3/4,2,1,8,7,
{16}5/7,,,4/5,,,2/4,,,,4/5,,4/5,,,,
{8}2/7,6,5,,3/7,,2/6,,
{8}2/5,3,4,,2/6,,3/7,,
{8}4/7,6,5,,3/4,,5/6,,
{4}3/5,4/6,2/5,4/7,
{8}2/5,3,4,5,6,,4/7,,
{8}4/7,6,5,4,3,,2/5,,
{8}2/5,3,4,5,6,,4/7,,
{4}3/5,4/6,2/5,4/7,
{1}1>8[2:1],
{8}3h[4:1]/4,4,4,,3/4,,2/5,,
{4}3h[4:1],1h[4:1],8h[4:1],6,
{8}5/6h[4:1],5,5,,5/6,,4/7,,
{4}6h[4:1],8h[4:1],1h[4:1],3,
{1}4h[4:3]/5h[4:3],
{4}7/8,1/2,3/4,5/6,
{2}7-5[8:1]/8-4[8:1],1-5[8:1]/2-4[8:1],
{16}1/8,,,2/7,,,3/6,,3/6,,,,8b,,,,
{8}3,3/4,2/5,,1-6[8:1]/2-5[8:1],,,,
{8}8,7,5/6,5/6,4/7-3[8:1],,,,
{8}1,2,3,4,5,6,7,8,
{8}1/8,1/8,2/7,3/6,4/5,,2b/7b,,
{8}6,5/6,4/7,,7-4[8:1]/8-3[8:1],,,,
{8}1,2,3/4,3/4,2-6[8:1]/5,,,,
{8}7,6,4/5,4/5,3/7,,,1,
{8}1,2/5,3>8[4:1]/4<7[4:1],,,,,,
{16}2h[16:3],,,3h[16:3],,,4,,7h[16:3],,,6h[16:3],,,5,,
{8}5<3[8:3],,,,,1b,1b,,
{16}7h[16:3],,,6h[16:3],,,5,,2h[16:3],,,3h[16:3],,,4,,
{8}4>6[8:3],,,,,8b,8b,,
{8}6,5/6,6,5/6,7,8,1,2,
{8}3,3/4,3,3/4,2,1,8,7,
{8}6,5/6,6,5/6,7,8,1,2,
{16}2/4,,,4/5,,,5/7,,,,4/5,,4/5,,,,
{8}7/8,1/6,,1/2,3/8,,,,
{1},
{1},
{1},
E
&inote_5=
(140){1},
{1},
{8}1/6,1h[8:5]/6h[8:5],,,,,,,
{8}3/8,3h[8:5]/8h[8:5],,,,,,,
{8}2/7,2/7,,,6,5,3,4,
{16}4/5,,,3/6,,,2/7,,,,1/8,,2/7,,,,
{8}4/6-1[8:1],6,3,4,3-8[8:1]/5,3,6,6,
{8}1/7-4[8:1],7,2,1,2-5[8:1]/8,2,6,7,
{8}8<5[8:1],8,1>4[8:1],1,8-4[8:1],8,2,2,
{8}1/2,3/8,4/7,5/6,4/7,8,1/8,,
{8}3-8[8:1]/5,3,6,5,4/6-1[8:1],6,3,3,
{8}2-5[8:1]/8,2,7,8,1/7-4[8:1],7,1,1,
{8}2-5[8:1],2,6<3[4:1],6,3,,,1,
{8}8,6,5pp5[4:1]*qq5[4:1],,,,,,
{16}7h[16:3],,,6h[16:3],,,5,,2h[16:3],,,3h[16:3],,,4,,
{16}4/5,,3/6,,4,5,4,5h[16:5],,,1b,,1b,,,,
{8}2-6[8:1],2,8,8,2,4,5,6,
{8}7-3[8:1],7,1,1,7,5,4,3,
{8}2-6[8:1],2,8,8,2,4,5,6,
{16}3/4,,,5/6,,,2/4,,,5/7,,,1/8,,,,
{8}6,5,4<7[8:1],3,2h[4:1],,5,5,
{8}3,4,5>2[8:1],6,7h[4:1],,4,4,
{8}6,5,4<7[8:1],3,2h[4:1],,5,5,
{8}3-6[8:1],3,8-5[8:1],8,4-1[8:1],4,8,,
{8}2,1,8>3[8:1],7,6h[4:1],,1,1,
{8}7,8,1<6[8:1],2,3h[4:1],,8,8,
{8}2,1,8>3[8:1],7,6h[4:1],,1,1,
{8}7-2[8:1],7,4-1[8:1],4,8-5[8:1],8,4>5[2:1],4,
{4}5,,,2/7,
{4}4-2[16:1],7-5[16:1],4-2[16:1],7,
{2}3h[4:1]/4<7[8:1],5>2[8:1]/6h[4:1],
{4}5-7[16:1],2-4[16:1],5-7[16:1],2,
{2}5>2[8:1]/6h[4:1],3h[4:1]/4<7[8:1],
{2}1h[4:3],8h[4:1],
{4}1/8,6/7,4/5,2/3,
{2}1-6[8:1]/2-5[8:1],7-4[8:1]/8-3[8:1],
{16}4/5,,,3/6,,,2/7,,2/7,,,,1/8,,,,
{8}3-8[8:1]/5,3,6,5,4/6-1[8:1],6,3,3,
{8}2-5[8:1]/8,2,7,8,1/7-4[8:1],7,3,2,
{8}1>4[8:1],1,8<5[8:1],8,1-5[8:1],1,7,7,
{8}7/8,1/6,2/5,3/4,2/5,1,1/8,,
{8}4/6-1[8:1],6,3,4,3-8[8:1]/5,3,6,6,
{8}1/7-4[8:1],7,2,1,2-5[8:1]/8,2,8,8,
{8}7-4[8:1],7,3>6[4:1],3,6,,,8,
{8}1,3,3q8[4:1]/4<7[4:1],,,,,,
{16}2h[16:3],,,3h[16:3],,,4,,7h[16:3],,,6h[16:3],,,5,,
{16}4/5,,3/6,,5,4,6,5,,,8b,,8b,,1,,
{16}8h[16:3],,,7h[16:3],,,6,,1h[16:3],,,2h[16:3],,,3,,
{16}4/5,,3/6,,4,5,3,4h[16:5],,,1b,,1b,,,,
{8}6-2[8:1],6,4,4,7,8,1,2,
{8}3-7[8:1],3,5,5,2,1,8,7,
{8}6-2[8:1],6,4,4,7,8,1/8,,
{16}3/5,,,4/6,,,2/4,,,5/7,,,2/7,,,,
{16}2,1,3,8,,,7,8,6,1,,,,,,,
{1},
{1},
{1},
E
&inote_6=
(140){1},
(280){1},
{1},
{8}2/5,,2/5,,4,5,,4/6,
{4},4,3,2,
{8}4/7,,4/7,,5,4,,3/5,
{4},7,6,5,
{4}2/5,2/5,4/5,3/6,
{12}2,3,4,7,6,5,1,2,3,8,7,6,
{16}1/5,,,,,,,5/6,,,,,2-5[4:1]/7-4[4:1],,,,
{2},1b/8b,
{4}3/7-4[8:1],1,2-5[8:1]/6,8,
{4}3/6-1[8:1],4,3-8[8:1]/6,5,
{4}3/7-3[8:1],1,2-6[8:1]/6,8,
{8}4>1[4:1]/7,,6,6,,8,1,,
{4}3/7-3[8:1],1,2-6[8:1]/6,8,
{4}1/8,3/6,1>5[4:1],5<1[4:1],
{4}1>5[4:1],5<1[4:1],1>5[4:1],5,
{4}1,4/5,1b/8b,,
{4}2-5[8:1]/6,8,3/7-4[8:1],1,
{4}3-8[8:1]/6,5,3/6-1[8:1],4,
{4}2-5[8:1]/6,8,3/7-4[8:1],1,
{8}2/5<8[4:1],,3,3,,1,8,,
{4}2/6,4/7,3/4,2q7[4:1]/3<6[4:1],
{8},,,8,,,1,,
{8}3,,4,5,,5,3,,
{8}5/7,,3/8,3/8,,4,5,,
{4}1>4[2:1],6,5,7,
{4}8<5[2:1],3,4,2,
{8}2/7,,2/7,,4,5,4,5h[8:3],
{4},4,2b/7b,,
{8}3/4,,2/5,,4,6,5,7h[8:3],
{8},5,5,,2/4,,4/5,,
{8}5/6,,4/7,,5,3,4,2h[8:3],
{8},4,4,,5/7,,4/5,,
{8}3/4,,2/5,,4,6,5,7h[8:3],
{8},5,5,,2/4,,4/5,,
{8}3,4,2,6,5,7,2,1,
{8}3,7,8,6,2h[4:1]/7h[4:1],,,,
{8}1/8,,2/7,,6,6,5,,
{8}4/6,,2,1,,1,3,,
{8}1/8,,2/7,,3,3,4,,
{8}3/5,,7,8,,8,6,,
{8}1/8,,2/7,,6,6,5,,
{8}4/6,,3,4,,4,2,,
{4}1>4[4:1],6,8<5[4:1],3,
{4}1>4[4:1],6,8,8,
{8}1/8,,2/7,,3,3,4,,
{8}3/5,,7,8,,8,6,,
{8}1/8,,2/7,,6,6,5,,
{8}4/6,,2,1,,1,3,,
{8}1/8,,2/7,,3,3,4,,
{8}3/5,,6,5,,5,7,,
{4}4/8-4[4:1],3,1-5[4:1],6,
{4}8-4[4:1],3,2,1>7[4:3],
{4}8,8,8,8,
{12}7,6,5,2,3,4,8,7,6,1/5,,,
{2}4-2[8:1]/6-8[8:1],4>2[8:1]/6<8[8:1],
{4}4-2[8:1]/6-8[8:1],,4/6,3,
{4}2-6[4:1],7,7-3[4:1],2,
{4}2<7[4:1],7,6,5,
{2}3-1[8:1]/5-7[8:1],3>1[8:1]/5<7[8:1],
{4}3-1[8:1]/5-7[8:1],,3/5,6,
{4}7-2[4:1],4,3-6[4:1],7,
{1}8w4[8:3],
{1}3h[2:3]/6h[2:3],
{4},,,3/6,
{2}1>4[8:1]/8<5[8:1],1>4[8:1]/8<5[8:1],
{2}1>4[8:1]/8<5[8:1],1>4[8:1]/8<5[8:1],
{8}3/7,,6,5,,5,8,,
{8}2/6,,3,4,,4,1,,
{8}4/5,,,1/8,,,2/7,,
{4}2/7,1-5[4:1]/8-4[4:1],1/8,,
{4}2-5[8:1]/6,8,3/7-4[8:1],1,
{4}3-8[8:1]/6,5,3/6-1[8:1],4,
{4}2-6[8:1]/6,8,3/7-3[8:1],1,
{8}2/5<8[4:1],,3,3,,1,8,,
{4}2-6[8:1]/6,8,2/7-3[8:1],1,
{4}1/8,3/6,8<4[4:1],4>8[4:1],
{4}8<4[4:1],4>8[4:1],8<4[4:1],4,
{4}8,4/5,1b/8b,,
{4}3/7-4[8:1],1,2-5[8:1]/6,8,
{4}3/6-1[8:1],4,3-8[8:1]/6,5,
{4}1/7-3[8:1],1,2-6[8:1]/8,8,
{8}4>1[4:1]/7,,6,6,,8,1,,
{4}3/7-3[8:1],1,2/6,4>1[4:1]/5<8[4:1],
{8},,,2/7,,,1,,
{8}2,,5,4,,4,6,,
{8}2/4,,1/6,1/6,,5,4,,
{4}8<5[2:1],3,4,2,
{4}1>4[2:1],6,5,7,
{8}3/8,,3/8,,6,5,7,4,
{4},1/7,1/7,8,
{4}1>4[2:1],6,5,7,
{4}8<5[2:1],3,4,2,
{8}1/6,,1/6,,3,4,2,5,
{4},2b/8b,2b/8b,,
{8}5/6,,3/7,,5,3,4,2h[8:3],
{8},4,4,,7,5,8,,
{8}3/4,,2/5,,4,6,5,7h[8:3],
{8},5,5,,2,4,1,,
{4}8-4[8:1],2-6[8:1],7-3[8:1],1-5[8:1],
{4}7-4[8:1],3-8[8:1],6,1,
{8}6,5,7,3,4,2,7,8,
{8}6,2,1,3,2h[4:1]/7h[4:1],,,,
{8}6,5,6,4/7,,,3,4,
{8}3,2/5,,,,,,,
{1},
{1},
{1},
E
