&title=Magical Sound Shower
&wholebpm=120
&artist=HIRO/曲者P
&des=はっぴー
&shortid=804
&genre=niconicoボーカロイド
&cabinet=SD
&version=maimai FiNALE
&chartconverter=Neskol
&lv_2=5
&des_2=-
&lv_3=8
&des_3=-
&lv_4=10+
&des_4=小鳥遊さん
&lv_5=13
&des_5=はっぴー
&des_6=
&inote_2=
(120){1},
{1},
{1},
{1},
{1},
{1},
{4}7,7,7,,
{4}8,8,8,,
{4}1,1,1,,
{4}2,2,2,,
{4}3,3,3/4,,
{4}4,4,4/5,,
{4}6,6,5/6,,
{4}5,5,4/5,,
{4}6,6,7,7,
{4}8,8,1/8,,
{4}2,2,3,3,
{4}4,4,4/5,,
{4}3,3,2,2,
{4}1,1,1/8,,
{4}7,7,6,6,
{4}5,5,4/5,,
{1}4h[16:15]/5h[16:15],
{1},
{4}4,5,4b/5b,,
{4}3,3,3/4,,
{4}4,4,4/5,,
{4}6,6,5/6,,
{4}5,5,4/5,,
{4}4,4,3,3,
{4}2,2,1h[4:1],,
{4}8,8,7,7,
{4}6,6,4/5,,
{4}5,5,6,6,
{4}7,7,8h[4:1],,
{4}1,1,2,2,
{4}3,3,4/5,,
{4}5h[4:1]/6h[4:1],,6,6,
{4}5,5,4/5,,
{4}3h[4:1]/4h[4:1],,3,3,
{4}4,4,4/5,,
{4}5h[4:1]/6h[4:1],,6,6,
{4}5,5,4/5,,
{4}4h[4:1]/5h[4:1],,5,4,
{1}5-8[4:3],
{1},
{1},
{16},8,,,,,,,,,,,,,,,
{16},1-5[4:3],,,,,,,,,,,,,,,
{1},
{16},6,,6,,,,,,,,,,,,,
{16},5,,5,,,,,,,,,,,,,
{16},4,,4,,,,,,,,,,,,,
{16},3,,3-6[16:11],,,,,,,,,,,,,
{1},
{4}5,4,4b/5b,,
{4}4,4,3,3,
{4}2,2,1/8,,
{4}8,8,7,7,
{4}6,6,4/5,,
{4}3,3,3/4,,
{4}5,5,4/5,,
{4}6,6,7,7,
{4}8,1,1/8,,
{4}1h[4:1]/2h[4:1],,2,2,
{4}1,1,1/8,,
{4}7h[4:1]/8h[4:1],,7,7,
{4}8,8,1/8,,
{4}1h[4:1]/2h[4:1],,2,2,
{4}1,1,1/8,,
{4}7h[4:1]/8h[4:1],,7,7,
{4}1/8,1/8,2/7,,
{1},
{1},
{1},
E
&inote_3=
(120){1},
{1},
{2}3h[2:1],4h[2:1],
{2}5h[2:1],6,
{2}6h[2:1],5h[2:1],
{2}4h[2:1],3,
{4}3,3,4,4,
{4}3,3,3/4,,
{4}6,6,5,5,
{4}6,6,5/6,,
{4}3,3,3/4,3/4,
{4}3,3,2/4,,
{4}6,6,5/6,5/6,
{4}6,6,5/7,,
{4}3,3/4,3,3/4,
{4}3,3/4,2/5,,
{4}6,5/6,6,5/6,
{4}6,5/6,4/7,,
{4}3,4/5,6,4/5,
{4}3,4/5,3/6,,
{4}2,1/8,7,1/8,
{4}2,1/8,2/7,,
{1}1h[16:15]/8h[16:15],
{1},
{4}4,5,3b/6b,,
{4}2,1/2,3/8,,
{4}7,7/8,1/6,,
{4}6,5/6,4/7,,
{4}3,3/4,2b/5b,,
{4}3,3/4,3,4/5,
{4}6,5/6,4/7,,
{4}6,5/6,6,4/5,
{4}3,3/4,2/5,,
{4}3,3/4,3,4/5,
{4}6,5/6,4/7,,
{4}6,5/6,6,4/5,
{4}4/5,3/6,2b/7b,,
{4}3h[4:1]/4h[4:1],,3,4,
{4}5,6,5/6,,
{4}5h[4:1]/6h[4:1],,6,5,
{4}4,3,3/4,,
{4}1h[4:1]/2h[4:1],,2,1,
{4}8,7,7/8,,
{4}7h[4:1]/8h[4:1],,7,8,
{1}1-4[8:3]/8-5[8:3],
{1}3h[2:3]/6h[2:3],
{1},
{16},3,,3,,4,,4,,5,,5,,6,,6,
{16},5,,5,,4,,4,,3,,3,,4>1[2:1]/5<8[2:1],,,
{1},
{16},2,,2,,,,1,,1,,,,,,,
{16},8,,8,,,,7,,7,,,,,,,
{16},7/8,,7/8,,,,7/8,,7/8,,,,,,,
{16},1/2,,1/2,,,,1/2,,1-6[2:1]/2-5[2:1],,,,,,,
{1},
{4}4/5,3/6,2b/7b,,
{4}1,2,3,4,
{4}5,6,7,1/8,
{4}8,7,6,5,
{4}4,3,2,1/8,
{4}2h[4:1],1,2h[4:1],1,
{4}7h[4:1],8,7h[4:1],8,
{4}2,1,8,7,
{4}1/8,1/8,2b/7b,,
{4}7h[4:1]/8h[4:1],,1,1/2,
{4}8,7/8,1/6,,
{4}1h[4:1]/2h[4:1],,8,7/8,
{4}1,1/2,3/8,,
{4}3h[4:1]/4h[4:1],,5,5/6,
{4}4,3/4,2/5,,
{4}5h[4:1]/6h[4:1],,4,3/4,
{4}4/5,3/6,2b/7b,,
{1},
{1},
{1},
E
&inote_4=
(120){1},
{1},
{1},
{1},
{1},
{1},
{4}3,3,4,4,
{16}5h[16:3],,,4,,4,,4,,,,,4/5,,,,
{4}6,6,5,5,
{16}4h[16:3],,,5,,5,,5,,,,,3/6,,,,
{4}3,2/4,6,5/7,
{16}3h[16:3],,,4,,4,,3/4,,,5,,4/5,,,,
{4}6,5/7,3,2/4,
{16}6h[16:3],,,5,,5,,5/6,,,1,,1b/8b,,,,
{4}4/7,5/6,3/4,2/5,
{16}5/6h[16:3],,,5,,5,,4h[16:5]/8h[16:5],,,,,,,,,
{4}2/5,3/4,5/6,4/7,
{16}3h[16:3]/4,,,4,,4,,3/4,,,8,,1b/8b,,,,
{4}2/4,5/6,3/4,5/7,
{16}3h[16:3]/4,,,4,,3/4,,3/4-8[8:1],,,,,,,,,
{4}5/7,3/4,5/6,2/4,
{16}5/6h[16:3],,,5,,5/6,,5-1[8:1]/6,,,,,,,,,
{16}2/4,,,,5/7,,,,1h[16:3]/8h[16:3],,,,,,,2b<5[16:21]/7b>4[16:21],
{1},
{1},
{16}2h[16:3],,,3h[16:3],,,4,,,,4/7,,3b/6,,,,
{16}7h[16:3],,,6h[16:3],,,5,,,,2/5,,3/6b,,,,
{16}3h[16:3],,,2h[16:3],,,1,,,,1/6,,2b/7,,,,
{16}6h[16:3],,,7h[16:3],,,8,,,,3b/8b,,2b/7b,,,,
{16}1h[16:3],,,2h[16:3],,,3,,7h[16:3],,,6h[16:3],,,5,,
{16}3h[16:3],,,4q5[16:5],,,,,,,,,,,,,
{16}8h[16:3],,,7h[16:3],,,6,,2h[16:3],,,3h[16:3],,,4,,
{1}4qq7[2:1]/5,
{16}8h[16:3],,,7h[16:3],,,6,,2h[16:3],,,3h[16:3],,,4,,
{16}6h[16:3],,,5p4[16:5],,,,,,,,,,,,,
{16}1h[16:3],,,2h[16:3],,,3,,7h[16:3],,,6h[16:3],,,5,,
{16}3,4,3,,,,6,5,6,,,,,1/2,,,
{16}3b/8b,,,,5,5,,3,3,,,,1/5,,2/6,,
{16}3<6[4:1]/7h[16:13],,,,,,,,,,,,,8,,,
{16}1b/6b,,,,4,4,,6,6,,2,,1,,8,,
{16}2h[16:13]/7s3[8:3],,,,,,,,,,,,,1,,,
{16}3b/8b,,,,5,5,,3,3,,,,1/5,,2/6,,
{16}3p6[8:3]/7h[16:13],,,,,,,,,,,,,8,,,
{16}1b/6b,,,,8,8,,1,1,,2,,4,,5,,
{1}7/8w4[8:3],
{1}2b/6b,
{1},
{16},3,,3,,4,,4,,5,,5,,6,,6,
{16},7,,7,,8,,8,,1,,1,,1b>8[16:11]/8b<1[16:11],,,
{1},
{16},3,,2/4,,,,6,,5-1[8:1]/7,,,,,,,
{16},7,,6/8,,,,2,,1-5[8:1]/3,,,,,,,
{16},5/6,,4/7,,,,3/4,,2/5-1[8:1],,,,,,,
{16},1/2,,3/8,,,,7/8,,1<2[16:15]/6,,,,,,,
{1},
{8}5,5,5,4,4,4,2b/7b,,
{8}3<6[8:1]/7,,8,,7,7,6/8,,
{8}2/6>3[8:1],,1,,2,2,1/3,,
{2}7h[4:1]/8>3[8:1],1<6[8:1]/2h[4:1],
{4}2/4,5/7,4-1[8:1]/5-8[8:1],,
{8}3/7>2[8:1],,4,,3,3,2/4,,
{8}2<7[8:1]/6,,5,,6,6,5/7,,
{2}3h[4:1]/4<7[8:1],5>2[8:1]/6h[4:1],
{4}6/8,1/3,4b-1[8:1]/5b-8[8:1],,
{16}2b/7b,,,,4,4,,6,6,,,,3/8,,2/7,,
{16}1h[16:13]/6q3[8:3],,,,,,,,,,,,,8,,,
{16}3b/7b,,,,5,5,,3,3,,6,,8,,1,,
{16}3s7[8:3]/8h[16:13],,,,,,,,,,,,,1,,,
{16}2b/4b,,,,5,5,,3,3,,,,4/6,,3/7,,
{16}2>7[8:3]/8h[16:13],,,,,,,,,,,,,1,,,
{16}5b/7b,,,,1,1,,8,8,,7,,5,,4,,
{16}2,1,2,,,,7,8,7,,,,4/8,,,,
{1}2b/6b,
{1},
{1},
{1},
E
&inote_5=
(120){1},
{1},
{1}4h[1:2],
{1},
{1}5h[4:7],
{8}6,,6,,6,6,6,,
{16}2h[16:3],,,3h[16:3],,,4,,4h[16:3],,,3h[16:3],,,2,,
{16}2h[16:3],,,3h[16:3],,,4,,4/5,,,,4/5,,,,
{16}7h[16:3],,,6h[16:3],,,5,,5h[16:3],,,6h[16:3],,,7,,
{16}7h[16:3],,,6h[16:3],,,5,,4/5,,,,4/5,,,,
{16}3,,3,4,,3/5<8[8:1],,2,,2,,,4,5,3,,
{16}3,,3,4,,3/5,,5/6,,,,,4/5,,,,
{16}6,,6,5,,4>1[8:1]/6,,7,,7,,,5,4,6,,
{16}6,,6,5,,4/6,,3,4,3,5,5,4,,3/6,,
{16}3,,3,4,,3/5,,4/6,,3/5,,,4,5,3,,
{16}3,,3,4,,3/5,,4h[16:7]/8h[16:7],,,,,,,,,
{16}6,,6,5,,4/6,,3/5,,4/6,,,5,4,6,,
{16}1/4h[4:1],1,1,1,1,,4/5,,4,5,,5,4,,4,5,
{16}3,,3,4,,3/5,,4/6,,3/5,,,4,5,3,,
{48}5h[4:1]/8,,,8,,,8,,,8,,,8,,,,,,4/5,,,4/5,,,,,,1/5h[16:3],,,1,,,1,,,1,,,,2/7,,,,3/6,,,,
{16}6,,6,5,,4/6,,3/5,,4/6,,,5,4,6,,
{32}6,,,,6,,5,,,,4/6,,,,3/5,,,,4,5,,,4,,4/5,,,,,,,,
{48}4,,5,,4,,5,,4,,5,,3,,6,,3,,6,,3,,6,,2,,7,,2,,7,,2,,7,,1>7[4:3],,,,,,,,,8h[16:13],,,
{1},
{16}5,4/6,,4/6,,,4,3/5,,3/5,,,5,,4,,
{16}6<3[4:1],,,5,,,4,,,,3/4,,2/5,,,,
{16}3>6[4:1],,,4,,,5,,,,5/6,,4/7,,,,
{16}6<3[4:1],,,5,,,4,,,,3/4,,2/5,,,,
{16}3>6[4:1],,,4,,,5,,,,5/6,,4/8,,,,
{16}5>1[4:1]/6,,,6,,,5,,4<8[4:1],,,3,,,4,,
{16}5,,,6,,,5,,3,4,,4,2,2,5,,
{16}3/4<8[4:1],,,3,,,4,,5>1[4:1],,,6,,,5,,
{16}4,,,3,3,4,,4/5,,5/7,,5,4,,3/6,,
{16}3/4<8[4:1],,,3,,,4,,5>1[4:1],,,6,,,5,,
{16}4,,,3,,,4,,6,5,,5,7,7,4,,
{16}5>1[4:1]/6,,,6,,,5,,5,,1,8,,,3/6,,
{16}1/8,1/8,1/8,,,,3/6,3/6,3/6qq7[8:3],,,5,6,4,,,
{16}8,,,,4,5,,5,3h[4:1],,,,8qq8[4:1],,1,,
{16}2,,,4,4,,6,,3pp2[8:3]/4,,2,4,3,5,,,
{16}1,,,,5,4,,4,6z2[4:1],,,,2z6[4:1],,,,
{16}6,,,5,,,4,,3pp2[8:3]/4,,2,4,3,5,,,
{16}1,,,,5,4,,4,6,,,,3p6[4:1]/7>2[4:1],,3/7,,
{16},,,,,,,,5/6qq7[8:3],,7,5,6,4,,,
{16}8,,,,4,5,,5,3,,1,,1,,8,,
{16}8w4[16:7],,,8,,,,,,,,,,,,,
{1}2/6,
{1},
{16}4,5,,4/5,,3/4,,2/3,,4/5,,5/6,,6/7,,7/8,
{16},4/5,,3/4,,2/3,,1/2,,7q8[16:15]/8>7[16:15],,6/7,,,,,
{1},
{16}6,5,,4/7,,,3,4,,2/5,,,5,4,,,
{16}3,4,,2/5,,,6,5,,4/7,,,4/5,,4,5,
{48}3,,,4,,,,,,2/5,,,,,,,,,6,,,5,,,,,,4/7,,,,,,,,,1b/8b,,,,2b/7b,,,,3b/6b,,,,
{16}3,4,,2/5,,,6,5,,4>5[16:11]/7,,,5,4,,,
{1},
{16}5/8h[4:1],5,5,5,5,,1h[4:1]/4,4,4,4,4,,4qq8[2:1]/5,,4,5,
{16}5,,,7,7,,,6,6,,,5/6,5pp1[2:1]/6,,5,,
{16}4,,,2,2,,,3,3,,,3/4,3/4qq8[2:1],,4,,
{16}5,,,7,7,,,6,6,,,5/6,5pp1[2:1]/6,,5,,
{16}4,,,2,2,,,4,4,,,3,3,,4/5,,
{16}6h[16:3],,5,5,,7/8,,1/2,,3/4,,6,5,,4/7,,
{16}3h[16:3],,4,4,,1/2,,7/8,,5/6,,3,4>1[8:1],,4,,
{8}5<8[8:1],5,1,1,4,4,2pp2[8:3]/6pp6[8:3],2/6,
{12},,,,,,1/8,1/8,1/8,2/7,2/7,2/7,
{16}3b/6b,,,,5,4,,4,6h[4:1],,,,1pp1[4:1],,8,,
{16}7,,,5,5,,3,,5/6qq7[8:3],,7,5,6,4,,,
{16}8,,,,4,5,,5,3s7[4:1],,3,,7s3[4:1],,7,,
{16}3,,,4,,,5,,5/6qq7[8:3],,7,5,6,4,,,
{16}8,,,,4,5,,5,3,,,,2<7[4:1]/6q3[4:1],,2/6,,
{16},,,,,,,,3pp2[8:3]/4,,2,4,3,5,,,
{16}1,,,,5,4,,4,6,,8,,8,,1,,
{48}3/7,,,3/7,,,3/7,,,,,,,,,,,,2/6,,,2/6,,,2/6,,,,,,,,,,,,,,,,,,1,,8,,1,,
{1}8,
{1},
{1},
{1},
E
