&title=Kattobi KEIKYU Rider
&wholebpm=220
&artist=Sampling Masters MEGA
&des=玉子豆腐
&shortid=849
&genre=オンゲキCHUNITHM
&cabinet=SD
&version=maimai FiNALE
&chartconverter=Neskol
&lv_2=7
&des_2=-
&lv_3=9
&des_3=-
&lv_4=13
&des_4=はっぴー
&lv_5=13+
&des_5=玉子豆腐
&des_6=
&inote_2=
(220){1},
{1},
{1},
{1},
{1}1-4[4:3],
{1},
{1}8-5[4:3],
{1},
{1}4-1[4:3],
{1},
{1}5-8[4:3],
{1},
{2}1,1,
{2}2,2,
{2}3,3,
{2}4,4/5,
{2}5,5,
{2}6,6,
{2}7,7,
{2}8,1/8,
{1}1h[2:1],
{2}2,2,
{1}3h[2:1],
{2}4,4/5,
{1}5h[2:1],
{2}6,6,
{1}7h[2:1],
{2}8,1/8,
{2}8,8,
{4}7,7,7,,
{2}6,6,
{4}5,5,4/5,,
{2}4,4,
{4}3,3,3,,
{2}2,2,
{4}1,1,1/8,,
{2}2,3,
{4}4,5,4/5,,
{2}6,7,
{4}8,1,1/8,,
{2}7,6,
{4}5,4,4/5,,
{2}3,2,
{4}1,8,1/8,,
{1}1h[1:1],
{1},
{1}2h[1:1],
{1},
{1}3h[1:1],
{1},
{1}4h[1:1],
{1},
{2}5,5,
{1}5/6,
{2}7,7,
{1}7/8,
{2}1,1,
{1}1/2,
{2}3,3,
{2}4/5,3/6,
{4}3,4,3/4,,
{4}6,5,5/6,,
{4}3,4,3/4,,
{4}6,5,5/6,,
{4}7,8,7/8,,
{4}2,1,1/2,,
{4}7,8,7/8,,
{4}2,1,1/2,,
{1}7h[2:1]/8h[2:1],
{2}7/8,1/8,
{1}1h[2:1]/2h[2:1],
{2}1/2,1/2,
{1}3h[2:1]/4h[2:1],
{2}3/4,4/5,
{1}5h[2:1]/6h[2:1],
{2}5/6,5/6,
{1}5-8[4:3],
{1},
{1}4-1[4:3],
{1},
{1}1-4[4:3],
{1},
{1}8-5[4:3],
{1},
{1}5h[2:1],
{2}5,5/6,
{1}7h[2:1],
{2}7,7/8,
{1}1h[2:1],
{2}1,1/2,
{1}3h[2:1],
{2}3,3/4,
{2}5,5,
{4}6,6,6,,
{2}7,7,
{4}8,8,1/8,,
{2}1,1,
{4}2,2,2,,
{2}3,3,
{4}4,4,4/5,,
{1}5h[1:1],
{1},
{1}6h[1:1],
{1},
{1}7h[1:1],
{1},
{1}8h[1:1],
{1},
{2}1,1,
{1}1/2,
{2}3,3,
{1}3/4,
{2}5,5,
{1}5/6,
{2}7,7,
{2}1/8,2/7,
{4}7,8,7/8,,
{4}2,1,1/2,,
{4}7,8,7/8,,
{4}2,1,1/2,,
{4}3,4,3/4,,
{4}6,5,5/6,,
{4}3,4,3/4,,
{4}6,5,5/6,,
{1}4h[1:1]/5h[1:1],
{1},
{4}6,5,4/6,,
{4}3,4,3/5,,
{4}6,5,4/6,,
{4}3,4,3/5,,
{4}2,1,2/8,,
{4}7,8,1/7,,
{4}2,1,2/8,,
{4}7,8,1/7,,
{4}1b/8b,,,1b/8b,
{1}1b/8b,
{1},
{1},
{1},
E
&inote_3=
(220){1},
{1},
{1},
{1},
{2}3h[4:1]/4h[4:1],3/4,
{2}5h[4:1]/6h[4:1],5/6,
{2}3h[4:1]/4h[4:1],2/5,
{2}5h[4:1]/6h[4:1],4/7,
{2}1h[4:1]/2h[4:1],1/2,
{2}7h[4:1]/8h[4:1],7/8,
{2}1h[4:1]/8h[4:1],2/7,
{4}3/6,3/6,4/5,,
{2}3h[4:1]/4h[4:1],4h[4:1]/5h[4:1],
{4}5h[4:1]/6h[4:1],,7b,7b,
{2}5h[4:1]/6h[4:1],4h[4:1]/5h[4:1],
{4}3h[4:1]/4h[4:1],,2b,2b,
{4}3,3,4/5,,
{4}6,6,4/5,,
{4}3,3,4,4,
{4}5/6,5/6,4/7,,
{2}3h[4:1]/4h[4:1],3h[4:1]/4h[4:1],
{4}3/4,3/4,2/5,,
{2}5h[4:1]/6h[4:1],5h[4:1]/6h[4:1],
{4}5/6,5/6,4/7,,
{2}1h[4:1]/8h[4:1],2h[4:1]/7h[4:1],
{2}3h[4:1]/6h[4:1],4/5,
{4}6,5/6,3,3/4,
{4}5,5,3b/7b,,
{4}7,7,6,6,
{4}5,4,3/5,,
{4}2,2,3,3,
{4}4,5,4/6,,
{4}7,7,6,6,
{4}5,4/5,3/6,,
{4}6,5,3,4-8[8:5],
{1},
{4}7,7,8,8,
{4}1,2,1/2,,
{4}2,2,1,1,
{4}8,7,7/8,,
{4}1,1,8,8,
{4}7,7-4[8:3],,,
{4}3,3,1/2,1/2,
{4}8,8,5/7,5b/7b,
{1}4V28[1:1],
{4},,7,7v5[8:7],
{1},
{4},,3,3v1[8:7],
{1},
{4},,8,8V64[1:1],
{1},
{2},3/6,
{4}2h[4:1]/4h[4:1],,2/4,3,
{4}4/5,4/5,4/5,,
{4}5h[4:1]/7h[4:1],,5/7,6,
{4}4/5,4/5,4/5,,
{2}2h[4:1]/4h[4:1],5h[4:1]/7h[4:1],
{2}4h[4:1]/5h[4:1],3V14[8:7]/6V85[8:7],
{1},
{4}4/5,4/5,3b/6b,,
{4}2,3/4,7,5/6,
{4}4/5,3,4/5,6,
{4}3,1/2,6,7<5[2:1]/8p4[2:1],
{1},
{4}6,7/8,3,1/2,
{4}1/8,7,1/8,2,
{4}7,5/6,2,3>1[2:1]/4p8[2:1],
{1},
{4}6h[2:1],5,5,,
{4}3h[2:1],4,4,,
{4}4h[4:1]/5h[4:1],,4/5,4/5,
{4}6b,3b,6b,3b,
{4}6h[2:1],4,5,,
{4}3h[2:1],5,4,,
{4}5/7,6,2/4,3,
{4}5,4/6,3/7,,
{4}7h[2:1],1,8,,
{4}2h[2:1],8,1,,
{2}3h[4:1]/4h[4:1],5h[4:1]/6h[4:1],
{4}3/4,2/5,1/6,,
{2}1h[4:1]/8h[4:1],2h[4:1]/7h[4:1],
{2}3h[4:1]/6h[4:1],4/5,
{4}6,5/7,3,2/4,
{4}5/6,5/6,3b/8b,,
{4}1,2,3/4,3/4,
{4}5,6,4/7,,
{4}8,7,5/6,5/6,
{4}4,3,2/5,,
{4}4,3,1/2,1/2,
{4}8,7,1/6,,
{4}5/7,6,2/4,3>8[8:5],
{1},
{4}5/7,5/7,4,3,
{4}2/4,2/4,1/8,,
{4}2/4,2/4,5,6,
{4}5/7,5/7,1/8,,
{4}5/6,7,3/4,2,
{4}5/6,7-2[8:3],,,
{4}3,3,3/4,2/5,
{4}6,6,5/6,4b/7b,
{1}3>6[4:5],
{1},
{1}5q4[4:5],
{1},
{1}2>7[4:5],
{1},
{2}1h[4:1]/8h[4:1],1h[4:1]/8h[4:1],
{2}2h[4:1]/7h[4:1],3h[4:1]/6h[4:1],
{1}4>7[4:5],
{1},
{1}6q5[4:5],
{1},
{1}4-8[8:9]/5-1[8:9],
{1},
{1}2h[2:1]/7h[2:1],
{2}4h[4:1]/5h[4:1],3b/6b,
{4}3,1/2,6,7/8,
{4}1/8,2,1/8,7,
{4}2,3/4,7,5q2[2:1]/6<1[2:1],
{1},
{4}2,3/4,7,5/6,
{4}3/4,2,5/6,7,
{4}3,1/2,6,7<4[2:1]/8p3[2:1],
{1},
{1}4>1[4:3]/5<8[4:3],
{2},2b/7b,
{4}2/4,1,5/7,8,
{4}2/4,4/5,5/7,8,
{4}4/7,6,2/5,3>8[2:1]/4p7[2:1],
{1},
{4}5/7,8,2/4,1,
{4}5/7,4/5,2/4,1,
{4}2/5,3,4/7,5q2[2:1]/6<1[2:1],
{1},
{4}3h[4:3]/4,,,5,
{1}1b/7b,
{1},
{1},
{1},
E
&inote_4=
(220){1},
{1},
{1},
{1},
{4}4/5,4/5,4h[8:3]/6h[4:3],,
{2},4,
{8}4/5,,4/5,,,3h[8:5]/6h[4:1],,,
{8},,,,5,5,,,
{4}4/5,4/5,3h[4:3]/5h[8:3],,
{2},4,
{8}4/5,,4/5,,,3h[4:1]/6h[8:5],,,
{2},4/5,
{4}8,7,6,5,
{4}3/4,2/3,1,1,
{4}1/8,2/3,4/5,6/7,
{4}1/8,2/7,1,1,
{1}2V85[2:1]/7h[4:7],
{4}3,3,2,2,
{4}5/6,4/5,3/4,4/5,
{4}5/6,4/5,3/4h[4:1],2,
{4}1,1>4[4:1]/8q5[4:1],,,
{4}8,1p4[4:1]/8<5[4:1],,,
{4}4/5,2/4,1/8,5/7,
{4}4/5,2/4,1/8,,
{4}4/8,1/5,2/6,3-6[2:1]/7-2[2:1],
{1},
{8}3,3h[8:1],5,5h[8:1],2,2h[8:1],6,6h[8:1],
{8}1,1h[8:1],7,7h[8:1],8,,1b,,
{8}5/6h[4:1],5,5,,3h[4:1]/4,4,4,,
{4}5/6,3/4,3/6,7,
{2}1-4[4:1]/8,5-8[4:1],
{8}1>4[4:1],1,,,5<8[4:1],5,,,
{8}1,1,2/4,,1,1,2/4,,
{8}8,8,5/7,,8,8,5/7,,
{8}1,1,2/4,,8,8,5/7,,
{4}8,4w8[4:1],,,
{8}8,8,4,4,6,6,2,2,
{8}4,4,1,1,5,2,7h[4:1],,
{8}1,1,5,5,3,3,7,7,
{8}5,5,8,8,4,7,2h[4:1],,
{8}8,8,4,4,6,6,2,2,
{8}4,4,1,1,5,5,5,5,
{8}2,2,6-8[8:1],,1,,1b,,
{8}7,7,3-1[8:1],,8,,8b,,
{8}7,7h[8:5],,,5,5h[8:1],,,
{4}4/5,3v8[4:1]/6-4[8:1],,,
{8}2,2h[8:5],,,4,4h[8:1],,,
{4}4/5,3-1[8:1]/6v4[4:1],,,
{8}7,7h[8:5],,,5,5h[8:1],,,
{1}4/5-7[4:1]*p4[2:1],
{4}3h[4:1]/4,4,5h[4:1]/6,6<3[2:1],
{2},6,
{8}7,7h[4:3],,,3,3h[4:1],,,
{4}3/7,3-6[4:1]/7-2[4:1],,,
{8}2,2h[4:3],,,6,6h[4:1],,,
{4}2/6,2-7[4:1]/6-3[4:1],,,
{8}7,7h[4:3],,,3,3h[4:1],,,
{4}3/7,3>8[4:1]/7<4[4:1],,,
{8}2,2h[4:3],,,6,6h[4:1],,,
{16}2/6,,,2/6,,,2/6,,3/7,,,,,,,,
{8}8,8h[8:1],7,7h[8:1],6,6h[8:1],5,,
{8}4/6,3,4/6,7,4/6,3,4/6,,
{8}1,1h[8:1],2,2h[8:1],3,3h[8:1],4,,
{8}3/5,6,3/5,2,3/5,6,3/5,,
{8}8,8h[8:1],7,7h[8:1],6,6h[8:1],5,,
{8}4/6,3,4/6,7,4/6,3,4/6,,
{8}1,1h[8:1],2,2h[8:1],3,3h[8:1],4,,
{6}4/5,3/6,2/7,3/6,2/7,1/8,
{2}1h[4:1]/8h[4:1],4h[4:1]/5h[4:1],
{4}1/8,1/8,4/5,4/5,
{4}4h[4:7]/7,7,2,2,
{4}7b,2b,7b,2b,
{1}2h[4:7]/7V14[2:1],
{4}5,6,7,7,
{4}3/4,4/5,5/6,4/5,
{4}3/4,4/5,5h[4:1]/6,8,
{4}8b,7b,6b,5b,
{1}4>1[2:1],
{4}4/5,5/7,1/8,2/4,
{4}4/5,5/7,1/8,,
{4}1/5,4/8,3/7,2-7[2:1]/6-3[2:1],
{1},
{2}6<1[4:1],5q2[4:1],
{4}4w8[4:1],,,1b,
{8}3h[4:1]/4,4,4,,5/6h[4:1],5,5,,
{8}3/4,,5/6,,3/6,2,2,,
{2}1/8-5[4:1],4-1[4:1],
{8}8<5[4:1],8,,,4>1[4:1],4,,,
{8}8,8,5/7,8,8,8,5/7,,
{8}1,1,2/4,1,1,1,2/4,,
{8}8,8,5/7,8,1,1,2/4,1,
{4}8,5w1[4:1],,,
{8}1,1,5,5,3,3,7,7,
{8}5,5,8,8,4,7,1h[4:1],,
{8}8,8,4,4,6,6,2,2,
{8}4,4,1,1,5,2,8h[4:1],,
{8}1,1,5,5,3,3,7,7,
{8}5,5,8,8,4,4,4,4,
{8}7,7,3-1[8:1],,6,,8b,,
{8}2,2,6-8[8:1],,3,,1b,,
{8}7,7h[2:1],,,5,5h[8:3],,,
{8}4h[8:3],,,3,,2/3,,1/2,
{8},,3h[4:1]/5h[4:1],,,4h[4:1]/6h[4:1],,,
{8}3h[4:1]/5h[4:1],,,4/6,6,3,3/5,,
{8}2,2h[2:1],,,4,4h[8:3],,,
{8}5h[8:3],,,6,,6/7,,7/8,
{8},,4h[4:1]/6h[4:1],,,3h[4:1]/5h[4:1],,,
{6}4/6,4/6,4/6,3/5,3/5,3/5,
{8}6,6h[2:1],,,8,8h[8:3],,,
{8}1h[8:3],,,2,,2/3,,3/4,
{8},,2h[4:1]/8h[4:1],,,1h[4:1]/7h[4:1],,,
{8}2h[4:1]/8h[4:1],,,1/7,7,2,2/8,,
{8}3,3h[2:1],,,1b,1h[8:3],,,
{8}8h[8:3],,,7,,5/6,,3-6[8:5]/7-2[8:5],
{1},
{16}1/8,,,2/7,,,3/6,,3/6,,,,,,,,
{8}1,1h[8:1],2,2h[8:1],3,3h[8:1],4,,
{8}3/5,6,3/5,2,3/5,6,3/5,,
{8}8,8h[8:1],7,7h[8:1],6,6h[8:1],5,,
{8}4/6,3,4/6,7,4/6,3,4/6,,
{8}1,1h[8:1],2,2h[8:1],3,3h[8:1],4,,
{8}3/5,6,3/5,2,3/5,6,3/5,,
{8}8,8h[8:1],7,7h[8:1],6,6h[8:1],5,,
{8}4/7,4h[8:1]/7h[8:1],,,2/5,2h[8:1]/5h[8:1],,,
{1}4-1[4:3]/5-8[4:3],
{4},1,1/8,2/7,
{8}5,5h[8:1],6,6h[8:1],7,7h[8:1],8,,
{8}1/7,2,1/7,6,1/7,2,1/7,,
{8}4,4h[8:1],3,3h[8:1],2,2h[8:1],1,,
{8}2/8,7,2/8,3,2/8,7,2/8,,
{8}5,5h[8:1],6,6h[8:1],7,7h[8:1],8,,
{8}1/7,2,1/7,6,1/7,2,1/7,,
{8}4,4h[8:1],3,3h[8:1],2,2h[8:1],1,,
{6}1/8,2/7,3/6,2/7,3/6,4/5,
{4}4/5h[4:3],,,8b,
{1}4b/5b,
{1},
{1},
{1},
E
&inote_5=
(220){1},
{1},
{16},,,,,1w5[16:11],,,,,,,,,,,
{8},,,,5/7,6,,6,
{8}5h[8:1]/6h[8:1],,5h[8:1]/6h[8:1],,5/6,,,1h[4:1]/2h[4:1],
{4},2z6[8:3]/3,,,
{8}7h[8:1]/8h[8:1],,7h[8:1]/8h[8:1],,,1/6,,1h[4:1]/2h[4:1],
{4},1s5[8:3]/8h[4:1],,,
{8}3h[8:1]/4h[8:1],,3h[8:1]/4h[8:1],,3/4,,,7h[4:1]/8h[4:1],
{4},6/7s3[8:3],,,
{8}1h[8:1]/2h[8:1],,1h[8:1]/2h[8:1],,,3/8,,7h[4:1]/8h[4:1],
{12},,,1h[4:1]/8,,,8,,1/7,,2/6,,
{4}3/5h[4:1],7,4h[4:1],2,
{4}5-8[8:1],4-1[8:1],7,7b,
{4}4h[4:1],2,5h[4:1],7,
{4}4>1[8:1],5<8[8:1],2,2b,
{4}8h[4:1],6,4-6[8:1]/6-4[8:1],,
{4}7-4[8:1],8-4[8:1],1-4[8:1],2,
{4}6h[4:1],7h[4:1],8h[4:1],1,
{8}2,1,8,7,6,,1b,,
{4}2/4-7[8:1],3>7[4:1],6,,
{4}5-2[8:1]/7,6<2[4:1],3,,
{8}1b,2b,3b>8[4:1],4b,5b,,,,
{8}1b,2b,3b-8[8:1],4b,5b,,,,
{4}7,8p3[4:1],1,2,
{1}3-6[8:3]/7-2[8:3],
{4}8-5[8:1],1-5[8:1],2-5[8:1],3,
{4}2-6[4:1]/8-4[4:1],,,1b/3b,
{4}3-7[8:1],6-2[8:1],3h[4:1],1,
{4}8-4[8:1],4,2h[4:1]/6h[4:1],,
{4}7-3[8:1],2,1-4[8:1]/8-5[8:1],,
{4}3<6[8:1],7,1b/8b,,
{4}1-5[8:1]/2-4[8:1],,7-5[8:1],8-4[8:1],
{4}6-2[8:1],1,1-5[8:1]/4-7[8:1],,
{4}6-3[8:1],3-6[4:1]*p7[4:1],,,
{1}3qq5[2:1]/6pp4[2:1],
{4}6/8-3[8:1],4,4/5-8[8:1],1,
{8}2qq7[8:3]/3,,4,,5,,1/6,2,
{4}3/8-3[8:1],4,4/5,2-7[16:3]/3-6[16:3],
{8},,,,2/8,7,6/8,1,
{4}2-4[8:1]/8-6[8:1],,3h[8:1]/7h[8:1],2p6[16:3]/3-6[16:3],
{16},,,,,,,,7,8,7,8,7,8,7,8,
{4}7-4[8:1],1,3<6[8:1],7,
{4}8-3[8:1],4,5/6,3b/8b,
{8}6,6h[4:1],,5,5,,3h[4:1]/5,,
{4}4,2/5,3h[4:1]/4,2,
{8}3,3h[4:1],,4,4,,4/6h[4:1],,
{4}5,4/7,5/6h[4:1],7,
{4}2h[4:1],3>8[4:1],4,,
{4}7h[4:1],6<1[4:1],5,,
{4}3h[4:1]/5,4,4/6h[4:1],5,
{6}3/4,3/4,3/4,5/6,5/6,5/6,
{2}4b-2[16:3]/7,4b-6[16:3],
{4}1,2p6[8:3]/3-6[8:3],,,
{2}8b-6[16:3],8b-2[16:3],
{1}5pp5[2:1]*qq5[2:1],
{2}4b-2[16:3],4b-6[16:3],
{4}3h[4:1],4h[4:1],5h[4:1],6<3[4:3],
{1},
{12}4/5,,4/5,,4/5,,4-1[8:1]/5,,,8,,,
{4}8V61[4:1],1V35[4:1],5V73[4:1],2,
{4}2V46[4:1],8,1,3b/7b,
{4}1V38[4:1],8V64[4:1],4V26[4:1],7,
{4}7-3[8:1],1,2-4[8:1]/8-6[8:1],,
{4}1V38[4:1],8V64[4:1],4V26[4:1],7,
{4}7V53[4:1],1,8,2b/6b,
{4}8V61[4:1],1V35[4:1],5V73[4:1],2,
{6}1,1/8,7/8,6,4/5,3/4,
{4}2h[4:1],4,7h[4:1],5,
{4}1h[8:1]/8h[8:1],1h[8:1]/8h[8:1],4h[8:1]/5h[8:1],4h[8:1]/5h[8:1],
{4}5,5/7,4,2-7[8:1]/4,
{4}6-3[8:1],2-7[8:1],6-3[8:1],2,
{4}1h[4:1],3,3-5[8:1]/5-3[8:1],,
{4}2-5[8:1],1-5[8:1],8-5[8:1],7,
{4}3h[4:1],2h[4:1],1h[4:1],8,
{8}7,8,1,2,3,,1b/8b,,
{8}1b,8b,2b,7b,3b,6b,4b,5b,
{4}3-6[8:1],7-2[8:1],3-6[8:1],7,
{8}8b,7b,6b<1[4:1],5b,4b,,,,
{8}8b,7b,6b-1[8:1],5b,4b,,,,
{4}7,8p3[4:1],1,2,
{1}3-6[8:3]/7-2[8:3],
{4}6>3[8:1],2-6[8:1],7>2[8:1],3,
{4}1-5[4:1]/7-3[4:1],,,6b/8b,
{4}6-2[8:1],3-7[8:1],6h[4:1],8,
{4}1-5[8:1],5,3h[4:1]/7h[4:1],,
{4}3-7[8:1],5-1[8:1],4-8[8:1],6-2[8:1],
{4}3<6[8:1],7,1b/8b,,
{4}7-5[8:1]/8-4[8:1],,2-4[8:1],1-5[8:1],
{4}3-7[8:1],8,5-2[8:1]/8-4[8:1],,
{4}3-6[8:1],6-3[4:1]*q2[4:1],,,
{1}3qq5[2:1]/6pp4[2:1],
{4}1<6[8:1]/3,5,4>1[8:1]/5,8,
{8}6/7pp2[8:3],,5,,4,,3/8,7,
{4}1<6[8:1]/6,5,4/5,6>3[16:3]/7>2[16:3],
{8},,,,1/7,2,1/3,8,
{4}1-3[8:1]/7-5[8:1],,2h[8:1]/6h[8:1],6-3[16:3]/7q3[16:3],
{16},,,,,,,,2,1,2,1,3,8,3,8,
{4}3<6[8:1],8,7>2[8:1],3,
{4}3-8[8:1],7,2/5,7b/8b,
{8}6,5/6,,3,4,2h[8:3]/5,,,
{8}1,,3/4,3/4,,2/5,,3/4,
{8}3h[4:1],,6,,4/7,5/6,,,
{8}7,5/7,,5,5/6,,4/7,,
{8}3,3/4,,6,5,4/7h[8:3],,,
{8}8,,5/6,5/6,,4/7,,5/6,
{8}6h[4:1],,3,,2/5,3/4,,,
{6}5/6,5/6,5/6,3/4,3/4,3qq7[3:2]*V57[3:2]/4,
{1},
{8}7,,5/6,5/6,,4/7,,5/6,
{8}6h[4:1],,3,,3/6,4/5,,,
{8}3,3/5,,5,4/5,,3/6,,
{48}2,,,,,,2h[4:1],,,,,,,,,,,,8,,,,8,,,,,,1,,,,,,,,,,,2s6[48:29]/7z3[48:29],,,,,,,,,
{1},
{1}3-6[8:5]/7-2[8:5],
{12}4/5,,4/5,,4/5,,5-8[8:1],,,1,,,
{4}1V38[4:1],8V64[4:1],4V26[4:1],7,
{4}7V53[4:1],1,8,2b/6b,
{4}8V61[4:1],1V35[4:1],5V73[4:1],2,
{4}4-7[8:1],8,1-6[8:1]/2-5[8:1],,
{4}8V61[4:1],1V35[4:1],5V73[4:1],2,
{4}2V46[4:1],8,1,3b/7b,
{4}1V38[4:1],8V64[4:1],4V26[4:1],7,
{8}7,7h[4:1]/8h[4:1],,,1/6,1h[4:1]/6h[4:1],,,
{1}2>7[4:3]/5,
{4},1/8,1h[8:1]/8h[8:1],1/8,
{4}3V17[4:1]/5,7V53[4:1],3,7,
{4}1/6V48[8:3],4,1,2b/6b,
{4}4/6V82[4:1],2V46[4:1],6,2,
{4}6-3[8:1],3-6[4:1]*p7[4:1],,,
{4}6V82[4:1],2V46[4:1],6,2,
{4}3V51[8:3]/8,5,8,3b/7b,
{4}3V17[4:1]/5,7V53[4:1],3,7,
{6}6,4/5,3/4,2,1/8,7/8,
{4}1/6q3[4:1],,,4h[6:1]/5h[6:1],
{1}4b/5b,
{1},
{1},
{1},
E
