&title=FFT
&wholebpm=180
&artist=cybermiso
&des=safaTAmago
&shortid=820
&genre=maimai
&cabinet=SD
&version=maimai FiNALE
&chartconverter=Neskol
&lv_2=7
&des_2=-
&lv_3=9
&des_3=-
&lv_4=12+
&des_4=サファ太
&lv_5=14
&des_5=safaTAmago
&lv_6=14
&des_6=JAQ
&inote_2=
(180){1},
{1}1h[1:1],
{2},2,
{1}3h[1:1],
{2},4,
{1}5h[1:1],
{2},6,
{1}7h[1:1],
{2},8,
{1}8-4[4:3],
{2},2,
{1}2-5[4:3],
{2},7,
{1}7-4[4:3],
{2},1,
{1}1h[1:1]/8h[1:1],
{1},
{2}3,3,
{4}3/4,3/4,3/4,,
{2}5,5,
{4}5/6,5/6,5/6,,
{2}7,7,
{4}7/8,7/8,7/8,,
{2}1,1,
{4}1/2,1/2,1b/2b,,
{2}8,8,
{4}7/8,7/8,1/6,,
{2}6,6,
{4}4/5,4/5,3/6,,
{2}4,4,
{4}3/4,3/4,2/5,,
{2}2,2,
{4}1/8,1/8,2/7,,
{1}1-5[4:3],
{2},7,
{1}7-3[4:3],
{2},2,
{1}2-6[4:3],
{2},8,
{1}8-4[4:3],
{2},1/8,
{2}1,1,
{4}2,2,2,,
{2}3,3,
{4}4,5,4,,
{1}5h[2:1]/6h[2:1],
{1}5h[2:1]/6h[2:1],
{4}6,6,6,,
{4}7,7,7,,
{1}8<5[4:3],
{1},
{1}4>1[4:3],
{1},
{1}7>2[4:3],
{1},
{1}3<6[4:3],
{1},
{1}7h[1:1],
{2},6,
{1}5h[1:1],
{2},4,
{4}3,3,3,3,
{4}2,2,2,2,
{1}1h[4:3]/8h[4:3],
{1}2b/7b,
{4}1,1,1/8,,
{8}2,2,2,,1/2,,,,
{4}3,3,3/4,,
{8}4,4,4,,4/5,,,,
{4}6,6,5/6,,
{2}7/8,7/8,
{1}7-4[4:3]/8-3[4:3],
{1},
{4}8,8,1/8,,
{8}7,7,7,,7/8,,,,
{4}6,6,5/6,,
{8}5,5,5,,4/5,,,,
{4}3,3,3/4,,
{8}2,2,2,,1/2,,,,
{4}8,8,1,1,
{4}1/8,1/8,2b/7b,,
{4}1,1,2,2,
{8}3,3,3,,2/4,,,,
{4}5,5,6,6,
{8}7,7,7,,6/8,,,,
{4}8,8,7,7,
{4}6,6,5,5,
{4}4,4,3,3,
{4}2,2,1b/8b,,
{1}1h[2:1]/2h[2:1],
{1}3h[2:1]/4h[2:1],
{1}5h[2:1]/6h[2:1],
{1}7h[2:1]/8h[2:1],
{4}1,2,3,4,
{4}5,6,7,8,
{4}1h[2:1],,,1-4[1:1],
{1},
{1},
{1},
{1},
E
&inote_3=
(180){1},
{1}2h[1:1],
{1}3h[1:1],
{1}4h[1:1],
{1}5,
{1}7h[1:1],
{1}6h[1:1],
{1}5h[1:1],
{1}4b,
{2}3h[2:1],4h[2:1],
{2}5h[2:1],6,
{2}6h[2:1],5h[2:1],
{2}4h[2:1],3,
{2}5h[2:1]/6,7,
{2}3/4h[2:1],2,
{1}1>4[2:1]/8<5[2:1],
{4}4h[4:1]/5h[4:1],,4/5,3/6,
{4}3,4,5/6,5h[2:1]/6h[2:1],
{1},
{4}6,5,3/4,3h[2:1]/4h[2:1],
{1},
{4}2,3,4/6,4h[2:1]/6h[2:1],
{1},
{4}5,4,3,1h[4:1]/2h[4:1],
{4},1/8,1/8,1/8,
{4}7,8,1/7,1h[2:1]/7h[2:1],
{1},
{4}2,1,2/8,2h[2:1]/8h[2:1],
{1},
{4}6,7,1/8,2h[2:1]/7h[2:1],
{1},
{4}1,8,7,5h[4:1]/6h[4:1],
{4},4/5,3/6,,
{8}6,6,,3h[4:1]/4h[4:1],,,,5h[4:1]/6h[4:1],
{8},,,7,,1,1,,
{8}8,8,,5h[4:1]/7h[4:1],,,,2h[4:1]/4h[4:1],
{8},,,1,,1/8,1/8,,
{8}7,7,,1h[4:1]/2h[4:1],,,,7h[4:1]/8h[4:1],
{8},,,1,,8,8,,
{8}7,7,,5/6,,4/5,,3-7[2:1]/4-8[2:1],
{1},
{4}7,6-2[16:5],,,
{4}1,2-6[16:5],,,
{4}7,8-4[16:5],,,
{4}1,2,3/5,4/6,
{1}5-1[8:3]/7-3[8:3],
{1}2-6[8:3]/4-8[8:3],
{4}8,7,4/6,3/5,
{4}3,1/2,1/8,7/8,
{1}1b/6b,
{1},
{1},
{1},
{1}5/6,
{1}3/4,
{1}4-1[4:5]/5-8[4:5],
{1},
{2}1h[2:1],2h[2:1],
{2}3h[2:1],4,
{2}5h[2:1],6h[2:1],
{2}7h[2:1],8,
{4}7,8,1/6,,
{4}2,1,3/8,,
{1}1>4[2:1]/8<5[2:1],
{4}4h[4:1]/5h[4:1],,4/5,3/6,
{8}6,,7/8,7/8,,1/6,,7/8,
{8},6,6,,5,,4/6,,
{8}3,,1/2,1/2,,3/8,,1/2,
{8},3,3,,4,,3/5,,
{4}6h[4:1],8h[4:1],7,,
{4}8,7,6,5,
{1}4-1[2:1]*-7[2:1],
{4}7/8,1/6,2b/5b,,
{4}2,1/3,4/8,1/3,
{4}2,3/8,1/2,,
{4}7,1b/5b,2,4b/8b,
{4}8,7/8,1b/6b,,
{4}7/8,1/6,7,6/8,
{4}1/5,6/8,7,,
{8}1/2,,2/3,,3/4,,4/5,4/5,
{8},5/7,,2/4,,1/8,,,
{4}6,5/7,4/8,5/7,
{8}4/8,,1/3,1/3,,2,2,,
{4}7h[4:1],8,2h[4:1],1,
{8}8,8,1,1,,2b/7b,,,
{4}3/4,2/5,1/6,2/5,
{4}1/6,7/8,1/6,2/5,
{8}3,,4,,5,,6,6,
{8},5/7,,2/4,,1/8,,,
{8}8,8,,5h[4:1]/6h[4:1],,,,4h[4:1]/5h[4:1],
{8},,,2,,7,7,,
{8}1,1,,2h[4:1]/4h[4:1],,,,4h[4:1]/6h[4:1],
{8},,,8,,1/2,1/2,,
{8}7,7,,5h[4:1]/8h[4:1],,,,2h[4:1]/5h[4:1],
{8},,,3/4,,2/5,2/5,,
{8}1-5[8:3]/6,,,,,,,3b/7b,
{1},
{1},
{1},
E
&inote_4=
(180){1},
{8}4h[8:7]/5h[4:3],,,,,,,5h[8:9],
{1}4h[8:7],
{8}3h[4:3],4h[4:3],,,,,,3h[8:9],
{1}4h[8:7],
{8}6h[4:3],5h[4:3],,,,,,6h[8:9],
{1}5h[8:7],
{4}4q1[4:3],,,8q5[4:3],
{1},
{8}5h[8:3]/6h[4:3],,,,,5h[2:1],,,
{8}6h[2:1],,,5h[2:1],,,6h[8:5],,
{8}3h[4:3],,,,,4h[2:1],,,
{8}3h[2:1],,,4h[8:3],,,3,,
{4}5/6h[8:3],5,3h[8:3]/5,5,
{4}5/7h[8:3],5,3h[8:3]/5,5<4[4:3],
{1},
{4}1>4[8:1]/8<5[8:1],,3/6,1b/8b,
{8}4/5,,3h[4:1]/7h[2:1],,,3,3h[8:3],7h[4:1],
{4},1h[1:1]/5h[8:11],,,
{8},,,1,1h[4:1],,6,7,
{1}6-4[8:1]/8-2[8:1],
{8}4/5,6h[8:3],2h[2:1],,,6,6h[8:3],2h[4:1],
{4},4h[4:3]/8h[8:9],,,
{4},5h[8:3],6h[8:3],3-7[8:1],
{4},6b/8b,2b/4b,3b/7b,
{8}4/5,3h[8:3],7h[2:1],,,3,3h[8:3],7h[4:1],
{4},1h[1:1]/5h[8:11],,,
{8},,,1,1h[4:1],,5,6,
{1}6-4[8:1]/7-1[8:1],
{4}4h[8:3]/5,6h[8:3],2h[8:3],8h[8:3],
{1}1-4[8:1]*-6[8:1],
{8}6,6,1,1,8,8,3,3,
{4}2-5[8:1]/4-7[8:1],,1/8,2b/7b,
{8}3,3,4,2-5[8:1]/5,,,,7-3[8:1]*-5[8:1],
{8},,,4,,2/5,2/5,,
{8}8,8,1,2/7-4[8:1],,,,2-4[8:1]*-6[8:1],
{8},,,5,,3/7,3/7,,
{8}2,2,1,3-8[8:1]/8,,,,6-2[8:1]*-8[8:1],
{8},,,1,,2/7,2/7,,
{8}1,1>6[8:3],,6,,,,7h[8:1]/8h[8:1],
{8},1h[8:1]/6h[8:1],,2h[8:1]/5h[8:1],,3b/4b,,,
{2}3h[8:7]/6h[8:3],4h[8:3],
{2}2h[8:3]/6h[8:7],5h[8:3],
{8}3h[4:3]/7h[8:3],,,,4h[4:1],,,3h[8:11]/4z8[8:5],
{1},
{2}4h[4:3],5h[4:3],
{2}6h[4:3],5h[4:1],
{2}2h[4:1]/4h[4:3],5h[4:3],
{2}7h[4:3],6h[2:1],
{1}8b>6[4:11]*p6[4:11],
{1},
{1},
{1},
{8}4h[8:7]/5h[4:3],,,,,,,5h[1:1],
{8}4h[4:3],,,,,,,3h[1:1],
{8}4h[4:3],,,,,,,5h[1:1],
{1}4h[8:7],
{8}5h[8:3]/6h[4:3],,,,,5h[2:1],,,
{8}6h[2:1],,,5h[2:1],,,6h[8:5],,
{8}2h[4:3],,,,,4h[2:1],,,
{8}2h[2:1],,,4h[8:3],,,,,
{8}2,2,4,4,3,3,6,6,
{8}5,5,7,7,1,1h[8:3],8<1[4:3],8,
{1},
{4}4>1[8:1]/8<5[8:1],,3/7,1b/5b,
{8}2h[8:5]/4h[4:1],,,6h[4:3],,,2,2h[4:1],
{4},4h[8:3]/8h[8:7],,5h[4:3],
{8},,7h[4:1],,,3h[4:1]/5h[2:1],,,
{8},6h[8:1],5h[8:1],4h[8:1],3h[8:1],4h[8:3],5h[4:1],,
{8},2h[8:3],6h[4:3],,,2,2z6[4:3],,
{4},,,8>6[4:3],
{1},
{8}3h[2:1],,7h[2:1],,,3,3h[2:1],7,
{8}7h[4:3],,,4,5h[4:3],,,8,
{8}1h[8:7],,,4,3h[8:3],,,,
{8}5h[4:1]/7h[4:3],,,4,3h[8:5],,,8,
{4}1h[4:1],5-2[8:1]*-8[8:1],,,
{8}1/8,2h[2:1],6b,,,6h[8:5],2,2h[4:1],
{8},,4>6[8:3],8h[8:5],,,,,
{8},8,8h[2:1],4h[8:5],,,,1h[8:3],
{8},3h[8:3],,5h[8:5],,1h[8:3],,,
{8},,3h[2:1]/7b,,2,2,4h[2:1],,
{8}3,3,5h[4:3],,4,4,6h[8:3],,
{8},2h[2:1],8h[8:3],,,,1h[4:1]/7h[4:1],,
{8},2/6,3/5,4,,3b/7b,,,
{4}8-4[4:5],1,7,2,
{4}6,3,5,3/6,
{8}7,7,5,5,4,4,2,2>5[8:1]/6<1[8:1],
{8},,,2-6[8:1]/6,,8b,,,
{8}7,7,8,1-5[8:1]*>4[8:1]/6,,,,6-2[8:1]*<1[8:1],
{8},,,3/4,,2/5,2/5,,
{8}4,4,5,3-7[8:1]*>8[8:1]/6,,,,6-2[8:1]*>3[8:1],
{8},,,1/8,,2/7,2/7,,
{8}6,6,5,4/7-3[8:1]*<4[8:1],,,,2-6[8:1]*<7[8:1],
{8},,,4/5,,2/6,2V47[4:3]/6V83[4:3],,
{8},,,,,,,1b/5b,
{1},
{1},
{1},
E
&inote_5=
(180){1},
{8}2b/7b,,3,4,,4,5,4h[8:1],
{8}5,4,,6h[8:3],5h[4:1],,,,
{8}4/6,,6,5,,4,5,4h[8:1],
{8}5,4,,3h[8:3]/4,4h[4:1],,,,
{8}3/5,,3,4,,4,5,4h[8:1],
{8}5,,6,5,,4/5,4/5h[2:1],,
{96}3h[4:1],,,,,,,,,,,,,,,,,,,,,,,,,,,,,,,,,,,,,,,,,,,,,,,,,,,,,,,,,,,,,,,,,,,,,,,,4h[1:0],3h[1:0],,,,,,,,,,,,,,,,,,,,,,,
{16}6,5,6,,5,4,5,,3,4,3,,3,,3,,
{8}3h[4:1]/4,,4,3h[4:1],,5,3h[4:1],,
{8}6,2h[4:1],,7V15[4:1],1,,,,
{8}6h[4:1],,5,6h[4:1],,4,6h[4:1],,
{8}3,7h[4:1],,2V84[4:1],8,,,,
{8}3h[8:3]/7,7,6,6,1/5h[8:3],1,2,2,
{8}4/8h[8:3],4,3,3,2h[8:3]/5,5,6,6,
{1}3bV16[2:1]/7bV14[2:1],
{16}2>5[8:1]/8<5[8:1],,,,,,,,4,5,4,,2b/7b,,,,
{8}2-7[8:1]/6-3[8:1],,2/6,,1,2,3,3V51[4:1]/6,
{8}6-8[8:1],,,,2,3,4/7,,
{8}8-5[8:1],1,2,3,4-1[8:1],6,7,8,
{32}8-4[8:1],7,6,5,4,,,,,,,,,,,,6,,,,5,,,,4/7,,,,,,,,
{8}1-5[8:1]/5,,8,7,4/6,3,2,2V48[4:1]/5,
{8}5-7[8:1],,,,1,8,2/7V51[4:1],,
{8}1,2,3V15[4:1],3,5,6,7,8,
{4}4-2[8:1]/8-6[8:1],4-7[8:1]/8-3[8:1],4-8[8:1]/8-4[8:1],4/8,
{8}2-5[8:1]/5-1[8:1],,2/5,,8,7,6,3/6V84[4:1],
{8}3-1[8:1],,,,5,6,4/7,,
{8}1-5[8:1],8,7,6,5-1[8:1],6,7,8,
{32}8-4[8:1],7,6,5,4,,,,,,,,,,,,7,,,,6,,,,2/5,,,,,,,,
{8}4/8-4[8:1],,1,2,3/5,6,7,8,
{8}1-7[8:1]*v4[8:1]/4,,,,6,5,4/7V51[4:1],,
{8}1,2,3V15[4:1],3,5,6,7,8,
{8}4>1[8:1]/8<5[8:1],,4/8,,2/6,2/6,4b/8b,,
{8}7-5[8:1],2-8[8:1],7,2,,2-8[8:1]/7-4[8:1],8,,
{8},2-8[8:1]/7-3[8:1],8,,,4,2/5,,
{8}2-4[8:1],7-1[8:1],2,7,,2-5[8:1]/7-1[8:1],1,,
{8},2-6[8:1]/7-1[8:1],1,,,5,3/7,,
{8}7-5[8:1],2-8[8:1],7,2,,2-8[8:1]/7-4[8:1],4/8,,
{8},2-8[8:1]/7-3[8:1],3/8,,,4,2/6,,
{8}7>2[16:3],1>4[16:3],3<6[16:3],5<8[16:3],,,,1<5[8:1]*>5[8:1],
{8},1w5[8:1],,1,,2b/8b,,,
{8}8-4[8:1],4V68[4:1],8,2,2,3,4/7,,
{8}1-5[8:1],5V31[4:1],1,7,7,6,2/5,,
{24}7-3[8:1],,,3V51[4:1],,,7,,,2,,,3,,,4,,,4/8,3/7,2/6,1/5,,,
{8},2V46[4:1],4,6V82[4:1],8-4[8:1],8,,,
{24}3,,,4,,,2h[4:1]/5,,,,,,1,8,7h[24:7],,,,,,,8,1,2h[24:7],
{24},,,,,,1,3/8,4/7h[6:1],,,,8,1/6,2/5,,,,4b/8b,,,,,,
{8}7-3[8:1],3V57[4:1],7,2,2,1,1-4[8:1]/8,,
{8}1-6[8:1],8,1-5[8:1],2,1w5[8:1],,,,
{1}3b>3[4:13]/7b<7[4:13],
{1},
{1},
{1},
{8}6h[16:3],,,6h[16:3],,,6h[8:1],,
{8}4h[16:3],,,4h[16:3],,,4h[8:1],,
{8}2h[16:3],,,2h[16:3],,,2h[8:1],,
{8}4h[16:3],,,4h[16:3]/5h[16:3],,,4h[8:1],,
{8}6h[4:1],,5,6h[4:1],,3,6h[4:1],,
{8}5,6h[4:1],,8-6[8:1],6-2[8:1]*-4[8:1],,,,
{8}3h[4:1],,4,3h[4:1],,6,3h[4:1],,
{8}4,3h[4:1],,1V37[4:1],3-5[8:1],,,,
{8}2/6h[8:1],2,1h[8:1]/5,5,4/8,4/8,1/5,1/5,
{16}2/6h[8:1],,2,,3h[8:1]/7,,7,,4/8,7,6,5,4qq1[4:3]/8qq5[4:3],1,2,3,
{1},
{4}1-5[8:1]/5-1[8:1],1w5[8:1]/5,,3b/7b,
{8}6-4[8:1],4V68[4:1],6,1,2,2-6[8:1],,2>5[8:1]/6,
{24},,,1/2,8,7,6,,,,,,1/8,,,1/8,,,2/7-5[8:1],,,,,,
{8}7-3[8:1],2,7,2-6[8:1],6,2-4[8:1]*-8[8:1],,,
{8},4h[4:1]/7,6,5,4/5h[4:1],3,2>7[4:1],,
{8}7<2[6:1],,2,,1-5[8:1],8,1/7,,
{16}4/6,3,2,1,7/8,6,5,4,1,2,3,4,1pp5[4:3]/5pp1[4:3],8,7,6,
{1},
{8}2-5[8:1]/7-4[8:1],,2-8[8:1]/7,,2-4[8:1],6-2[8:1],2,6,
{4}1w5[8:1],1b,2v4[8:1]/8-4[8:1],2v5[8:1]/8v5[8:1],
{16}2-6[8:1]/8v6[8:1],,,,2/8,,,,5,4,3,2,5-1[8:1],6,7,8,
{16}1/5,,,,2b/6b-2[8:1],3,4,5,6/8,,,,3b/8b,7,6,5,
{4}1-5[8:1]/4,1V74[16:5]/5V38[16:5],,,
{24}1/7,2/6,3/5,4,,,1b/7bV51[4:1],,,,,,1-5[8:1],,,2,,,2V48[4:1],,,2,,,
{8}8-4[8:1],7,6,5,5w1[8:1],,,,
{8}3h[4:1]/7,6,5h[4:1],2,1,1-3[8:1]/5-7[8:1],,1-6[8:1]/5-2[8:1],
{8},1-5[8:1]/5-1[8:1],,1/5,,3b/7b,,,
{8}2-5[8:1]/6-1[8:1],,2b/6b,,8-4[8:1],4<7[8:1],8,3,
{8}3,2>5[8:1]/5-1[8:1],1/4,,,3/7,3/7,,
{8}8-4[8:1],4-8[8:1],8b,1,2-6[8:1],6-2[8:1],2b,8,
{8}7,2v4[8:1]/6v8[8:1],1/5,,,2b/6b,,,
{32}1/8,2/7,3/6,4/5,,,,,2-8[8:1]/7,,,,,,,,2/6-2[8:1],,,,,,,,4-6[8:1]/6,,,,,,,,
{4}4/8-4[8:1],1w5[8:1]/8,1,3/7,
{8}5h[8:1]/6,7,1/8h[8:1],2,3/4h[8:1],2,1,1/7>1[8:1],
{8},4w8[8:1]/7,,4,,2b/6b,,,
{8}5-8[8:1],2-5[8:1],5,2,,4-8[8:1]/7-4[8:1],5/8,4/7,
{8},1-5[8:1]/5,4/8,1/5V73[4:1],,4,4,,
{8}4-1[8:1],7-4[8:1],4,7,,2-5[8:1]/5-1[8:1],1/4,2/5,
{8},4-8[8:1]/8-4[8:1],1/5,4V26[4:1]/8V62[4:1],,,,,
{8}8-5[8:1],3-8[8:1],8,3,,1-5[8:1]/6-1[8:1],5/8,1/6,
{8},4-8[8:1]/8-4[8:1],1/5,4/8,,2h[1:0]/6pp3[8:7],2pp7[4:3]/6h[1:0],,
{8},,,,,,,1b/5b,
{1},
{1},
{1},
E
&inote_6=
(180){1},
{1}3h[8:7]/7bqq4[4:5],
{4}3h[4:3],,,8,
{1}2pp5[4:5]/6h[8:7],
{4}6h[4:3],,,1,
{1}5>2[2:1]/7h[8:7],
{1}2h[1:1]/4<7[2:1],
{4}7-3[8:3],,,1-5[8:7]/8,
{16}8,7,6,,2,3,4,,8,7,6,,,,,,
{8}4/6h[4:1],,4,4/6h[4:1],,4,4/7h[4:1],,
{8},4/7h[4:1],4,,8,4,4/8,4,
{8}3h[4:1]/5,,5,3h[4:1]/5,,5,2h[4:1]/5,,
{8},2h[4:1]/5,5,,1,5,1/5,5,
{4}4/6,1>4[4:1],4<7[4:1],7>2[4:1],
{4}2>5[4:1],5<8[4:1],8>3[4:1],3<1[32:15],
{32}6h[1:1],,,,,,,,,,,,,,,,2,3,4,5,,7,8,1,2z6[4:1],3,4,5,,7,8,1,
{2},8s4[8:1]*z4[8:1],
{8}2-6[8:1]/6-2[8:1],,,,3/7,1>6[4:1],2/8,1h[8:3],
{8},,8,,6,5,4/7,,
{16}2/5,,3,3,4,,1,,5/6,,8,,3/4,,1h[8:3]/8,,
{32}2,3,4,5,6,,,,8,,,,,,,,6,,,,5,,,,4/7,,,,,,,,
{8}2/5,1,2/5,8,2/5,7,2/5,6,
{8}2>5[8:1]/5<8[8:1],,2/5,,3,4,2/5,,
{8}4/7<4[8:1],3,4/7,,4/7<4[8:1],8,4/7,,
{4}4>1[8:1]/7<4[8:1],4-8[8:1]/7,1>4[8:1]/4<7[8:1],1/4,
{8}8w4[8:1],,,,2/6,8<3[4:1],1/7,8h[8:3],
{8},,1,,3,4,2/5,,
{16}4/7,,6,6,5,,8,,3/4,,1,,5/6,,1/8h[8:3],,
{32}7,6,5,4,3,,,,1,,,,,,,,3,,,,4,,,,2/5,,,,,,,,
{8}4/7<4[8:1],,7>2[8:1],3,7,,3/4,2>5[8:1],
{8}5>7[4:1],2<7[8:1],,,6,5,4/7,,
{8}2-5[8:1]/5,1,2/5,6,4/7-4[8:1],8,4/7,3,
{8}2>5[8:1]/5<8[8:1],,2/5,,1w5[8:1],1,1b,,
{8}3/7,2>5[8:1],1,2/8h[4:1],,1>4[8:1],8,1/7h[4:1],
{8},8>3[8:1],7,6h[4:1]/8,,5,4/7,,
{8}2/6,7<4[8:1],8,1h[4:1]/7,,8<5[8:1],1,2h[4:1]/8,
{8},1<6[8:1],2,1/3h[4:1],,4,2/5,,
{8}4/7,8<5[8:1],1,2h[4:1]/8,,1>4[8:1],8,1/7h[4:1],
{8},8-4[8:1],1,2h[4:1]/8,,7,2/7,,
{8}8-4[8:1],1-5[8:1],8,1,6,3-8[8:1]/7-4[8:1],,3/7,
{8},4/8,1/5,2-5[8:1]/6-1[8:1],,2/6,,,
{8}8h[8:1],4,7h[8:1],3,6h[8:1],2,5h[8:1],1h[8:1],
{8}4h[8:1],8,3h[8:1],7,2h[8:1],6,1h[8:1],5h[8:1],
{24}8-4[8:1],,,4-8[8:1],,,,,,1,,,1>4[8:1],,,,,,8,7,6,5,,,
{8},8v5[8:1],1-3[8:1],8-6[8:1],1v4[8:1],8,1,,
{32}2-4[8:1]/6-8[8:1],,,,1/5,,,,,,,,,,,,3/7,2/6,1/5<8[16:3],,,,,,,,,,1,2,3,4>1[8:1],
{32},,,,,,,,8,7,6,5,,,,,3-5[8:1]/7-1[8:1],,,,1/5,,,,,,,,,,,,
{8}4/8,7,1/6,2,3/7,6,2/5,3,
{32}4>1[8:1]/8<5[8:1],,,,,,,,4/8,,,,,,,,1,2,3,4,5,6,7,8,1-4[8:1]/5q7[2:7],,,,,,,,
{1}1bq3[4:13]/5b,
{1},
{1},
{1},
{1}5h[4:7]/7h[4:3],
{1}4h[16:19],
{8}2h[16:3],,,3h[16:3]/5h[16:3],,,4/6,,
{8}5h[16:3]/7h[16:3],,,4h[16:3]/6h[16:3],,,3/5,,
{8}2h[4:1]/4,,4,2h[4:1]/5,,5,2h[4:1]/6,,
{8}6,2h[4:1]/7,,7,4h[4:1]/5h[4:1],,,,
{8}5/7h[4:1],,5,7h[4:1],4,,4/7h[4:1],,
{24}3,,,7h[4:1],,,3,,,,,,2/7,,,,,,4,5,4,5,4,5,
{8}4,4,5,5,4/6,4,3/5,5,
{16}4/7,,4/7,,2/5,,2/5,,4,5,3,6,2,7,1,8,
{48}2,,,1,,,3,,,8,,,4,,,7,,,5,,,6,,,3,,,4,,,2,,,5,,,1>8[8:3],,6,,8,,7,,8,,7,,
{2}1b,5w1[8:1],
{8}3/7,,2/4,3,5/7,6>8[24:5],,2h[8:3]/6,
{24},,,7,6,5,4,,,,,,8-4[8:1],,,1/7,,,8,,,,,,
{16}2/6,,,,5/7,6,5/7,,2/4,3,2-6[8:1]/4-8[8:1],,,,2/4,,
{8},2-4[8:1],6-8[8:1],2-8[8:1],6-4[8:1],2,6,,
{4}3>1[8:1]/7<5[8:1],3<5[8:1]/7>1[8:1],3-7[8:1]/7-3[8:1],,
{16}1/5,2,3,4,1/5,6,7,8,1/5,4,3,2,1pp4[4:3]/5pp8[4:3],4/8,3/7,2/6,
{1},
{8}2v5[8:1]/6v1[8:1],,,,7V53[8:1]/8V64[8:1],3V17[8:1]/4V28[8:1],,,
{16},,,,2b/5-3[8:1],,,5,1-5[8:1],,,1,7-1[8:1],,,7,
{16}3-7[8:1],,,3,6h[16:3],,,5,6,5,6,5,4,5,4,3,
{16}4,3,4,,1h[16:3]/2-5[8:1],,,2,1,,6,,7-4[8:1]/8h[16:3],,,7,
{48}8,,,,,,3,,,,,,2/5,,,,,,6,,,,,,4/7,,,,,,3,,8,,1h[48:11],,2>7[4:1],,,,,,,,,2,,,
{16}1,,,,8b,,,4/5,,,,1-6[8:1]/8-3[8:1],2/7,,1/8,,
{8},4-8[8:1]/5-1[8:1],2/7,4/5,,2/7,2b/7b,,
{8}1/5,1/5,2/6,3/7,4/8,4-2[8:1]/8-6[8:1],1/5,4-7[8:1]/8-3[8:1],
{8},4-8[8:1]/8-4[8:1],,4/8,,2b/6b,,,
{32}1-5[8:1]/5-1[8:1],2/6,3/7,4/8,,,,,1b/5b,,,,,,,,3/7,,,,2,,1,,2,,,,7,,8,,
{8}7,1>4[8:1]/6,7,1/8,,5/6,4/7,,
{16}2/5,,3,4,2,,6,5,7,,3,4,1,,6,5,
{8}8>8[2:1],2>8[8:3],4<8[4:1],6<8[8:1],,1b,,,
{48}1-5[8:1]/8-4[8:1],,2/7,,3/6,,4/5,,,,,,1b/8b,,,,,,,,,,,,3/6,,,,,,7,,,8,,,7,,,,,,2,,,1,,,
{16}2,,6,5,6,,3,4,3,5,4,6,5,7,4,8,
{16}3,7,2,6,1,5,8,4,3/7,4/8,1/5,2/6,3/7,4/8,1-5[8:1]/5-1[8:1],,
{8},1>5[16:3]/5<1[16:3],,1V75[4:1]/5V31[4:1],,,,,
{8}3-8[8:1]/7-4[8:1],4<7[8:1]/8>3[8:1],,,,3-5[8:1]/6-2[8:1],2/5,,
{8},2-6[8:1]/7-1[8:1],1/6,,,4/8,4/8,,
{8}2-5[8:1]/6-1[8:1],1<6[8:1]/5>2[8:1],,,,3-7[8:1]/6-4[8:1],4/7,,
{8},2-8[8:1]/7-3[8:1],3/8,,,1/5,1/5,,
{8}4v1[8:1]/8v5[8:1],1>4[8:1]/5<8[8:1],,,,3v1[8:1]/7v5[8:1],2/6,,
{8},2v8[8:1]/6v4[8:1],3/7,,,1/5,1/5,,
{24}2,3,4,7,6,5,1,2,3,8,7,6,4/5,3,2,1>4[8:1]/8<5[8:1],,,2/7,,,1b/8b,,,
{1},
{1},
{1},
E
