&title=End Time
&wholebpm=180
&artist=Cres.
&des=チャン@DP皆伝
&shortid=844
&genre=ゲームバラエティ
&cabinet=SD
&version=maimai FiNALE
&chartconverter=Neskol
&lv_2=5
&des_2=-
&lv_3=9
&des_3=-
&lv_4=12+
&des_4=Jack
&lv_5=14+
&des_5=チャン@DP皆伝
&des_6=
&inote_2=
(180){1},
{1},
{1},
{1},
{1},
{1},
{1},
{1},
{1},
{1},
{2}1,1,
{2}2,2,
{2}3,3,
{2}4,4/5,
{2}5,5,
{2}6,6,
{2}7,7,
{2}8,1/8,
{4}8,8,8,,
{4}7,7,7,,
{4}6,6,6,,
{4}5,5,4/5,,
{4}4,4,4,,
{4}3,3,3,,
{4}2,2,2,,
{4}1,1,1,,
{1}8-5[4:3],
{1},
{1}1-4[4:3],
{1},
{1}7-4[4:3],
{1},
{1}2-5[4:3],
{1},
{1}8,
{1}8,
{1}6,
{1}6,
{1}4,
{1}4,
{1}2h[1:1],
{1},
{1}1/2,
{1}1/2,
{1}3/4,
{1}3/4,
{1}5/6,
{1}5/6,
{1}7/8,
{1}7/8,
{2}1,1,
{2}2,2,
{2}3,3,
{2}4/5,4/5,
{2}5,5,
{2}6,6,
{2}7,7,
{1}1b/8b,
{2}8,8,
{2}7,7,
{2}6,6,
{4}5,4,5,,
{2}4,4,
{2}3,3,
{2}2,2,
{4}1,8,1,,
{2}2,3,
{2}4,5,
{2}6,7,
{2}1/8,1/8,
{2}7,6,
{2}5,4,
{2}3,2,
{2}1/8,1b/8b,
{4}2,2,2,,
{4}3,3,3,,
{4}4,4,4,,
{4}5,4,5,,
{4}6,6,6,,
{4}7,7,7,,
{4}8,8,8,,
{4}1,8,1,,
{4}1,1,1,1,
{4}2,2,2,2,
{4}3,3,3,3,
{4}4,4,4,4,
{4}5,5,6,6,
{4}7,7,8,8,
{8}1,1,1,,8,8,8,,
{8}1,1,8,8,1,1,8,8,
{1}1b,
{1},
{1}2,
(160){2},(150),
(170){8}3,,,,(160),,,(145),
(140){16}4,,,,,,,,,,,,,,,(120),
{1}4/5,
{1},
{1},
{1},
E
&inote_3=
(180){1},
{1}6h[1:1],
{2}5,4,
{1}3h[1:1],
{2}4,3,
{1}3h[1:1],
{2}4,5,
{1}6h[2:3],
{2},5-1[8:7],
{1},
{4}8,7,6h[4:1],5,
{4}4,4,3/5,,
{4}1,2,3h[4:1],4,
{4}5,5,4/6,,
{4}8,7,6h[4:1],5,
{4}4,4,3/5,,
{4}4,3,2h[4:1],1,
{4}8,8,2b/7b,,
{4}5,6,7h[4:1],8,
{4}1,2,1/2,,
{4}4,3,2h[4:1],1,
{4}8,7,7/8,,
{4}5,6,7h[4:1],8,
{4}1,2,1/2,1/2,
{4}8,8,1,1,
{1}2h[2:1]/7h[2:1],
{1}3<6[4:3],
{2},7,
{1}7<4[4:3],
{2},3,
{1}2>5[4:3],
{2},6,
{1}7-3[4:3],
{1},
{2}3,4,
{2}5,6-1[4:3],
{1},
{1}2-5[4:3],
{2},6,
{2}7,8p5[8:13],
{1},
{1},
{4}3h[4:3],,4,4,
{4}6h[4:3],,5,5,
{4}3h[2:1],,4,5,
{4}6,6,5/7,,
{4}6h[4:3],,5,5,
{4}3h[4:3],,4,4,
{4}6h[2:1],,5,4,
{4}3,3,2/4,,
{4}3h[4:1],4,5h[4:1],4,
{4}3h[4:1],4,3/5,,
{4}6h[4:1],5,4h[4:1],5,
{4}6h[4:1],5,4/6,,
{4}3h[4:1],4,5h[4:1],4,
{4}3,2,1,8,
{4}8h[4:1],1,2h[4:1],1,
{4}8h[4:1],1,2b/7b,,
{4}3,2,1,7/8,
{4}7,6,5,3/4,
{4}2,3,4,5/6,
{4}7/8,1/6,2b/5b,,
{4}7,6,5,3/4,
{4}3,2,1,7/8,
{4}6,7,8,1/2,
{4}3/4,2/5,1b/6b,,
{4}2,3,4,5/6,
{4}6,7,8,1/2,
{4}3,2,1,7/8,
{4}5/6,4/7,3b/8b,,
{4}6,7,8,1/2,
{4}2,3,4,5/6,
{4}7,6,5,3/4,
{4}1/2,7/8,1b/6b,,
{4}2h[4:1],1,7h[4:1],8,
{8}6,6,5,,5/7,,,,
{4}7h[4:1],8,2h[4:1],1,
{8}3,3,4,,3/4,,1/2,,
{4}7h[4:1],8,6h[4:1],5,
{4}6,5/6,3/4,1/2,
{8}8,8,8,,1,1,1,,
{8}1/8,1/8,1/8,,2b/7b,,,,
{4}1/2,8,1/2,3,
{4}3/4,5/6,3/4,5/6,
{4}5/6,7,5/6,4,
{4}3/4,1/2,3/8,,
{4}7/8,1,7/8,6,
{4}5/6,3/4,5/6,3/4,
{4}3/4,2,3/4,5,
{4}5/6,7/8,1b/6b,,
{1}7<4[4:3],
{2},3,
{1}2>5[0.3333333333333428##1],
(160){2},(150)6,
(170){8}4h[1:1]/5h[2:3],,,,(160),,,(145),
(140){16},,,,,,,,,,,,,,,(120),
{1}3b/6b,
{1},
{1},
{1},
E
&inote_4=
(180){1},
{4}3,,,4,
{4}4,5,5,6,
{4}6,,,5,
{4}5,4,4,3,
{1}3<5[2:1],
{1}6>4[2:1],
{1}3pp6[2:5],
{1},
{1},
{8}4b/5h[4:1],,4,5,4,5,3,4,
{8}3h[4:1],,4,3,5,4,6,5,
{8}7h[4:1],,5,7,4,6,3,5,
{2}2>5[8:1],6<1[8:1],
{8}2h[8:3],,,4h[4:1],,3,4,3,
{8}5h[4:1],,4,5,4,6,5,6,
{8}7h[8:3],,,5h[4:1],,6,5,6,
{8}4,5,3,4,2,5,3,6,
{8}4<6[8:1],,7,,7,5,6,4,
{8}5>3[8:1],,2,,2,4,3,5,
{8}4<6[8:1],,7,,7,5,6,4,
{4}5<8[8:1],2,1>4[8:1],6,
{8}7,7,5,5,4,4,2,2,
{8}3/5,3,3,3,4/6,6,6,6,
{8}4,4,5,5,3,3,6,6,
{16}2,,2,,7,,7,,1,8,1,8,1,8,1,8,
{1}1b,
{1}2,
{1}3,
{2}4h[2:1],5h[2:1],
{1}6>4[2:1],
{2}5h[2:1],4h[2:1],
{1}3<5[2:1],
{1}4/5,
{2}6,3,
{2}5,4,
{1}3h[1:1],
{2}4,5,
{1}6h[1:1],
{1}5h[1:1],
{1}4h[1:1],
{1}3,
{8}3,3h[4:1],,4,2/5,,4,4,
{8}6,6h[4:1],,5,4/7,,5,5,
{8}4/6,4/6,,2/5,2/5,3,4,5,
{8}6-4[8:1],,3,,3,4,2/5,,
{8}6,6h[4:1],,5,4/7,,5,5,
{8}3,3h[4:1],,4,2/5,,4,4,
{8}3/5,3/5,,4/7,4/7,,2/6,2/6,
{8}3,3,5,5,3-5[8:1],,6,,
{8}4/7,4/7-4[8:1],,3,3,,3,4,
{8}2/5,2-5[8:1]/5,,6,6,,6,5,
{8}4/7,7,6,6,2/5,2,3,3,
{8}4/7<4[8:1],,3,,3,3,5,5,
{8}4/6,4/6,,2/5,2/5,,6,5,
{8}4/7,4/7,,2/6,2>5[8:1]/6,,7,,
{4}6-2[8:1],4,3-8[8:1],6,
{4}5-1[8:1],3,2,1b/5b,
{8}4/7,6,5,4,3h[4:1],,4,3,
{8}2/5,3,4,5,6h[4:1],,5,6,
{8}4/7,6,5,4,3/6,5,4,3,
{8}2/5,4,3,2,1>4[8:1]/4,,,,
{8}2/5,3,4,5,6h[4:1],,5,6,
{8}4/7,6,5,4,3h[4:1],,4,3,
{8}2/5,3,4,5,3/6,4,5,6,
{8}4/7,5,6,7,5/8<5[8:1],,,,
{16}3h[16:3],,,4h[16:3],,,5h[16:3],,,6h[16:3],,,8,,,,
{16}7h[16:3],,,5h[16:3],,,4h[16:3],,,2h[16:3],,,1,,,,
{16}3h[16:3],,,4,,,6h[16:3],,,5,,,4/5,,4/5,,
{8}3/6,3/6,2/7,2/7,1>4[8:1]/8<5[8:1],,,,
{16}3h[16:3]/6,,,4,,,2h[16:3]/5,,,3,,,1,,1,,
{16}3/6h[16:3],,,5,,,4/7h[16:3],,,6,,,8,,8,,
{16}2h[16:3]/5,,,3,,,4/7h[16:3],,,6,,,4/5,,4/5,,
{4}3-5[8:1]/6,7-1[8:1],2-6[8:1],8b,
{8}5/7,5/7,6,5,2/4,2/4,3,4,
{8}5,6,7,8,1<6[8:1]*>4[8:1],,,,
{8}5,5,3,3,7,7,1,1,
{8}2/5,2/5,3/6,3/6,4/7-3[8:1],,1,,
{16}2h[8:1]/4h[8:1],,,3h[8:1]/5h[8:1],,,4h[8:1]/6h[8:1],,,5h[8:1]/7h[8:1],,,8,,8,,
{16}5h[8:1]/7h[8:1],,,4h[8:1]/6h[8:1],,,3h[8:1]/5h[8:1],,,2h[8:1]/4h[8:1],,,1,,1,,
{8}8,7,6,5,1,2,3,4,
{8}5,4/6,3/7,2/8,1w5[8:1],,,,
{8}3h[8:5]/7h[8:5],,,,,,,2/5,
{8}2h[8:5]/5h[8:5],,,,,,,4/6,
{4}4/6,4h[2:1]/6h[2:1],,,
{8}5,,3h[8:3]/4h[8:3],,,,,4,
{8}3,3,5,5,4,4,6,6,
{8}3,3,7,7,2,2,8,8,
{8}1/2,1/2,3/4,3/4,5/6,5/6,7/8,7/8,
{16}1,8,1,8,1,8,1,8,2,7,2,7,2,7,2,7,
{4}1b,,,2,
{4}2,3,3,4,
{4}5,,,7,
(160){4}7<4[0.375##0.7750000000000057],,(150),3,
(170){8}3<5[0.3529411764705941##0.7279411764705799],,,,(160),,,(145),
(140){16}6,,,,,,,,5,,,,,,,(120),
{1}4,
{1},
{1},
{1},
E
&inote_5=
(180){1},
{4}2q5[2:1]/7,,,8,
{4}8,7,6,5,
{4}7p4[2:1],,,1,
{4}1,2,3,4,
{1}5-1[4:3],
{1}4-8[4:3],
{1}5w1[4:3],
{1},
{1},
{8},2,7,7,1-5[8:1],6,1,6,
{8},3,8,8,2-6[8:1],7,2,7,
{8},7,2,2,8-4[8:1],3,8,3,
{8},6,1,1,7-3[8:1],2,7,2,
{8},2,6,6,4-8[8:1],7,4,7,
{8},2,5,5,3-7[8:1],6,3,6,
{8},6,3,3,5-1[8:1],2,5,2,
{8},7,4,4,6-2[8:1],3,6,3,
{8},3,8,8,2-6[8:1],6-3[8:1],2,7,
{8},6,1,1,7-3[8:1],3-6[8:1],7,2,
{8},2,7,7,1-5[8:1],5-2[8:1],1,6,
{8},7,2,2,8-4[8:1],4-7[8:1],8,3,
{8},2,7,7,1-5[8:1],6,1,6,
{8},7,2,2,8-4[8:1],3,8,2,
{16}1,8,1,8,1,8,1,8,1,8,1,8,1,8,1,8,
{32}1,2,3,4,5,6,7,8,1,2,3,4,5,6,7,8,1,2,3,4,5,6,7,8,1,2,3,4,5,6,7,8,
{8}1b,,,,,,2,8,
{8}2h[4:3],,,,,,7,1,
{8}7h[4:3],,,,,,2,8,
{2}3h[2:1],1h[2:1],
{1}8h[1:1],
{2}6h[2:1],1h[2:1],
{1}8w4[4:3],
{1},
{2}3h[2:1],1h[2:1],
{2}2h[2:1],8h[2:1],
{1}1-5[4:3],
{2}8h[2:1],6h[2:1],
{8}5h[4:3],,,,,,1h[8:1],8h[8:1],
{2}1h[2:1],3h[2:1],
{1}4w8[4:3],
{16},,,,,,,,5,6,7,8,4,3,2,1,
{16}7b,,2h[16:1],1,,,1,,7h[16:1],8,,,2/7,,3/6,,
{16}4,,6h[16:1],5,,,6,,3h[16:1],4,,,1/8,,3/6,,
{16}5,,3h[16:1],4,,,3,,6h[16:1],5,6,,8,,1,,
{16}2,,7h[16:1],8,,2h[16:1],1,,1-5[8:1]/8-4[8:1],2/7,3/6,,1/8,,,,
{16}2,,7h[16:1],8,,,7,,2h[16:1],1,,,2/7,,3/6,,
{16}5,,3h[16:1],4,,,3,,6h[16:1],5,,,1/8,,3/6,,
{16}7,,2h[16:1],1,,7h[16:1],8,,2h[16:1],1,,8h[16:1],1,2,3,,
{16}5,,3h[16:1],4,,2,1,2,8-4[8:1],,2,,8,,1,,
{16}2,,7h[16:1],8,,,7,,2h[16:1],1,,,2/7,,3/6,,
{16}5,,3h[16:1],4,,,3,,6h[16:1],5,6,,1/8-3[8:1],,3/6,,
{16}1-6[8:1],,1,,7-4[8:1],,7,,2>5[8:1],,,2,8,7,6,,
{16}3,,4/6,3/7,2/8,,1,,2-6[8:1]/8,3/7,4/6-3[8:1],,2,,,,
{16}7,,1h[16:1],8,,,1,,8h[16:1],1,,,2/7,,3/6,,
{16}4,,5h[16:1],4,,,5,,4h[16:1],5,4,,5h[16:1],4,5,,
{16}8,,2h[16:1],1,,7h[16:1],8,,1/8,2/7,3/6,,4/5,3/6,2/7,,
{16}1,,7h[16:1],8,,2h[16:1],1,,1/8,2/7,3/6,,1b,,,,
{16}5,3,5,3,4,2,4,2,8,7,6,5,1,2,3,4,
{16}6,4,6,4,5,3,5,3,7,6,5,4,8,1,2,3,
{16}5,4,6,3,7,2,8,1,8,7,6,5,1,2,3,4,
{96}8,,,,7,,,,6,,,,1,,,,2,,,,3,,,,8,,,,7,,,,6,,,,1,,,,2,,,,3,,,,8,,,,7,,,,6,,,,1,,,,2,,,,3,,,,8,,,7,,,6,,,5,,,4,,,3,,,2,,,1,,,
{16}8,4,8,4,1,3,1,3,1,8,7,6,1,2,3,4,
{16}7,3,7,3,8,2,8,2,8,7,6,5,8,1,2,3,
{24}7,6,5,2,3,4,8,7,6,1,2,3,7,6,5,8,7,6,2,3,4,1,2,3,
{32}8,,7,,6,,5,,1,,2,,3,,4,,8,,7,,6,,5,,1,2,3,4,5,6,7,8,
{48}1,,,6,,,1,,,6,,,2,,,7,,,2,,,7,,,1,,2,,3,,4,,5,,6,,1,,8,,7,,6,,5,,4,,
{48}1,,,7,,,1,,,7,,,8,,,6,,,8,,,6,,,1,,2,,3,,4,,5,,6,,1,,8,,7,,6,,5,,4,,
{48}1,,,5,,,1,,,5,,,8,,,6,,,8,,,6,,,8,,1,,2,,3,,4,,5,,1,,8,,7,,6,,5,,4,,
{96}1,,,,2,,,,3,,,,8,,,,7,,,,6,,,,1,,,,2,,,,3,,,,8,,,,7,,,,6,,,,1,,,,2,,,,3,,,,8,,,,7,,,,6,,,,1,,,2,,,3,,,4,,,5,,,6,,,7,,,8,,,
{48}1,,,6,,,1,,,6,,,8,,,5,,,8,,,5,,,1,,2,,3,,4,,5,,6,,1,,8,,7,,6,,5,,4,,
{48}1,,,7,,,1,,,7,,,8,,,6,,,8,,,6,,,8,,1,,2,,3,,4,,5,,1,,8,,7,,6,,5,,4,,
{16}1,8,1,8,2,7,2,7,3,6,3,6,2,7,2,7,
{48}4b,,,5,,,6,,,7,,,3b,,,4,,,5,,,6,,,2b,,,3,,,4,,,5,,,1b,,2,,1,,2,,1,,2,,
{16}8b,7,6,5,1b/4,2,3,4,5/8b,7,6,5,1b/4,2,3,4,
{16}5/8b,7,6,5,1b/4,8,7,6,5/8b,7,6,5,1b/4,8,7,6,
{16}8b,1,8,1,7,8,7,8,1,2,3,4,8,7,6,5,
{16}1b,8,1,8,2,7,2,7,1,2,3,4,8,7,6,5,
{16}1b/4,2,3,4,5/8b,7,6,5,1b/4,2,3,4,5/8b,7,6,5,
{16}1b/4,2,3,4,5/8b,1,2,3,1b/4,2,3,4,5/8b,1,2,3,
{16}1b/4,5,1,6,1,7,1,8,7,6,5,4,8,1,2,3,
{48}8b,,,5,,,8,,,4,,,8,,,3,,,8,,,2,,,8,,,7,,,6,,,5,,,8,,1,,2,,3,,4,,5,,
{1}6b>3[2:3],
{1},
{1}6>3[2:3],
{1},
{4}3,3,6,6,
{8}2,2,7,7,1,1,8,8,
{24}2,3,4,7,6,5,2,3,4,7,6,5,1,2,3,8,7,6,1,2,3,8,7,6,
{96}4,,,,5,,,,4,,,,5,,,,4,,,,5,,,,3,,,,6,,,,3,,,,6,,,,3,,,,6,,,,2,,,,7,,,,2,,,,7,,,,2,,,,7,,,,1,,,8,,,7,,,6,,,1/5,,,4/8,,,3/7,,,2/6,,,
{1}1b-5[4:9]/5b,
{1},
{4},,,1,
(160){16}1,,,2,,,3,,(150)4,,,,8,,,,
(170){8}7h[1:1],,,,(160),,,(145),
(140){16}4h[2:1],,,,,,,,5h[2:3],,,,,,,(120),
{1}6h[1:1],
{1},
{1},
{1},
E
