&title=EVERGREEN
&wholebpm=145
&artist=Cranky
&des=ぴちネコ
&shortid=800
&genre=ゲームバラエティ
&cabinet=SD
&version=maimai FiNALE
&chartconverter=Neskol
&lv_2=4
&des_2=-
&lv_3=7+
&des_3=-
&lv_4=11+
&des_4=Jack
&lv_5=13
&des_5=ぴちネコ
&des_6=
&inote_2=
(145){1},
{1}3h[1:1],
{1},
{1}4h[1:1],
{1},
{1}5h[1:1],
{1},
{1}6h[1:1],
{1},
{2}7,7,
{2}8,8,
{2}1,1,
{1}1/2,
{2}3,3,
{2}4,4,
{2}5,5,
{1}5h[2:1]/6h[2:1],
{4}4,4,4,,
{4}3,3,3,,
{4}2,2,2,,
{2}1/8,1/8,
{4}8,8,8,,
{4}7,7,7,,
{4}6,6,6,,
{2}4/5,4/5,
{4}5,5,5,,
{4}6,6,6,,
{4}7,7,7,,
{2}1/8,1/8,
{4}1,1,1,,
{4}2,2,2,,
{4}3,3,3,,
{2}4h[4:1]/5h[4:1],4/5,
{1}5-8[4:3],
{1},
{1}1-4[4:3],
{1},
{1}6-3[4:3],
{1},
{1}2-7[4:3],
{1},
{1}8h[2:1],
{4}7,7,7/8,,
{1}6h[2:1],
{4}6,6,5/6,,
{1}4h[2:1],
{4}3,3,3/4,,
{1}2h[2:1],
{4}2,2,1/2,,
{1}1h[8:3]/2h[8:3],
{1},
{1}7h[8:3]/8h[8:3],
{1},
{1}1-4[4:3]/8-5[4:3],
{2},4/5,
{4}3,3,3/4,,
{4}6,6,5/6,,
{4}4/5,4/5,4/5,,
{4}3/6,3/6,3b/6b,,
{4}4,4,3,3,
{4}2,2,1/8,,
{4}1,1,2,2,
{4}3,3,3/4,,
{4}5,5,6,6,
{4}7,7,7/8,,
{4}8,8,7,7,
{4}6,6,5/6,,
{4}4,4,3,3,
{4}2,2,1b/2b,,
{1}1/8,
{1},
{1},
{1},
E
&inote_3=
(145){1},
{1}4qq7[4:5],
{1},
{1}1h[8:3]/8h[8:3],
{1},
{1}1pp6[4:5],
{1},
{1}4h[8:3]/5h[8:3],
{1},
{1}3h[1:1],
{1}2h[1:1],
{1}1h[1:1],
{2}8h[2:1],1,
{1}7h[1:1],
{1}6h[1:1],
{1}5h[1:1],
{2}4h[2:1],5,
{4}3,3,2/4,,
{4}6,6,5/7,,
{4}3,3/4,6,5/6,
{4}4/5,4/5,3/6,,
{4}7,7,6/8,,
{4}2,2,1/3,,
{4}7,7/8,2,1/2,
{4}1/8,1/8,2/7,,
{4}4,3,2/5,,
{4}5,6,4/7,,
{4}3,3/4,6,5/6,
{4}4/5,4/5,3/6,,
{4}7,8,1/6,,
{4}2,1,3/8,,
{4}7,7/8,2,1/2,
{4}1/8,1/8,2/7,,
{1}3-6[2:1],
{4}7,8,1/6,,
{1}7-2[2:1],
{4}3,4,2/5,,
{1}3-8[2:1],
{4}7,7,6/8,,
{1}7-4[2:1],
{4}3,3,2/4,,
{4}6h[2:1],5,5,,
{4}3h[2:1],4,4,,
{4}6h[4:1],5,6h[4:1],5,
{4}3/4,3/4,2/5,,
{4}2h[2:1],1,1,,
{4}7h[2:1],8,8,,
{4}2h[4:1],1,2h[4:1],1,
{4}7/8,7/8,1/6,,
{8}1/8,,,1/8,,,,,
{1},
{8}2/7,,,2/7,,,,,
{1},
{8}1/8,,,1/8,,,1/8,,
{8},1h[8:3]/8h[8:3],,,,,2/7,,
{4}1/2,1/2,7/8,7/8,
{4}5/6,5/6,3/4,,
{8}4/5,,,4/5,,,4/5,,
{8},4h[8:3]/5h[8:3],,,,,3/6,,
{4}2,1/2,7,7/8,
{4}1/8,2/7,3/6,4/5,
{4}3,3/4,6,5/6,
{4}3/4,2/5,1/6,,
{4}2,1/2,7,7/8,
{4}1/2,3/8,4/7,,
{4}6,5/6,3,3/4,
{4}5/6,4/7,3/8,,
{4}7,7/8,2,1/2,
{4}7/8,1/6,2/5,3/4,
{1}3b/6b,
{1},
{1},
{1},
E
&inote_4=
(145){1},
{8}1h[4:1]/5h[4:1],,,1/5,,,,,
{8},4h[4:1]/7h[4:1],,,4/7,,2/5,,
{8}4h[4:1]/6h[4:1],,,4/6,,,,,
{1},
{8}4h[4:1]/8h[4:1],,,4/8,,,,,
{8},2h[4:1]/5h[4:1],,,2/5,,4/7,,
{8}3h[4:1]/5h[4:1],,,3/5,,,,,
{4}2h[4:1],4h[4:1],5h[4:1],7pp4[4:5],
{1},
{4},,4h[4:1],3>6[4:3],
{1},
{4}7h[2:1],,5h[4:1],4h[4:1],
{8}2h[4:1],,,2q5[1:1],,,,,
{1},
{8}4/6,4/6,,2/5,,3/7,,1/6,
{8},4/8,,1/5,2,3,4,5,
{8}6h[4:1],,8,8h[4:1],,1,1h[4:1],,
{8}3,3h[4:1],,4,2>5[8:1]/5-2[8:1],,,,
{8}3h[4:1],,1,1h[4:1],,8,8h[4:1],,
{8}6,6h[4:1],,5,4-7[8:1]/7<4[8:1],,,,
{8}7h[4:1]/8,,5,5h[4:1],,4,4h[4:1],,
{8}2,2h[4:1],,1,3>8[8:1]/8-3[8:1],,,,
{8}1/2h[4:1],,4,4h[4:1],,5,5h[4:1],,
{8}7,7h[4:1],,8,1-6[8:1]/6<1[8:1],,,,
{8}3/4,,3,4,3,,3/5,,
{8}3,6,3,,3p7[8:1]/7p3[8:1],,,,
{8}1/2,,2,1,2,,2/8,,
{8}2,7,2,,2q6[8:1]/6q2[8:1],,,,
{8}7/8,,7,8,7,,1/7,,
{8}7,2,7,,3p6[8:1]/7>2[8:1],,,,
{8}4/5,,3,3,4/5,6,6,,
{8}3/4,2,5/6,7,3/4-8[8:1],2,2,,
{8}2,2V48[8:3],5,5-7[8:1],,,,1/6,
{8},2,1,3/8,7,8,1/6,,
{8}3,4,5,3/6-2[8:1],,3-7[8:1],,8,
{8},6,5,4/7,3,4,2/5,,
{8}7,7V51[8:3],4,4-2[8:1],,,,3/8,
{8},7,8,1/6,2,1,3/8,,
{8}5/7,6,5,2/4,3,4,5/7,6,
{4}5h[4:1],4h[4:1],3h[4:1],2<7[4:1],
{1}7pp2[8:5],
{4},,4/5,7>2[4:1],
{1}2qq7[8:5],
{2}4>1[8:1]/8<5[8:1],1>4[8:1]/5<8[8:1],
{8}5h[4:1]/7h[4:1],,,4h[4:1]/5h[4:1],,,2h[4:1]/4h[4:1],,
{8},2,2-6[8:1],,1,1-5[8:1],,8,
{8}8-4[8:1],,7,7-3[8:1],,1,1,,
{8}3/6,7,8,1,2,3,4/5,,
{16}4,5,4,7,,,5,4,5,2,,,,,,,
{4},,,4/5,
{16}3,4,3,8,,,6,5,6,1,,,,,,,
{1},
{8}3h[4:1]/5h[4:1],,,4h[4:1]/7h[4:1],,,2h[4:1]/6h[4:1],,
{8},3h[4:1]/8h[4:1],,,1>4[8:1]/5<8[8:1],,,,
{8}7h[8:3],6,5,4h[8:3],7,6,5h[8:3],4,
{8}3,2h[8:3],5,4,3<6[8:1],2,1,,
{8}4h[4:1]/6h[4:1],,,2h[4:1]/5h[4:1],,,3h[4:1]/7h[4:1],,
{8},1h[4:1]/6h[4:1],,,4>1[8:1]/8<5[8:1],,,,
{8}2h[8:3],3,4,5h[8:3],2,3,4h[8:3],5,
{8}6,7h[8:3],4,5,6>3[8:1],7,8,,
{8}1-5[8:1],5-1[8:1],,,,5w1[8:1],,,
{8},4/6,5,4,3-1[8:1]/5-7[8:1],,,,
{8}8-4[8:1],4-8[8:1],,,,4w8[8:1],,,
{8},3/5,4,5,4-2[8:1]/6-8[8:1],,,,
{8}1-5[8:1],5-1[8:1],,,,5w1[8:1],,,
{8},4/6,5,4,3-1[8:1]/5-7[8:1],,,,
{8}8-4[8:1],4-8[8:1],,,2-6[8:1],6-2[8:1],,,
{8}7-3[8:1],3-7[8:1],,,1-5[8:1],5-1[8:1],,,
{1}8b,
{1},
{1},
{1},
E
&inote_5=
(145){1},
{8}3h[4:1]/7h[4:1],,,3/7,,,,,
{8},1/8,,,2/5,,4/7,,
{8}2h[4:1]/6h[4:1],,,2pp1[8:7]/6pp5[8:7],,,,,
{1},
{8}2h[4:1]/6h[4:1],,,2/6,,,,,
{8},1/8,,,4/7,,2/5,,
{8}3h[4:1]/7h[4:1],,,3qq4[8:7]/7qq8[8:7],,,,,
{1},
{8}5/6h[2:1],4,3,2,1,2/8,3>6[2:1]/7,,
{4},,,4/5,
{8}7h[2:1]/8,1,2,3,4,3/5,2/6>3[4:1],,
{4},,1/3,6/8,
{8}3h[2:1]/4,5,6,7,8,1/7,2/6<3[2:1],,
{8},,,,,,,2/7,
{16}1/8,,2,1,2,,7,8,7,,2,1,3,,7,8,
{16}6,,3,4,3,,6,5,6,4,7,3,8w4[8:1],,1,,
{8}8b,,7,6/8,7,,1/5,,
{8}3,2/4,3-7[32:3],,3/8-5[32:3],,2-6[32:3]/8,,
{8}1/2,,3,2/4,3,,1/5,,
{8}7,6/8,7-3[32:3],,4-1[32:3]/7,,4/6-2[32:3],,
{8}5/6,,5,4/6,5,,1/8,,
{8}4,3/5,4-8[32:3],,4/7-3[32:3],,5-1[32:3]/7,,
{8}5/8,,2,1/3,2,,4/5,,
{8}7,6/8,7-3[32:3],,1-5[32:3]/7,,1b/8b,,
{8}7/8h[4:1],6,5,3/4h[4:1],2,1,7/8h[4:1],6,
{8}5,3/4h[4:1],2,1,7/8-4[32:3],,1/8,,
{8}1h[4:1]/2,3,4,5h[4:1]/6,7,8,1h[4:1]/2,3,
{8}4,5h[4:1]/6,7,8,1-5[32:3]/2,,1/8,,
{8}7h[4:1]/8,1,2,3/4h[4:1],2,1,7/8h[4:1],6,
{8}5,3h[4:1]/4,5,6,7/8-4[32:3],,1/8,,
{8}1/2,,6/8,6/8,,1/3,1/3,,
{16}8,7,6,5,8,1,2,3,8-4[32:3],7,6,5,8b,,,,
{16}2/5,,2/5,,2/5,,3,3,,3,,3,3h[8:1],,4,4,
{16},3,,2,2,,2,2,,4/5,,3/6,3/6,,1/2,,
{16}4/7,,4/7,,4/7,,6,6,,6,,6,6h[8:1],,4,5,
{8}4,3/5,2/6,1/7,8w4[8:1],,8b,,
{16}1/6,,1/6,,1/6,,7,7,,7,,7,7h[8:1],,8,8,
{16}6,,6,,6,,6,6,4,5,,2/7,2/7,,5/6,,
{16}4,,4,,4,,5,5,,5,,5,5,,3/6,,
{16}3/6,,2/7,,2/7,,2/7,,1/8,1/8,,1/8,1b-4[32:3]/8b-5[32:3],,,,
{8},,3,4,5/6,6/7,7>2[4:1]/8,,
{4}4,3<6[4:1],8,7,
{8}1/8,7,6,5,3/4,2/3,1/2<7[4:1],,
{4}5,6,4/8,2/6,
{8}1/8,2,3,4,5/6,6/7,7h[4:1]/8h[4:1],,
{8},3/4,2h[8:1]/5h[8:1],,5/6,4h[8:1]/7h[8:1],,1/2,
{8}3h[8:1]/8h[8:1],,7/8,1h[8:1]/6h[8:1],,4/5,3/6,,
{16}1,2,3,4,1,8,7,6,1-5[32:3],2,3,4,1b,,,,
{16}2b/4,3,4,3,,,5/7b,6,5,6,,,,,,,
{4},,,2/7,
{16}1/3b,2,1,2,,,6b/8,7,8,7,,,,,,,
{1},
{8}2h[4:1]/6h[4:1],,,3h[4:1]/7h[4:1],,,1h[4:1]/5h[4:1],,
{8},4h[4:1]/8h[4:1],,,2-5[32:3]/6-1[32:3],,2b/6b,,
{16}3/7h[8:1],,5,6h[8:1],,4,5h[8:1],,3,,7/8,,3/4,,7/8,,
{16}2h[8:1]/6,,4,3h[8:1],,5,4h[8:1],,6,,1/2,,5/6,,1/2,,
{8}3h[4:1]/7h[4:1],,,1h[4:1]/4h[4:1],,,2h[4:1]/6h[4:1],,
{8},5h[4:1]/8h[4:1],,,3-8[32:3]/7-4[32:3],,3b/7b,,
{16}2/6h[8:1],,8,7h[8:1],,1,8h[8:1],,2,,5/6,,1/2,,5/6,,
{16}3h[8:1]/7,,1,2h[8:1],,8,1h[8:1],,7,,2b/6b,,4b/8b,,,,
{16}2/5,,4/7,,2/5,,6,6,,6,,6,6h[8:1],,5,5,
{16},6,,7,7,,7,7,,4/5,,3/6,3/6,,1/2,,
{16}4/7,,2/5,,4/7,,3,3,,3,,3,3h[8:1],,5,4,
{8}5,4/6,3/7,2/8,1w5[8:1],,1b,,
{16}3/8,,1/6,,3/8,,7,7,,7,,7,7h[8:1],,8,8,
{16}6,,6,,5/7,,6,6,1,8,,2/7,2/7,,4/5,,
{16}3/8,,1/6,,3/8,,1/5,1/5,,1/5,,1/5,1/5,,3/7,,
{16}3/7,,2/6,,2/6,,2/6,,4/8,4/8,,4/8,4bqq1[4:3]/8bqq5[4:3],,,,
{1},
{1},
{1},
E
