&title=Deep in Abyss
&wholebpm=135
&artist=リコ(CV:富田美憂)、レグ(CV:伊瀬茉莉也)
&des=ぴちネコ
&shortid=824
&genre=POPSアニメ
&cabinet=SD
&version=maimai FiNALE
&chartconverter=Neskol
&lv_2=4
&des_2=-
&lv_3=6
&des_3=-
&lv_4=9
&des_4=ロシェ@ペンギン
&lv_5=12
&des_5=ぴちネコ
&des_6=
&inote_2=
(135){1},
{2}1,1,
{2}2,2,
{2}3,3,
{2}4,4,
{4}5,5,5,,
{4}6,6,6,,
{4}7,7,7,,
{1}1b/8b,
{1}1h[2:1],
{1}8h[2:1],
{1}1-4[4:3],
{1},
{2}8,8,
{2}1,1,
{1}8-5[4:3],
{1},
{1}1h[2:1]/2h[2:1],
{1}3h[2:1]/4h[2:1],
{1}5h[2:1]/6h[2:1],
{1}7h[2:1]/8h[2:1],
{4}7,7,7,,
{4}6,6,6,,
{2}4/5,4/5,
{2}3/6,3/6,
{4}4,4,5,5,
{4}4,5,4b,,
{4}5,5,5,,
{4}6,6,6,,
{4}7,7,8,8,
{1}1h[2:1],
{4}2,2,2,,
{4}3,3,3,,
{4}4,4,5,5,
{4}4/5,4/5,3b/6b,,
{4}5,5,5/6,,
{4}4,4,3/4,,
{4}2,2,1,1,
{1}8h[2:1],
{1}1-5[4:3],
{1},
{1}8-4[4:3],
{1},
{1}2-6[4:3],
{1},
{4}7,7,8,8,
{1}1-4[4:3]/8-5[4:3],
{1},
{4}1,1,8,8,
{1}1-5[4:3],
{1},
{1},
{1},
E
&inote_3=
(135){1},
{1}8-5[2:1],
{1},
{1}1-4[2:1],
{4}5,5,4,4,
{4}5,5,4/5,4/5,
{4}6,6,5/6,5/6,
{4}4,4,4/5,4/5,
{4}3,3/4,2/5,,
{2}3h[2:1],4,
{2}6h[2:1],5,
{2}3h[2:1],4,
{2}6h[2:1],5,
{4}5,5,6,6,
{4}7,7,8,8,
{1}1-5[4:3],
{1},
{2}6h[2:3],5,
{2}5,5,
{2}3h[2:3],4,
{2}4,4,
{4}5,5,6,6,
{4}7,7,8,8,
{4}1,1,2,2,
{4}3,3,4,4,
{4}4/5,3/6,2/7,1/8,
{4}2/7,2b/7b,,,
{4}1/2,1/2,7/8,7/8,
{4}1/2,3/8,4/7,,
{4}6,5/6,3,3/4,
{1}2-6[2:1],
{4}7/8,7/8,1/2,1/2,
{4}7/8,1/6,2/5,,
{8}1,1,,8,8,,,,
{1}1-5[2:1],
{8}6,,5,,6,6,5/6,,
{8}3,,4,,3,3,3/4,,
{4}2,2,1,1,
{1}2-5[2:1]/7-4[2:1],
{4}6,6,7,7,
{1}8-4[16:9],
{4}3,3,2,2,
{1}1-5[2:1],
{4}6,6,5,5,
{4}4/5,4/5,3/6,2/7,
{4}1/8,1/2,1/8,7/8,
{1}1>4[4:3]/8<5[4:3],
{4},,4,4,
{4}5,6,7,8,
{4}1,2-6[2:1],,,
{1},
{1},
{1},
E
&inote_4=
(135){1},
{4}2h[1:1]/5,,6,7,
{4}8,3/4,1,5/6,
{4}4/7h[1:1],,3,2,
{8}1,,5/6,,8,1,2/7,,
{4}5/6h[4:3],2,4,2,
{4}3h[4:3]/4,7,5,7,
{4}2/7h[2:1],6,2h[2:1],3,
{4}6h[2:1],5,3,4/5,
{4}2/8h[2:1],,5,5/6,
{4}4h[2:1],,2,1/8,
{2}1-5[8:1],2h[4:1]/8h[4:1],
{4}3-5[8:1]/7-5[8:1],,1,2/8,
{4}1h[2:1]/7,,4,3/5,
{4}2/6h[2:1],3,4,4/5,
{4}3/6,1h[2:1]/8h[2:1],,,
{8}4/6,,3/5,,1,8,2/7,,
{16}2h[16:3],,,3h[16:3],,,4,,7h[16:3],,,6h[16:3],,,5,,
{1}1s5[8:3],
{16}7h[16:3],,,6h[16:3],,,5,,,,4/5,,4/5,,,,
{8}5/6,,1/8,1-4[8:1]/8-5[8:1],,,,,
{16}2h[16:3],,,3h[16:3],,,4,,7h[16:3],,,6h[16:3],,,5,,
{8}2,,1/8,1>4[8:1]/8<5[8:1],,,,,
{4}1h[4:3],3,5,7,
{4}8h[4:3],6,4,2,
{8}1/2,,3/4,,5/6,,7/8,7/8,
{8},2/7,2/7,1b/8b,,,,,
{16}1/2,,,1/2,,,3/7h[8:3],,,,8,,8,,,,
{16}7/8,,,7/8,,,2h[8:3]/6,,,,1,,1,,,,
{2}1/8-3[8:1],1-6[8:1]/8,
{4}8w4[4:1],,,2/7,
{16}7/8,,,7/8,,,2/5h[8:3],,,,8,,8,,,,
{16}1/2,,,1/2,,,4h[8:3]/7,,,,1,,1,,,,
{2}1-6[8:1]/8,1/8-3[8:1],
{4}4/5,1/8,2b/7b,,
{8}2,1,2h[2:1],,8,8,8,,
{8}7,8,7h[2:1],,1-5[8:1],,,,
{4}4/6h[4:1],7,3h[4:1]/5,2,
{4}4/6h[4:1],7,3/6,2/7,
{8}1b-4[8:1]/8b-5[8:1],,,,,5,5,5h[2:1],
{8},8,8,8,,6/7,6-3[4:1]/7-2[4:1],,
{8},,,,,4,4,4h[2:1],
{8},1,1,1,,2/3,2-7[4:1]/3-6[4:1],,
{8},,,,,8,8,8h[2:1],
{8},5,5,5,,6/7,6/7,,
{4}8-4[8:1],1-3[8:1],7-5[8:1],2,
{1}1<5[2:1]/8>4[2:1],
{4}2,2/4,7,5/7,
{8}3h[8:3],,4,4,,5/6,5/6,4/7,
{8},1/2,1/2,3/8,,2-5[8:1]/7-4[8:1],,,
{1},
{1},
{1},
E
&inote_5=
(135){1},
{16}3h[4:1]/8h[4:1],,,,,,2,1,2,,,,4/5,,,,
{2}7-4[32:3]/8h[4:1],1h[4:1]/2-5[32:3],
{16}1h[4:1]/6h[4:1],,,,,,7,8,7,,,,4/7,,,,
{16}2h[4:1]/5h[4:1],,,,,,6,1,7,2,8,3,1w5[32:3],,,,
{16}1b,,,,3/7,,2,1,2,,,,7/8,,,,
{16}4h[4:1]/5h[4:1],,,,,,5,4,6,3,7,2,8,1,8,1,
{8}8-4[32:3],,3,2,1-5[32:3]/8,,6,7,
{32}1/8<4[4:1],,,,,,,,,,,,,,1,2,3,,,,,,,,,,,,,,,,
{16}7h[4:1],,,,8-4[4:1],,6,6h[16:5],,,,,,,,,
{16}2h[4:1],,,,1-5[4:1],,3,3h[16:5],,,,,,,,,
{8}7<4[4:1],,1,1>4[4:1],,,6,6,
{8},3/5,2/6,1h[8:3]/7,,8,8,,
{16}7/8,,,,1>5[4:1]/6,,6,6h[16:5],,,,,,,,,
{16}1/2,,2,,3/8<4[4:1],,3,3h[16:5],,,,,,,,,
{8}1/5,,2>5[4:1]/8<5[4:1],,,,,3/7h[2:1],
{32},,,,2,,,,1,,,,8h[8:3],,,,,,,,,,7,6,5,,,,,,,,
{16}2q6[16:3],,,8,,,8,,7<4[16:3],,,2,,,2,,
{16}1q5[16:3],,,,,,,,8,7,6,5,8,1,2,3,
{16}8-4[16:3],,,2,,,2,,1-5[16:3],,6,,6,,7,,
{8}7-4[16:3],,3,3,2-6[32:3],,1b/2b,,
{4}3/8-4[32:3],7/8,1-5[32:3]/6,1/2,
{16}3/8-4[32:3],,,,7/8,,,,6,5,7,4,8,3,1,2,
{16}1h[2:1],,,2,,,3,,3h[2:1],,,4,,,5,,
{16}5h[2:1],,,6,,,7,,7h[2:1],,,8,,,1,,
{8}1,6/8,5/7,4/6,3/5,2/4,1/3,1/8h[2:1],
{8},1-5[32:3],1,1,,,,,
{16}1b/8b<5[32:3],,,2,8-4[32:3],,3,,8,,3,,2/7,,1,,
{16}1>4[32:3]/8,,,7,1-5[32:3],,6,,1,,,,2/7,,1,,
{8}7/8,1h[8:1]/6h[8:1],,1/2,3h[8:1]/8h[8:1],,7,6,
{4}2>5[32:3]/5,2/8-4[32:3],1/8,3b/7b,
{16}1>4[32:3]/8,,,7,1-5[32:3],,6,,1,,6,,2/7,,8,,
{16}1/8<5[32:3],,,2,8-4[32:3],,3,,8,,,,2/7,,8,,
{8}1/2,3h[8:1]/8h[8:1],,7/8,1h[8:1]/6h[8:1],,2,3,
{4}4/8h[4:1],6h[4:1],3,1b/8b,
{16}5/6,,3/8,,3/8,,2,2,,1/3,,2,2,,1/3,,
{16},,1/6,,1/6,,7,7,,6/8,,7,7,,6/8,,
{8}7/8,1>4[8:1]/8q5[8:1],,1/8,,1/2,1p4[8:1]/8<5[8:1],,
{4}1/8,3b/7b,8h[4:1],1-5[32:3],
{8}1b/7,8w4[32:3],,8b,,6,7,4/8h[2:1],
{8},7,6,5h[8:3],,8,8-4[32:3],,
{8}2/8b,1w5[32:3],,1b,,3,2,1h[2:1]/5,
{8},2,3,4h[8:3],,1,1-5[32:3],,
{8}1b/7,8w4[32:3],,8b,,2/6,3/7,4h[8:1]/8h[8:1],
{8},3/7,2/6,1h[8:1]/5h[8:1],,3/6,1/8-4[32:3],,
{4}2-5[32:3]/8b,2b/7-4[32:3],1-5[32:3]/7b,1b/8,
{1}4b/8bs4[2:1]*z4[2:1],
{8}2/6,4,3/7,6,1/5,3,4/8,7,
{8}2h[8:3]/6,1,8,7-4[32:3],,8,8,1-5[32:3],
{8},8,8,2/7-3[32:3],,1bw5[32:3]/7b,,,
{1},
{1},
{1},
E
