&title=B.M.S.
&wholebpm=200
&artist=光吉猛修の父
&des=はっぴー
&shortid=850
&genre=ゲームバラエティ
&cabinet=SD
&version=maimai FiNALE
&chartconverter=Neskol
&lv_2=6
&des_2=-
&lv_3=8+
&des_3=-
&lv_4=12+
&des_4=Jack
&lv_5=14
&des_5=はっぴー
&des_6=
&inote_2=
(200){1},
{2}5,5,
{1}5,
{2}4,4,
{1}4,
{2}5,5,
{1}5/6,
{2}7,7,
{1}7/8,
{2}1,1,
{1}1/2,
{2}3,3,
{1}3b/4b,
{1}3h[2:1],
{2}3,3/4,
{2}5,5,
{1}5/6,
{1}7h[2:1],
{2}7,7/8,
{2}1,1,
{1}1/2,
{2}3,3,
{4}4,4,4,,
{2}5,5,
{4}6,6,6,,
{2}7,7,
{4}8,8,8,,
{2}1,1,
{4}2,2,2,,
{1}3h[1:1],
{1},
{1}4h[1:1],
{1},
{1}5h[1:1],
{1},
{1}6h[1:1],
{1},
{2}7,8,
{2}1,2,
{2}1/2,7/8,
{4}1/8,1/8,2/7,,
{2}3,4,
{2}5,6,
{2}5/6,3/4,
{4}4/5,4/5,3/6,,
{1}4-1[1:1],
{1},
{2},8-5[1:1],
{1},
{1},
{1}6,
{4}5,,,4,
{1},
{2}3,2,
{2},1,
{4},1b/8b,,,
{2},1,
{2}8,1h[2:1]/8h[2:1],
{2},8,
{4}8,,7,7,
{2}7,6,
{4}6,,5,5,
{2}5,4,
{4}4,,3,3,
{2}3,4-1[4:3]/5-8[4:3],
{1},
{4},,1/2,1/2,
{4}1/2,,1/8,1/8,
{4}1/8,,7/8,7/8,
{4}7/8,,1/8,1/8,
{4}2/7,,5/6,5/6,
{4}5/6,,4/5,4/5,
{4}4/5,,3/4,3/4,
{4}3/4,,4/5,4/5,
{4}3/6,,2,2,
{4}2,,1,1,
{4}1,,8,8,
{4}8,,7,7,
{2}7,1b/8b,
{1},
{1},
{1},
E
&inote_3=
(200){1},
{4}3,3,4,4,
{4}5,5,6,6,
{4}5,5,4,4,
{4}4/5,4/5,3/6,,
{4}3,3,2/4,,
{4}6,6,5/7,,
{4}4,4,5,5<8[2:1],
{1},
{4}3h[4:3],4,4,4,
{4}5,5,4/6,,
{4}7h[4:3],8,8,8s4[4:3],
{1},
{4}5h[4:1]/6h[4:1],,5/6,5/6,
{4}3h[4:1]/4h[4:1],,3/4,3/4,
{4}4h[4:1]/5h[4:1],,4/5,4-1[8:5]/5-8[8:5],
{1},
{4}1h[4:1]/2h[4:1],,1/2,1/2,
{4}7h[4:1]/8h[4:1],,7/8,7/8,
{4}1h[4:1]/8h[4:1],,1/8,1>4[8:5]/8<5[8:5],
{1},
{4}3,3,4/5,3,
{4}6,6,4/5,6,
{4}5/7,5/7,2/4,2/4,
{4}4/5,3/6,2b/7b,,
{4}3h[4:1],4,6h[4:1],5,
{4}2h[4:1],4,1/8,1/8,
{4}2h[4:1],1,7h[4:1],8,
{4}1/8,2/7,3b/6b,,
{2}3h[2:1],4h[2:1],
{2}5h[2:1],6,
{2}5h[4:1]/6h[4:1],3h[4:1]/4h[4:1],
{4}4/5,4/5,4/5,4/5,
{2}3h[4:1]/6h[4:1],3h[4:1]/6h[4:1],
{2}5h[4:1]/7h[4:1],2h[4:1]/4h[4:1],
{4}3,4,5,6q3[4:3],
{1},
{4}2,2,3,3,
{4}4,4/5,3/6,,
{4}2h[4:1],4,7h[4:1],5,
{4}3b/4b,2b/5b,1b/6b,,
{4}8h[1:1],1,1,1,
{4}1,2/7,3/6,,
{4}7h[4:1],5,2h[4:1],4,
{4}5b/6b,4b/7b,3b/8b,,
{4}4/5,5/6,4/5,3/4,
{4}4/5,5/6,4h[4:3]/7h[4:3],,
{4},,8b,8b,
{4}1b,1b,1b/8b,1b/8b,
{4}1b/8b,1b/8b,2b/7b,3b/6b,
{1}3V51[1:1],
{4},,,7V15[1:1],
{1},
{2},4V26[1:1],
{1},
{4},5h[1:1]/7h[1:1],,,
{2},4h[4:1]/5h[4:1],
{4}4/5,4/5,3/6,3-1[4:1]/6-8[4:1],
{4},,2,3,
{4}4/5,4/5,6,7,
{4}1/8,1/8,8,7,
{4}5/6,5/6,4,3,
{4}1/2,1/2,3,4,
{4}5,6qq8[8:7],,,
{2},1h[4:7],
{1},
{4},8b,1/2,3/4,
{4}5/6,7/8,1/2,3/8,
{4}7/8,1/6,3/4,2/5,
{8}5/6,,4/7,,2,2,2,,
{8}7,7,7b,,3,3,3/4,,
{8}6,6,5/6,,5/7,,2/4,,
{4}5/7,2/4,1,3/4,
{4}8,5>2[8:5]/6<1[8:5],,,
{2},1h[4:1]/7h[4:1],
{2}3h[4:1]/8h[4:1],1h[4:1]/6h[4:1],
{4}1/6,2/7,1/2,7/8,
{8}1/2,,7/8,,6,6,5/7,,
{8}3,3,2/4,,3b/6b,,,,
{1},
{1},
{1},
E
&inote_4=
(200){1},
{4}3/6h[1:3],2,4,4,
{4}3,2,4,4,
{8}3,,2,,3,3,3,3,
{1}3pp6[2:1],
{8}7/8,,4/5,,6,5,4/7,,
{8}1/2,,4/5,,3,4,2/5,,
{8}8,8,8,8,8-4[8:1],,,,
{4}3V14[8:3]/5V74[8:3],,,2/6,
{2}4-2[8:1]/8-6[8:1],1-3[8:1]/5-7[8:1],
{4}4-1[8:1]/8-5[8:1],,2/6,3/7,
{2}4-2[8:1]/8-6[8:1],1-3[8:1]/5-7[8:1],
{1}4V63[2:1]/8V27[2:1],
{16}6,,6,,6,,6,,5/6,,,4/5,,,3/4,,
{16},,2,,2,,2,,1/2,,,1/8,,,7/8,,
{16}7/8,,,1/8,,,1/2,,,,3,,3,,3,,
{2}3-6[8:1],2h[4:1],
{16}3,,3,,3,,3,,3/4,,,4/5,,,5/6,,
{16},,7,,7,,7,,7/8,,,1/8,,,1/2,,
{16}1/2,,,1/8,,,7/8,,,,6,,6,,6,,
{1}6qq3[2:1],
{2}1-5[8:1]/2-4[8:1],4-8[8:1]/5-7[8:1],
{2}7-3[8:1]/8-2[8:1],2-6[8:1]/3-5[8:1],
{2}5-1[8:1]/6-8[8:1],1-3[8:1]/8-4[8:1],
{1}3>6[2:1]/4p5[2:1],
{16}3,4,3,,2/5,,,,3,4,3,,2/5,,,,
{16}3,4,3,,2/5,,,,7,8,7,,2,1,2,,
{16}6,5,6,,4/7,,,,6,5,6,,4/7,,,,
{16}6,,6,,6,,6,,7,8,7,,2,1,2,,
{8}3<6[8:1],,,7,7p3[8:1],,,,
{16}2<7[8:1],,,,,,6,,,,,,1,8,1,8,
{2}1-4[8:1],1>4[8:1],
{4}1-4[8:1],8-5[8:1],1>4[8:1],8,
{8}6>3[8:1],,,2,2q6[8:1],,,,
{16}7>2[8:1],,,,,,3,,,,,,8,1,8,1,
{1}8w4[8:1],
{16}7h[16:3],,,6h[16:3],,,5h[16:3],,,4h[16:3],,,3h[16:3],,,2,
{4}3,2/3,3,2/3,
{4}1/4,2/3,1/4-8[8:1],,
{8}6h[4:1]/7h[4:1],,,6h[4:1]/7h[4:1],,,6/7,,
{4}4/5,2/3,1-4[8:1]/8-5[8:1],,
{4}6,6/7,6,6/7,
{4}5/8,6/7,5-1[8:1]/8,,
{4}2/3,6/7,1-3[8:1]/8-6[8:1],,
{1}3h[2:1]/6h[2:1],
{8}1/2,,6/7,,3/4,3/4,,2,
{8}3,4,5/6,,2/3,,7/8,7/8,
{8},6,7,8,1h[8:1],,1h[8:1],,
{4}1h[8:1],1h[8:1],1h[8:1]/8h[8:1],1h[8:1]/8h[8:1],
{8}1h[8:1]/8h[8:1],,1h[8:1]/8h[8:1],,1/8,1/8,1h[8:1]/8h[8:1],,
{8}1-5[8:1]/8-4[8:1],,,,,4/5,,3,
{8}4,5,6-3[8:1],,3,,2-7[8:1],,
{8}7,,,4/5,,3,4,5,
{4}6-3[8:1],3,2-7[8:1],7,
{8},4/5,,2,1,8,7-2[8:1],,
{1}3>6[4:3],
{8},,,,3,4,2/5,,
{8}5/6,4/7,,1/8,,3/6,3/6z2[8:3],,
{4},,4>1[8:1],1,
{8}8<5[8:1],,5,,4,3/5,,5,
{1}4h[8:7]/6h[8:7],
{4},2h[8:3]/5h[8:3],,,
{4}3h[8:1]/7h[8:1],2h[8:1]/6h[8:1],4h[8:3]/8h[8:3],,
{16},,,,1h[8:1]/8h[8:1],,,,1,8,1,8,1,8,1,8,
{16}1,8,1,8,1,8,1,,2-7[8:11]/3-6[8:11],,,,,,,,
{1},
{16},,,,4b/8b,,,,6,5,6,,1/2,,,,
{16}3,4,3,,7/8,,,,1>4[8:1]/5<8[8:1],,,,,,,,
{16}4>1[8:1]/8<5[8:1],,,,,,,,3,4,3,,7/8,,,,
{16}6,5,6,,1/2,,,,3,4,3,,2/5,,2/5,,
{8}3/6,3/6,4/7,4/7,8w4[8:1],,,,
{4}1w5[8:1],,8-4[8:1],1-3[8:1],
{8}7-5[8:1],,8,,3,2,1,8,
{8}7,6,4>5[4:3]/5p4[4:3],,,,,,
{2},1w5[8:1],
{2}8w4[8:1],1w5[8:1],
{4}8w4[8:1],,1-5[8:1],7-3[8:1],
{8}2-6[8:1],,8-4[8:1],,1-5[8:1],1,7-3[8:1],7,
{8}2-6[8:1],2,8-4[8:1],8,1b,,,,
{1},
{1},
{1},
E
&inote_5=
(200){1},
{8}3/5,2,4/5,4,2-4[8:1]/5,,5,,
{8}3/5,2,4/5,4,2/5,3,4/5,4,
{8}3/5,2,4/5,4,2,2,2/3,2/3,
{8}4h[16:1],4h[16:1],4h[16:1],4h[16:1],4h[16:1],4h[16:1],4h[16:1],4,
{8}1/5,1,1/5,1,1-4[8:1]/5,,5,,
{8}2/5,2,4/5,4,4/5,3,4/5,3,
{8}4/5,4,3/5,3,2/5,2,1/5,1,
{4}2<7[4:1]/5,5,5,4>1[4:1]/5,
{8}5,,5,,1/5,2,3/5,4,
{8}3/5,2,1pp1[4:1]/5,,5,,5,,
{8}1h[4:1]/5,,5,,1/5,1,1/5,1,
{16}1,2,8,7,1,2,8,7,2,3,7,6,2,3,7,6,
{16}4/5,,4,,4/5,,4,,3/5,,,2/4,,,1/3,,
{16}5,,4/5,,4/5,,4/5,,4/6,,,5/7,,,6/8,,
{8}4,4,4,3/5,4/6,5,5,3/6,
{32}1,2,3,4,5,6,7,8,1h[4:1],,,,,,,,8,7,6,5,4,3,2,1,8,,,,,,,,
{16}4/5,,5,,4/5,,5,,4/6,,,5/7,,,6/8,,
{16}4,,4/5,,4/5,,4/5,,3/5,,,2/4,,,1/3,,
{8}5,5,5,4/6,3/5,4,4,3/6,
{16}4h[32:1],5h[32:1],3h[32:1],6h[32:1],2h[32:1],7h[32:1],1h[32:1],8h[32:1],2h[32:1],7h[32:1],3h[32:1],6h[32:1],4,,,,
{8}4/8,8,4/8,8,4/8-5[8:1],,4,,
{8}4/7,7,4/5,5,4/5,6,4/5,6,
{8}4/5,5,4/6,6,4/7,7,4/8,8,
{4}4/7>2[4:1],4,4,4/5,
{16}1,2,3,4,1,2,3,4,1,2,3,4,1,2,3,4,
{16}1,2,3,4,1,2,3,4,1,8,1,8,1h[4:1],,,,
{16}8,7,6,5,8,7,6,5,8,7,6,5,8,7,6,5,
{16}8,1,8,1,8,1,8,1,8,1,8,1,8,,,,
{8}4h[4:7]/5,,,5,5,,,,
{16}5,,,,,,5,,,,,,5,4,5,,
{2}4-1[8:1]/5>2[8:1],4-1[8:1]/5>2[8:1],
{8}4/5,2/4,4/5,2/4,4/5,2/4,4/5,,
{8},,6,5,4,3q5[8:5],3h[1:1],,
{4},,,6,
{8}5h[8:1],,,3h[8:1],,,,,
{16}6/8,,,1/7,,,2/8,,,1/3,,,2/4,,,3,
{4}5,3/5,2/5,1-3[8:1]/5,
{4}1-6[8:1]/5,1-4[8:1]/5,1/5,5,
{8}1h[4:1]/5,,5,1h[4:1],5,,1/5,,
{4}3-8[8:1]/7-4[8:1],3/7,2/6,4/5,
{4}4/5,4/6,4/7,4/8-6[8:1],
{4}4/8-3[8:1],4/8-5[8:1],4/8,4,
{8}4/8h[4:1],,,8h[4:1],4,,4/8,,
{4}2-5[8:1]/6-1[8:1],2/6,3/7,4b/5b,
{8}7,6,2,3,8h[8:1],,4h[8:1],,
{8}3/6,,1>4[8:1]/8<5[8:1],,,,,4h[8:3]/5,
{8},5,5,,4h[8:1],5,4h[8:1],5,
{8}3h[8:1],5,3h[8:1],5,2h[8:1],5,2h[8:1],5,
{16}1h[8:1],,5,,1h[8:1],,5,,8,5,8,5,8,5,8,5,
{8}8w4[8:1],,,,,4/5,,4/6,
{8}3/5,4/6h[8:3],,,4,,1-4[8:1]/5-8[8:1],,
{8},,,4/5,,3/5,4/6,3/5,
{8}4/6,3/5,,,4-1[8:1]/8-5[8:1],,,,
{8},4/5,,4/6,3/5,4/6h[8:3],,,
{96}4,,,,,,,,,,,,,,,,,,,,,,,,1,,,2,,,3,,,4,,,5,,,6,,,7,,,8,,,1,,,,,,3,,,,,,5,,,,,,7,,,,,,1,,,,,,,,4,,,,,,,,7,,,,,,,,
{8}2,,4/5,,6-3[8:1],6,2-7[8:1],2,
{8}6-3[8:1],6,2-7[8:1],2,6,6,3/6,3/6,
{32}1b,2,3,4,5,6,7,8,1,2,3,4,5,6,7,8,1,,,,1,,,,1,,,,5,,,,
{8}4/6,5,5,4,3,5,6,4,
{32}8b,7,6,5,4,3,2,1,8,7,6,5,4,3,2,1,8,7,6,5,4,3,2,1,8,7,6,5,4,3,2,1,
{32}8,,,,,,,,1b,2,3,4,5,6,7,8,1,2,3,4,5,,,,5,,,,,,,,
{32}8b,7,6,5,,,,,1b,2,3,4,,,,,8b,7,6,5,4,3,2,1,8,7,6,5,4,,,,
{32}4,,,,,,,,8b,7,6,5,4,3,2,1,8,7,6,5,4,3,2,1,8h[64:1],7h[64:1],6h[64:1],5h[64:1],4h[64:1],3h[64:1],2h[64:1],1h[64:1],
{32}8h[64:1],7h[64:1],6h[64:1],5h[64:1],4h[64:1],3h[64:1],2-6[16:29],1h[64:1],8,,6,,4,,2,,8,,,,,,,,,,,,,,,,
{1},
{16},,,,2b,,6b,,3,4,3,2,3,4,3,2,
{16}3,4,3,2,3,,,,4b/8b,,4b,,4b/8b,,4b,,
{16}4b/8b,,4b,,4b/8b,,,,6,5,6,7,6,5,6,7,
{16}6,5,6,7,6,,,,4,5,4,,3/5,,4/6,,
{16}5,4,,8,1/8,,,,7h[16:1],,6h[16:1],,5h[16:1],,4h[16:1],,
{8}3h[16:1],2h[16:1],1-3[8:1]/8-6[8:1],,1-5[8:1]/8-4[8:1],,1-3[8:1]/8-6[8:1],,
{8}1-5[8:1]/8-4[8:1],,1/8,,4h[8:1]/5,5,3/6h[8:1],3,
{16}2h[8:1]/7,,7,,1/8h[8:1],,1,,2h[8:1]/4h[8:1],,,3h[8:1]/5h[8:1],,,4h[8:1]/6h[8:1],,
{16},5h[8:1]/7h[8:1],,,6/8,,,,2-4[8:1]/5,,5,,6b,,6,,
{8}4/7-5[8:1],4,3b,3,2-4[8:1]/5,5,6b,6,
{8}4/7-5[8:1],3,2b-4[8:1],2,8b-6[8:1],8,1b-3[8:1],1,
{16}7b-5[8:1],,7,,1b,,1,,1,2,3,4,1,2,3,4,
{32}1,,2,,3,,4,,1h[64:1],2h[64:1],3h[64:1],4h[64:1],1h[64:1],2h[64:1],3h[64:1],4h[64:1],1bv8[8:1],,,,,,,,,,,,,,,,
{1},
{1},
{1},
E
