&title=Alea jacta est!
&wholebpm=162
&artist=BlackY fused with WAiKURO
&des=“Carpe diem” * HAN∀BI
&shortid=812
&genre=maimai
&cabinet=SD
&version=maimai FiNALE
&chartconverter=Neskol
&lv_2=7
&des_2=-
&lv_3=9+
&des_3=-
&lv_4=12+
&des_4=サファ太
&lv_5=14
&des_5=“Carpe diem” * HAN∀BI
&lv_6=14+
&des_6=小鳥遊さん fused with Phoenix
&inote_2=
(162){1},
{1},
{4}4,4,4,,
{4}5,5,5,,
{4}4,4,5,5,
{4}4/5,4/5,3/6,,
{4}8,8,8,,
{4}1,1,1,,
{4}8,8,1,1,
{1}1b/8b,
{4}1,2,3,3,
{4}4,5,5,4/6,
{4}7,8,1,1,
{4}2,3,2/4,,
{4}4,3,2,2,
{4}1,8,8,1/7,
{4}6,5,4,4,
{4}4/5,3/6,2b/7b,,
{1}1h[2:1],
{4}8,8,7/8,,
{1}6h[2:1],
{4}5,5,4/5,,
{1}3h[2:1],
{4}2,2,1/2,,
{1}8h[2:1],
{4}1/8,2/7,3b/6b,,
{1}4-1[4:3],
{1},
{1}8-5[4:3],
{1},
{1}6-3[4:3],
{1},
{1}2-7[4:3],
{2},1/8,
{4}1,2,3,4,
{4}5,6,5/7,,
{4}5,6,7,8,
{4}1,2,1/3,,
{4}4,3,2,1,
{4}8,7,6/8,,
{4}8,7,6,5,
{4}4,3,2/4,,
{4}3,3,4/5,5/6,
{4}6,6,4/5,3/4,
{4}2,1,8,7,
{4}1/8,1/8,2/7,,
{8}6,6,6,,5/6,,,,
{8}4,4,4,,3/4,,,,
{8}5,4,5,,4/5,,4h[2:1]/5h[2:1],,
{1},
{2}6,6,
{4}7,7,7,,
{2}8,8,
{4}1,8,1/8,,
{4}2,2,2,,
{2}3,3,
{4}4,5,5/6,5/6,
{4}5,4,3/4,3/4,
{2}4h[4:1],5h[4:1],
{2}3h[4:1]/4h[4:1],5h[4:1]/6h[4:1],
{4}4/5,3/6,2/7,1/8,
{1}1h[1:1]/8h[1:1],
{1},
{8}1,1,1,,2,2,2,,
{8}3,3,3,,3/4,,3/4,,
{8}5,5,5,,6,6,6,,
{8}7,7,7,,7/8,,,,
{8}8,8,8,,7,7,7,,
{8}6,6,6,,5/6,,5/6,,
{8}4,4,4,,3,3,3,,
{8}2,2,2,,1/8,,,,
{8}1,1,1,,2,2,2,,
{8}3,4,3,,2/5,,,,
{8}5,5,5,,6,6,6,,
{8}7,8,7,,1/6,,,,
{8}8,8,8,,7,7,7,,
{8}6,5,6,,4/7,,,,
{8}4,4,4,,3,3,3,,
{8}2,1,2,,3b/8b,,,,
{4}1,1,1,,
{4}2,2,2,,
{4}3,3,4,4,
{4}4/5,4/5,3/6,,
{4}5,5,5,,
{4}6,6,6,,
{4}7,7,8,8,
{4}1/8,1/8,2/7,,
{4}1/8,1/8,1h[8:5]/8h[8:5],,
{1},
{1},
{1},
E
&inote_3=
(162){1},
{1},
{4}3,2/4,5,4/6,
{8}3,,2/4,,5,5,5,,
{4}4/6,5,2/4,3,
{1}4-1[8:3]/6-1[8:3],
{4}7,6/8,1,2/8,
{8}7,,6/8,,4/5,4/5,4/5,,
{4}2,1/3,8,1>4[2:1]/7-4[2:1],
{4},,,2b/6b,
{4}3,2/4,1/5,6,
{4}5/7,4/8,2h[4:1],1,
{4}8,1/7,2/6,3,
{4}2/4,1-5[4:1],,,
{4}6,5/7,4/8,3,
{4}2/4,1/5,7h[4:1],8,
{4}1/2,3/4,5/6,7V15[8:5],
{4},,,4,
{4}3,4/6,7,6/8,
{8}5,,2/4,,1,1,1/8,,
{4}5/7,6,3/5,2-7[4:1],
{4},6-3[4:1],,2,
{4}2/4,1,5/7,8,
{8}3/4,,5/6,,1/8,1/8,1/8,,
{4}6h[4:1],5h[4:1],4h[4:1],3s7[8:5],
{1},
{1}8p4[2:1],
{1}1q5[2:1],
{1}7p2[2:1],
{4}1h[4:1]/8h[4:1],,2/7,6<3[8:5],
{1},
{4}4/6,3/5,4/7,2/5,
{1}1s5[2:1],
{4}6h[4:1],7h[4:1],8,1b/6b,
{4}2/5,3/4,5/6,4/7,
{4}3/8,1/2,7/8,1/6,
{8}7,7,8,,2,2,1,,
{4}2/4,4/5,5/7,8,
{8}6,6,5,,3,3,4,,
{8}2,2,4,,7,7,5>1[2:1],,
{4},,,7/8,
{4}6/7,5/6,4/5,2b/7b,
{4}1h[4:1]/3h[4:1],,2/4,1/3,
{4}6h[4:1]/8h[4:1],,5/7,6/8,
{2}7-2[4:1],3-6[4:1],
{4}7,5/6,3/4,2/5,
{8}6,6,5,,3,3,4,,
{8}7,7,8,,2,2,1,,
{4}2/8,4/6,1/7,3/5,
{1}4w8[2:1],
{2}6h[2:1],5h[2:1],
{2}4h[1:1],3,
{2}2h[2:1],8h[1:1],
{1}1h[2:1],
{4}6h[4:1],5,2h[4:1],4,
{4}7h[4:1],6,2h[4:1],1,
{4}1/2,8,5/7,6,
{4}4/5,3,2/4,1/8,
{2}7-5[4:1],2-4[4:1],
{2}7-4[4:1],2-5[4:1],
{2}7-3[4:1],2-6[4:1],
{1}7qq4[4:3],
{4},2b/4b,5b/7b,1b/6b,
{8}4/7,,2/5,,3,3,3/4,,
{1}6<3[2:1],
{8}1/6,,3/8,,2,2,1/2,,
{1}7<2[2:1],
{4}1/8,5/7,2/4,4/5,
{4}2b/4b,3b/7b,1b/5b,,
{2}3-8[4:1],7-4[4:1],
{8}3,,1/2,,7/8,7/8,1b/6b,,
{8}3/8,,5/6,,3,3,2/4,,
{1}1>6[2:1],
{8}1/6,,3/4,,6,6,5/7,,
{1}8<3[2:1],
{2}1-5[4:1],7-3[4:1],
{4}1b,2b/8b,3b/7b,,
{8}1/2,1/2,3/8,,7/8,7/8,1/6,,
{2}8h[2:1],1b-5[8:1],
{4}6,5/7,3,2/4,
{8}7,,6/8,,1,1,2/8,,
{4}3/4,2/5,5/6,4/7,
{4}3h[4:1]/8h[4:1],,2b/6b,4b/8b,
{4}1/2,3/8,7/8,1/6,
{8}1/2,,3/8,,5/6,5/6,4/7,,
{4}2/5,3/4,5/6,7s3[2:1],
{4},,,1/2,
{16}1/8h[16:3],,,1,,1/8,,1/8,,1/8,,1/8,,1/8,,1/8,
{8},2b/7b,,,,,,,
{1},
{1},
{1},
E
&inote_4=
(162){1},
{2},1b-5[8:1]/7b-4[8:1],
{16}3h[16:3],,,4,,,2/5,,6h[16:3],,,5,,,4/7,,
{16}3h[16:3],,,4,,,2/5,,2h[4:1]/5,,,,1,,,,
{16}7h[16:3],,,8,,,1/6,,2h[16:3],,,1,,,3/8,,
{16}3/8-4[8:1],,,,1,,,,2h[16:3]/5,,,3h[16:3],,,4,,
{16}6h[16:3],,,5,,,4/7,,3h[16:3],,,4,,,2/5,,
{16}6h[16:3],,,5,,,4/7,,4/7h[4:1],,,,8,,,,
{16}2h[16:3],,,1,,,3/8,,7h[16:3],,,8,,,1/6,,
{4}1-5[8:1]/6,8-4[8:1],2,1b/3b,
{4}5/7-1[8:1],2-6[8:1],5,5/7-3[8:1],
{8}2-8[8:1],,7,,6,6,5/7,,
{4}2-8[8:1]/4,7-3[8:1],4,2-6[8:1]/4,
{4}7-1[8:1],2,2-5[8:1]/8-4[8:1],,
{4}3-8[8:1]/6,7-3[8:1],1,2-5[8:1]/4,
{4}6-2[8:1],4q5[8:3],,,
{4}4/7-2[8:1],3-6[8:1],8-4[8:1],2<5[16:5],
{8}5,,,,8,8,4/8,,
{8}2/6h[8:3],3,4,5,5/6,4/7,3/8,,
{8}3h[8:3]/7,6,5,4,3/4,2/5,1/6,,
{8}2h[8:3]/6,7,8,1,1/2,3/8,4/7-3[8:1],,
{8}2-6[8:1],,5,,5/7,4b/8b-4[8:1],,2,
{16}2h[16:3],,,3h[16:3],,,4,,7h[16:3],,,6h[16:3],,,5,,
{16}3/4,,,5/6,,,4/7,,4-1[8:1]/7-4[8:1],,,,,,,,
{16}2,,2,,6,,6,,2,8,2,8,1,7,1,7,
{4}8h[4:1],7<3[4:1],2b,,
{16}3h[1:1],,,4q8[16:5],,,,,,,,,,,,,
{16}6h[1:1],,,5p1[16:5],,,,,,,,,,,,,
{16}2h[1:1],,,1p4[16:5],,,,,,,,,,,,,
{4}4h[4:1],6h[4:1],8h[4:1],1,
{16}4h[8:1]/6h[8:1],,,4/6,,,4/6,,3h[8:1]/5h[8:1],,,3/5,,,3/5,,
{8}2,2,4,4,5,5,7,7,
{16}6/8,,1/5,,2/4h[16:3],,,3,,3/4,,,2/7,,,,
{16}1,8,1,8,1,8,1,8,1,8,1,,2b/7b<2[8:3],,,,
{8}8,,,,1,1,1>6[8:3],,
{8}8,,,,7,7,7/8,,
{16}6,,6,5,,5,7,,3,,3,4,,4,2,,
{2}8-3[8:1]*-5[8:1],2-5[8:1]*-7[8:1],
{16}6,,6,5,,5,7,,3,,3,4,,4,2,,
{16}7,,7,8,,8,6,,1-5[8:1],,1,,8,,,,
{16}3b-8[8:1]/6b-1[8:1],,,,,,,,2h[16:3],,,1,,,3/8,,
{16}3-6[8:1]/8,,,,,,,,7h[16:3],,,8,,,1/6,,
{16}1/6<1[8:1],,,,2,,,,3h[16:3],,,4,,,2/5,,
{16}2>5[8:1]/5,,,,8,,,,7/8,,,4/5,,,1/2,,
{8}3/8,7,1/6,2,3/8,7,1-5[8:1]/6,,
{4}8-4[8:1],1-6[8:1],8-3[8:1],1b,
{16}2,1,2,,2,1,2,,2,8,2,,2,7,2,,
{16}6,5,6,,6,5,6,,6,4,6,,6,3,6,,
{16}3,4,3,,6,5,6,,2,1,2,,7,8,7,,
{4}1w5[4:1],,,3b/7b,
{16}3h[4:1]/4,,,,4h[4:1],,,,3,,,3/5,,,4/6h[4:1],,
{16},,5,,6h[4:1],,,,5,,,4/6,,,3/5,,
{16}3h[4:1]/5,,,,4h[4:1],,,,3,,,3/5,,,4/6,,
{4}4q1[4:1]/6p1[4:1],,,2/7,
{16}4h[8:1]/6h[8:1],,,3h[8:1]/5h[8:1],,,2/4,,3h[8:1]/5h[8:1],,,4h[8:1]/6h[8:1],,,5/7,,
{16}6/7,,,,4/8h[4:1],,,,2h[16:3],,,1,,,1/6,,
{16}1h[16:3]/6,,,2h[16:3],,,3h[16:3],,,4h[16:3],,,5h[16:3],,,6h[16:3],
{16},,7h[16:3],,,8h[16:3],,,1h[16:3],,,8,,,1/2,,
{16}1/2-5[8:1],,,8,,,7,,7-4[8:1],,,1,,,2,,
{16}2-6[8:1],,,7,,,8,,8-4[8:1],,,2,,,1,,
{16}1-5[8:1],,,8,,,7,,7-3[8:1],,,3,,,2,,
{1}1qq5[8:5]/2pp6[8:5],
{4},3b-7[8:1],6b-2[8:1],1b,
{16}3,,3,4,,4,1,,6,,6,5,,5,8,,
{16}1-5[8:1],,2,,3-7[8:1],,,,,,,,1/6,,7,8,
{16}7,,6,5,,5,8,,3,,3,4,,4,1,,
{8}8-4[8:1],7,6-2[8:1],,,,1b/8b,,
{16}2,,2,4,,4,1,,7,,7,5,,5,8,,
{16}1/6,,2,,3/8,,7,,1b/6b,,,,,,7,8,
{8}7h[4:1],,5,4h[4:1]/6,,5,3/6,,
{16}2/5,,2/5,,3/8,,3/8,,2,4,2,4,2b,,,,
{16}3,,3,1,,1,4,,6,,6,8,,8,5,,
{16}4-8[8:1],,3,,2-6[8:1],,,,,,,,4/7,,6,5,
{16}6h[16:3],,,5,,,2/4,,2b/4b,,,4b/5b,,,5b-1[8:1]/7b,,
{16},,8,,8,,,,7,2,7,2,8,1,8,1,
{2}2b-5[8:1]*-7[8:1]/7b,6b-1[8:1]*-3[8:1],
{16}2/4,,1,,8,,7,,4/6,,,3/5,,,2/6,,
{16}3/4,,3/4,,5/6,,5/6,,4,5,3,6,4,5,3,6,
{16}2b/7b,,,5b/6b,,,3b/4b,,3b/4bw8[8:1],,,,,,,,
{16}6h[16:3],,,5,,,4/7,,3h[16:3],,,4,,,2/5,,
{16}6h[16:3],,,5,,,4/7,,7-3[8:1],,1-5[8:1],,,,,,
{16}6h[16:3],,,5,,,4/7,,3h[16:3],,,4,,,2/5,,
{4}2/5<8[8:1],3>8[8:1],4-8[8:1],1,
{16}5/7h[16:3],,,8,,,1/6,,2h[16:3]/4,,,1,,,3/8,,
{16}5/7h[16:3],,,8,,,1/6,,1-5[8:1],,7-3[8:1],,,,,,
{8}1,2,3,4,5/8,7,6,5,
{16}4,5,6,7,8,1,2,3,4/8,,,,2b/6b,,,,
{16}1h[8:1]/2h[8:1],,,1/2,,1/2,,1/2,,3/8,,3/8,,4/7,,4b>5[16:29]/7b,
{8},5b,,,,,,,
{1},
{1}4b,
{1},
{1},
{1},
E
&inote_5=
(162){1},
{1},
{16}7h[16:3]/8,,,5,,,4/6,,1/2h[16:3],,,4,,,3/5,,
{16}7h[16:3]/8,,,5,,,3/6,,1/2,,3,,4/5,,6,,
{16}7h[16:3]/8,,,5,,,4/6,,1/2h[16:3],,,4,,,3/5,,
{4}2-6[8:1]/6-2[8:1],2<4[4:1]/6,4,8b,
{16}2h[8:1]/4h[8:1],,,2/4,,,1/6,,5h[8:1]/7h[8:1],,,5/7,,,3/8,,
{16}2h[8:1]/4h[8:1],,,2/4,,,1/6,,7/8,,6,,4/5,,3,,
{16}1h[8:1]/2h[8:1],,,1/2,,,4/6,,7h[8:1]/8h[8:1],,,7/8,,,3/5s1[4:1],,
{4}5b,,1-4[8:1]/7-2[8:1],1b/7b,
{16}6,5,8,8v5[8:1],,1,,8,,,,,3,4,1,1v4[8:1],
{16},8,,1,,,,,6,5,7,7,3,4,2,2,
{16}6,5,8,8v5[8:1],,1,,8,,,,,3,4,1,1>4[8:1],
{16},8,,1,,,,,7,8,6,6,2,1,3,3,
{16}7,8,5,5v8[8:1],,4,,5,,,,,2,1,4,4v1[8:1],
{16},5,,4,,,,,7,8,6,6,2,1,3,3,
{16}7,8,5,5v8[8:1],,4,,5,,,,,3>8[8:1]/7<4[8:1],,,,
{16},,,,2b/6b,,,,4/8,7,6,5,1/4,2,3,4,
{16}5h[4:1],,,6,6,,1/8,,4h[4:1],,,3,3,,1/8,,
{16}5h[4:1],,,6,6v4[4:1]*V84[4:1],,6,,,,,,,,3b/6b,,
{16}2,2,,1,2,,4/5,,7,7,,8,7,,4/5,,
{16}2V84[4:1],2v4[16:3],,1,2,,,,,,3b/6b,,,,1b/8b,,
{16}7h[4:1],,,6,6,,1/8,,2h[4:1],,,3,3,,4/5,,
{16}7,7,,8,7,,5/6,,3,3,,4,3,,1/2,,
{16}3b/7b,,,,,,8,2,5,3,7,4,8,3,6,1,
{16}7,2,5,3,8,2,6,1,5,4,5,4,6,3,7,2,
{48}8h[16:3],,,,,,,,,1,,,,,,,,,7pp2[8:17],6,5,4,,,,,,,,,,,,,,,,,,,,,,,,,,,
{16}6>3[2:1],,,6,,,,,,,,,,,,,
{16}3<6[2:1],,,3,,,,,,,,,,,,,
{4}3/4,2,5/6,7,
{2}2h[16:3]/3-5[8:1],6h[16:3]/7-1[8:1],
{16}2/7,,,,3/6,,,,4/5,,,5/7,,,2/4,,
{16},,1/8,,4-1[8:1]/5,,,2/4,,2h[16:3],,,8,7,6,5,
{16}2,4,2,5,2,6,2,7,1-5[8:1]/8-4[8:1],,,,1b/8b,,,,
{16}2/8,,,3,3/4,,8,,1/7,,,6,5/6,,1,,
{16}3h[4:1]/7h[4:1],,,,,,2/6,1/5,4b/8b,,,3b/6b,,,1b/8b,,
{16}2/5,3,4,1,2,3,8,1,2,7,8,1,6,7,8,1,
{16}2/6,3/7,4/8,1/5,2-7[8:1]/6-3[8:1],,,,2/6,,,,2b/6b,,,,
{16}7/8,,4,3/5,,8,8,,1/2,,5,4/6,,1,1,,
{16}4/5,,8,1/7,,2,2,,1p4[8:1]/8p4[8:1],,2,,1>7[8:3],,,,
{16}3h[8:3],,,,,,,,1/8,,,3/4<2[16:7],,,5/6,,
{4}7h[8:3],,8w4[8:1],8b,
{16}1/7,,,,3/5,,4,,7,8,,1/5,,3,4,,
{16}2/8,,,,4/6,,5,,2,1,,4/8,,6,5,,
{8}1-5[8:1],3,1/8-4[8:1],6,2-6[8:1]/8,1,2/7-3[8:1],8,
{4}1b-5[8:1]/7,1b<6[8:1]*>4[8:1],1bw5[8:1],1b,
{16}1,1,2,2,3,3,4,4,5,5,6,6,7,7,8,8,
{32}1,,8,,2,,8,,3,,8,,4,,8,,5,6,7,8,1,2,3,4,1b/5b,,,,,,,,
{16}8,1,8,2,8,3,8,4,4b,5,4,6,4-8[8:1],7,4,8,
{4},2b/6b,,,
{16}3h[4:1],,4,,5h[4:1],,,,4,,,4,5,,6h[8:3],,
{16},,5,,4h[4:1],,,,5,,,5,4,,3,,
{16}3h[4:1]/4,,,,5h[4:1],,,,6,,,6,7,,7h[4:1],,
{16},,1,,7-1[16:1]/8-4[16:3],,,,7/8,,,5,,,3,,
{16}1-5[16:1]/8,,,4,,,6,,7-3[16:1]/8,,,4,,,2,,
{16},,1/8,,1/8,,,2/4,,4/5,,5/7h[16:3],,,1,,
{16}8b-4[16:1],,,1b-6[16:1],,,7b-4[16:1],,,2b-5[16:1],,,8b-3[16:1],,,6b-1[16:1],
{16},,4b-7[16:1],,,2b-5[16:1],,,8b-4[16:1],,,6b-2[16:1],,,1,,
{16}8,,,5/6h[16:3],,,8,,1,,,3h[16:3]/4,,,1,,
{16}7/8,,,5/6h[16:3],,,8,,1/2,,,3h[16:3]/4,,,1,,
{16}6/8,,,5/7h[16:3],,,8,,1/3,,,2h[16:3]/4,,,1z5[8:7],,
{1}1b/8b-4[4:3],
{4},3b/6b,1bs5[8:1]/8bz4[8:1],1b/8b,
{16}3,3/4,,1,2/8,,4/5,,6,5/6,,8,1/7,,4/5,,
{16}2,1,3,3,7,8,6,,4pp6[8:1]/5qq3[8:1],,2/7,,4/5,,,,
{16}8h[16:3],,4,4h[16:3],,1,1h[8:1],,2,,7/8,,5/6,,3/4,,
{16}3,4,3,2,3-1[8:1],4,3,2,3-5[8:1]*-7[8:1],,,,,,,,
{16}1h[4:1],,,,8b,,7,5,7,,4/6,,2/4,,2pp6[8:3]/8,,
{16},,2/6,,7,,8,,1h[4:1],,,,8b,,2/7,3/6,
{16}4/5,,1,2/8,,6,6,,1/8,,5,4/6,,2,2,,
{16}3b/7b,,,,,,3/6,3/6,4z8[8:1]/5s1[8:1],,2/7,,4b/5b,,,,
{16}2,1/2,,4,3/5,,1/8,,7,7/8,,5,4/6,,1/8,,
{24}4b/5b,,,4/5,3/6,2/7,1/8,,,1/8,2/7,3/6,4-1[8:1]/5-8[8:1],,,,,,4b/5b,,,,,,
{16}3h[16:3],,8,8h[16:3],,5,5h[8:1],,6b,,,3b/4b,,,2b/7b,,
{32},,,,3b,,2/4,,1/5,,,,7b,,6/8,,1/5<8[32:3],,,,5,,,,1,2,3,4,1,2,3,4,
{16}1h[8:3]/5b,,,,,,8,3,6,2,5,4,7,1,8,3,
{32}4/5,,,,2/7,,,,1/5,8,7,6,5,4,3,2,1b/8b,,,,,,2/4,,,,,,5/7,,,,
{16}3,4,2,2,6,5,7,7,3,4,1,1,6,5,8,8,
{16}1b-6[16:1],,,1b/8-4[16:1],,,2-5[16:1]/8b,,,2b/7,,,1b/8b,,,,
{16}8,8,,1/7,,6,5/6,,1,1,,2/8,,3,3/4,,
{16}8,8,,1/7,,6,5/6,,1/2,,3,,4/5,,6,,
{16}7,7,,6/8,,4,4/5,,2,2,,1/3,,5,4/5,,
{4}1v4[8:1]/7v4[8:1],1b/7b,4v1[8:1]*v7[8:1],4b,
{16}2,1/2,,3/8,,5/6,5/6,,7,7/8,,1/6,,3/4,3/4,,
{16}2,1/2,,3/8,,5/6,5/6,,7/8,,1/2,,3/4,,5/6,,
{16}1,7,3,6,2,8,4,7,1,6,3,5,2,6,3,7,
{32}4/8,,5,,6,,7,,4/8,,1,,2,,3,,4-8[8:1]/8,5,6,7,8,1,2,3,4b/8b,,,,,,,,
{16}2/7,2/7,,5/6,,3/4,,5/7,,2/4,,5/8,,1/8,1s5[4:1]/8,1>8[16:29]/8,
{8},1b,,,,,,,
{1},
{1},
{1},
{1},
E
&inote_6=
(162){1},
{48},,,,,,,,,,,,,,,,,,,,,,,,8h[4:1],,,,,,1,2,3,4,5,6,7b,,,,,,,,,,,,
{16}7,7h[8:1],,8,,5,4,5,2,2h[8:1],,1,,4,5,4,
{16}7,7h[8:1],,8,,5,4-2[8:1],5,2-6[8:1],,6-1[8:1],,7,,8,,
{16}7,7h[8:1],,8,,5,4,5,2,2h[8:1],,1,,4,5,4,
{48}6h[4:1],,,,,,,,,,,,1b,2,3h[24:5],,,,,,,,,,8b,7,6,,,,,,,2b,3,,,,,,,,6b,5,,,,,
{16}2,2h[8:1],,1,,3,5,3,7,7h[8:1],,8,,6,4,6,
{16}2,2h[8:1],,1,,3,5-7[8:1],3,7-3[8:1],,3-8[8:1],,2,,1,,
{16}2,2h[8:1],,1,,3,5,4,7,7h[8:1],,8,,6,4,5,
{4}3q6[8:5],,7-3[8:1],7b,
{16}3,4,3,4-8[8:1],,5,,6,,,,,2,1,2,1-5[8:1],
{16},8,,7,,,,,6,5,7,7,3,4,2,2,
{16}6,5,6,5-1[8:1],,4,,3,,,,,7,8,7,8-4[8:1],
{16},1,,2,,,,,2,7,1,8,2b/7b,,,,
{16}5,4,6,5-1[8:1],,4,,3,,,,,8,1,7,8-4[8:1],
{16},1,,2,,,,,3,4,2,2,6,5,7,7,
{16}4,5,3,4-8[8:1],,5,,6,,,,,1,8,1,8,
{16}4h[16:3]/8h[16:3],,,,2h[16:3]/6h[16:3],,,,1/5h[16:3],2,3,4,1h[16:3]/5,6,7,8,
{16}1h[16:3]/5,,,8,1h[8:1],,7,,1h[16:3]/7,,,6,1h[8:1],,5,,
{16}1h[16:3]/5,,,3,1h[8:1],,4,,1-5[8:1]/4-8[8:1],,,,,,,,
{16}4/8h[16:3],,,1,8h[8:1],,2,,2/8h[16:3],,,3,8h[8:1],,4,,
{16}4/8h[16:3],,,6,8h[8:1],,5,,5/8,,1b/4b,,,,2/7,,
{16}2V48[4:1],,,4,2/4,,6,,7V51[4:1],,,5,5/7,,3,,
{16}3V15[4:1],,,1,1/3,,7,,6V84[4:1],,,8,6/8,,2,,
{16}1h[8:3],,,,,,8,8,1,8,2,7,3,6,2,5,
{48}1,,,6,,,2,,,7,,,3,,,8,,,4,,,1,,,3,,4,,5,,8,,7,,6,,1,,2,,3,,7,,6,,5,,
{48}4b/8b,,,,,,,,,,,,,,,,,,2,3pp6[48:161],4,5,,,,,,,,,,,,,,,,,,,,,,,,,,,
{16}8-3[16:1],,,8,,,,,,,,,,,,,
{16}6-1[16:1],,,6,,,,,,,,,,,,,
{4}1,7,5,3,
{16}1-5[8:1],,,1h[16:5],,,,,8-4[8:1],,,8h[16:5],,,,,
{16}1,,,,4/5,,,,1/3,,,4/5,,,6/8,,
{16},,2/7,,3/6,,,3/4,,5/6,,,6,5,4,3,
{16}2,5,2,6,2,7,2,8,1-5[8:1]/2-8[8:1],,,,1b/2b,,,,
{16}3h[16:3]/7,,,4,3/4,,1,,2/6h[16:3],,,5,5/6,,8,,
{16}3h[4:1]/7h[4:1],,,,,,3/7,2/6,1/5,,,3/4,,,6/8,,
{16}1/8,2,3,2/4,3,4,3/5,4,5,4/6,5,6,2b/7b,,1/8,,
{16}3,8,2,5,1,1,6,4,7,7,4,4,5,5,2,2,
{16}7,6,5,8,7,6,8h[8:1],,2,3,4,1,2,3,1h[8:1],,
{48}5,,,1,,,6,,,2,,,7,,,3,,,8,,,4,,,1/5,,,,,,3/7,,,,,,6,,5,,4,,3,,,,,,
{16}1h[4:1]/4-8[8:1],,,,,,,,4/5,,3,2/4,,6,5/7,,
{24}5-1[8:1]/8h[2:1],,,,,,,,,,,,1,2/7,3/6,4/5,,,2b/7b,,,,,,
{16}2/5,,3,4,3,,1/2,,2/8h[8:1],,1,2h[8:1]/8,,1,2/8h[8:1],,
{16}4,,6,5,6,,7/8,,1h[8:1]/7,,8,1/7h[8:1],,8,1h[8:1]/7,,
{16}7,7,5,5,4,4,1,1,2,2,4,4,5,5,8,8,
{4}7-3[8:1],7b/8-4[8:1],1w5[8:1]/8b,1b,
{16}1,8,3,4,2,5,3,4,2,1,3,5,4,6,5,7,
{16}1,1,8,2,7,1,6,8,5,5,3,4,5,6,3,3,
{32}7,,5,,8,,8,,2,,4,,1,,1,,8,7,6,5,8,7,6,5,1,2,3,4,1,2,3,4,
{4}1w5[8:1]/5,1b,,3/7,
{16}6,,5,,4/6,,,,3h[16:3]/6,,,4h[16:3],,,5,,
{16}5-1[8:1],,,,6,,6,,6,5,4,3,2,1,8,7,
{16}3,4,2,2,6,5,7,7,2,3,4,8,7,6,1/5,,
{24}1,8,1,8,1,8,1,8,1,8,1,8,1,8,1,8,1,8,1-5[16:1],,,,,,
{16}1b/6,,,4b/7-3[16:1],,,1/7b,,2b-5[16:1],,,2b/6-2[16:1],,,6b/7-4[16:1],,
{16},,1/7b,,2b-5[16:1],,,7b-3[16:1],,6b,,5b-8[16:1],,,1b,,
{16}1b-5[16:1],,,1b/6-4[16:1],,,3-7[16:1]/6b,,,3b/8-2[16:1],,,3-5[16:1]/8b,,,3b/6-2[16:1],
{16},,1-7[16:1]/6b,,,1b/4-8[16:1],,,3-1[16:1]/4b,,,3b/5-7[16:1],,,5b/8b,,
{16}1h[16:3],,,2h[16:3],,,3,,7h[16:3],,,6h[16:3],,,5,,
{16}1/2h[16:3],,,3h[16:3],,,4,,1/8h[16:3],,,7h[16:3],,,6,,
{16}1h[8:1]/8h[8:1],,,2h[8:1]/3h[8:1],,,1/2,,7h[8:1]/8h[8:1],,,5h[8:1]/6h[8:1],,,6/7,,
{1}4qq1[4:3]/8qq5[4:3],
{4},1>4[8:1]/5<8[8:1],1-6[8:1]/5-2[8:1],1b/5b,
{16}2-6[8:1],1,,1,2,,8,,7-3[8:1],8,,8,7,,1,,
{48}2/5,,,,,,2/5,,3/6,,4/7,,5/8,,,,,,4/7,,3/6,,2/5,,1/4h[8:3],,,,,,,,,,,,8,,,,,,5,,,4,,,
{48}5-1[8:1],,,,,,6,,,6,,,,,,8,,,8<5[8:1],,,,,,2/7,,,,,,1,,2,,3,,4,,,,,,3/6,,,,,,
{24}4/7,,,4/7,3/6,2/5,1/4,,,2/5,3/6,4/7,5h[4:1]/8,,,,,,2,3,4,5,6,7,
{16}1-5[8:1]/8-4[8:1],,,,1b/8b,,,,2,4,3,5,4,6,5,7,
{32}6h[8:1],,,,8,7,6,5,4h[8:1],,,,1,2,3,4,5h[4:1],,,,,,,,8b,,,,4/8,,,,
{16}3,4,2,2,6,5,7,7,3,5,2,7,4,6,1,5,
{32}2/6h[2:1],,,,2,,,,2,,,,2,,,,8,7,6,5,4,3,2,1,4b/8b,,,,,,,,
{16}2<7[8:1],4,3,5,2,,6,,7>2[8:1],5,6,4,7,,3,,
{24}2/5,3/6,4/7,5h[8:1]/8,,,1,2,3,1/4,2/5,3/6,4>1[8:1]/7<4[8:1],,,,,,4b/7b,,,,,,
{16}2/7,,3,2/4,,6,5/7,,1/8,,2,1/3,,7,6/8,,
{32}1/8,,,,2,,1,,3/8,,,,7,,8,,1/6h[4:1],,,,1,,,,8,7,6,5,4/8,3/7,2/6,1/5,
{16}4h[4:1]/8h[4:1],,,,,,1,5,2,6,3,7,4,8,2,6,
{16}3,3,5,4,7,7,5,6,2b/5b,,8,4b/7b,,1,2b/5b,,
{16}1/8,,2/3,,4/5,,6/7,,3,7,2,6,1,5,8,4,
{32}3h[8:3]/7h[8:3],,,,,,,,,,,,,,,,3/7,4/8,1/5,2/6,3/7,4/8,1/5,2/6,3b/7b,,,,,,,,
{16}7,7,,7/8,,6,4,5,2,2,,1/2,,3,5,4,
{16}7,7,,7/8,,6,4-2[8:1],5,2-6[8:1],,4/6-1[8:1],,7,,8,,
{16}7,7,,7/8,,6,4,5,2,2,,1/2,,3,5,4,
{48}6h[4:1],,,,,,,,,,,,1b,2,3h[24:5],,,,,,,,,,8b,7,6,,,,,,,2b,3,4,,,,,,,6b,5,4,,,,
{16}2,2h[16:1],,1/2,,3,6,5,7,7h[16:1],,7/8,,6,3,4,
{16}2,2h[16:1],,1/2,,3,6-8[8:1],5,8-4[8:1],,4-1[8:1]/6,,3,,2,,
{16}3,5,4,6,3,5,2,4,3,7,5,6,2,2,6,6,
{24}3,4,3,5,4,5,2,4,2,6,4,6,1,5,1,5,1,5,2b/6b,,,,,,
{16}1/8,1/8,,2/3,,3/4,,4/5,,5/6,,6/7,,1/8,1/8,1/8<1[16:29]*z4[16:3],
{8},1b/8b,,,,,,,
{1},
{1},
{1},
{1},
E
