&title=金の聖夜霜雪に朽ちて
&wholebpm=185
&artist=デッドボールP
&des=サファ太
&shortid=801
&genre=niconicoボーカロイド
&cabinet=SD
&version=maimai FiNALE
&chartconverter=Neskol
&lv_2=6
&des_2=-
&lv_3=8+
&des_3=-
&lv_4=11+
&des_4=はっぴー
&lv_5=13
&des_5=サファ太
&des_6=
&inote_2=
(185){1},
{1},
{1},
{1},
{1},
{1},
{2}1,1,
{2}2,2,
{2}3,3,
{1}4h[2:1],
{2}5,5,
{2}6,6,
{2}7,7,
{1}8h[2:1],
{4}1,1,1,,
{4}2,2,2,,
{4}3,3,3,,
{4}4,5,4,,
{4}5,5,5,,
{4}6,6,6,,
{4}7,7,7,,
{4}1/8,1/8,1b/8b,,
{2}2,1,
{1}1/2,
{2}7,8,
{1}7/8,
{2}6,5,
{1}5/6,
{2}3,4,
{1}3/4,
{2}3,3,
{1}4,
{1}3h[2:1],
{1}4h[2:1],
{2}6,6,
{1}5,
{1}6h[2:1],
{1}5,
{2}6,6,
{1}5,
{1}4h[2:1],
{1}3h[2:1],
{2}2,2,
{1}1,
{1}8h[2:1],
{1}7,
{1}8-5[4:3],
{1},
{1}1h[8:7]/8h[8:7],
{1},
{4},8,,8,
{4},1,,1,
{4},8,,8,
{4},1,,1-4[4:3]/8-5[4:3],
{1},
{1},
{4}6,6,5/6,,
{4}3,3,3/4,,
{4}6,6,5/6,,
{4}4/5,4/5,3/6,,
{4}2,2,1/2,,
{4}7,7,7/8,,
{4}2,2,1/2,,
{4}1/8,1/8,2/7,,
{4}3,3,3/4,,
{4}6,6,5/6,,
{4}3,3,3/4,,
{4}4/5,4/5,3/6,,
{4}7,7,7/8,,
{4}2,2,1/2,,
{4}7,7,7/8,,
{4}1/8,1/8,2/7,,
{1}6h[1:1],
{1},
{1}5h[1:1],
{1},
{4}4,4,4,,
{2}3/4,3/4,
{4}5,5,5,,
{2}5/6,5/6,
{4}7,7,7,,
{2}7/8,7/8,
{4}1,1,1,,
{2}1/2,1/2,
{1}1-4[4:3],
{1},
{1}8-5[4:3],
{1},
{4}6,6,6,,
{1}5h[2:1],
{4}4,4,4,,
{1}3b/4b,
{4}4,4,3,3,
{4}2,2,1/2,,
{4}7/8,7/8,7/8,,
{4}1/2,1/2,1/2,,
{4}8,8,7,7,
{4}6,6,5/6,,
{4}3/4,3/4,3/4,,
{4}5/6,5/6,5/6,,
{4}5,5,6,6,
{4}7,7,7/8,,
{4}1/2,1/2,1/2,,
{4}7/8,7/8,7/8,,
{4}1,1,2,2,
{4}3,3,3/4,,
{4}5,5,5-8[1:1],,
{1},
{8},,,,,8,,,
{8},,8,,,,,8,
{2},8h[4:3],
{1},
{1},
{1},
E
&inote_3=
(185){1},
{1},
{1}3h[1:1],
{1}4h[1:1],
{1}5h[1:1],
{2}6,5/6,
{2}7,7/8,
{4}7,7,1/8,,
{2}2,1/2,
{4}2,2,1/8,,
{1}1-4[2:1],
{1}5-8[2:1],
{1}1pp4[4:5]/8qq5[4:5],
{1},
{4}5/6,5/6,3/4,3/4,
{4}5,4,3/6,,
{4}3,3,4,4,
{4}5,5,4/5,,
{4}7/8,7/8,1/2,1/2,
{4}8,1,2/7,,
{4}2,2,1,1,
{4}8,8,2/7,,
{4}6,5,5/6,,
{4}3,4,3/4,,
{4}3,4,6,5,
{4}4/5,4/5,3/6,,
{4}7,8,7/8,,
{4}2,1,1/2,,
{4}2,1,7,8,
{4}1/8,1/8,2b/7b,,
{4}8,7,6,5,
{4}4,3,3/4,,
{4}4,4,3,3,
{4}2,2,1/2,,
{4}1,2,3,4,
{4}5,6,5/6,,
{4}5,5,6,6,
{4}7,7,7/8,,
{2}5h[4:1]/6h[4:1],5/6,
{4}6,5,4/5,,
{2}3h[4:1]/4h[4:1],3/4,
{4}3,4,4/5,,
{2}1h[4:1]/2h[4:1],1/2,
{4}2,1,1/8,,
{2}7h[4:1]/8h[4:1],7/8,
{4}2,1,1/8,,
{1}1-4[2:1],
{1}8-5[2:1],
{1}3-6[2:1],
{1}7-2[2:1],
{4}2,2,1/2,,
{4}7,7,7/8,,
{4}6,6,5/7,,
{4}8,8,1>4[2:1]/8<5[2:1],,
{8},,,,,,,5-8[2:1],
{1},
{4}2,2,1/2,1/8,
{4}7,7,1/8,,
{4}2,1/2,7,7/8,
{4}1/8,2/7,3b/6b,,
{4}6,6,5/6,4/5,
{4}3,3,4/5,,
{4}6,5/6,3,3/4,
{4}4/5,3/6,2b/7b,,
{4}7,7,7/8,1/8,
{4}2,2,1/8,,
{4}7,7/8,2,1/2,
{4}1/8,2/7,3b/6b,,
{4}3,3,3/4,4/5,
{4}6,6,4/5,,
{4}3,3/4,6,5/6,
{4}4/5,3/6,2b/7b,,
{1}6h[1:1],
{1}5h[1:1],
{1}4h[1:1],
{2}3,3/4,
{4}2,2,1,1,
{4}8,8,1/8,,
{4}7,7,6,6,
{4}5,5,4/5,,
{4}4,3,2,1,
{4}8,7,6,5,
{4}4,3,3/4,3/4,
{4}5,6,5/6,,
{1}7-2[2:1],
{1}3-6[2:1],
{4}6,6,5,5,
{4}4,5,3b/6b,,
{4}2,1,2,1/8,
{4}7,8,7,1/8,
{4}1,1,8,8,
{2}1h[4:1]/8h[4:1],2b/7b,
{4}2,1,1/2,3/8,
{4}7,8,1/8,,
{4}2,1/2,7,7/8,
{4}1/8,2/7,3b/6b,,
{4}6,6,5/6,4/5,
{4}3,3,4/5,,
{4}6,5/6,3,3/4,
{4}4/5,3/6,2b/7b,,
{4}7,8,7/8,1/2,
{4}2,1,1/8,,
{4}7/8,7/8,1/2,1/2,
{4}1/8,2/7,3b/6b,,
{4}3,4,3/4,5/6,
{4}6,6,4/5,,
{4}3/4,3/4,5/6,5qq2[4:5]/6pp1[4:5],
{1},
{8},,,,,2h[8:5],,,
{8},,1h[8:5],,,,,8h[8:5],
{2},7h[4:3],
{1},
{1},
{1},
E
&inote_4=
(185){1},
{1},
{4},8,,8,
{4},8,,8,
{4},8,,8,
{4},8,,2/7,
{4}6,5/7,3,2/4,
{4}6,5/7,4,2/6,
{4}3,2/4,6,5/7,
{4}3,2/4,6<3[8:3],,
{4},,3,2/4,
{4}6,5/7,2,3,
{4}4,5,6,7,
{4}8,1,2/7,,
{8}2h[4:1]/7h[4:1],,,2/7,2/7,,4/5,4/5,
{8},3/6,,8,8,,2,2h[2:1],
{8},,,1,1,,5/7,5/7,
{8},2/4,,1/8,1/8,,2/7,2h[8:3]/7h[8:3],
{8},,,2/7,2/7,,4/5,4/5,
{8},3/6,,1,1,,7,7h[2:1],
{8},,,8,8,,2/4,2/4,
{8},5/7,,1/8,,4/5,,2/7h[8:3],
{4},5,2h[4:1],4,
{4}7h[4:1],5,1/8,3/6,
{4}2h[4:1],4,7h[4:1],5,
{4}2h[4:1],4,1/8,2/7,
{4}6h[4:1],8,3h[4:1],1,
{4}6h[4:1],8,4/5,2/7,
{4}3h[4:1],1,6h[4:1],8,
{8}3h[4:1],,1,,2/8,2/8,,1h[4:1]/7h[4:1],
{8},,,4/6,,3/5,,6<3[2:1],
{8},,,,,,,1,
{8}1,,8,8,,4>1[4:1]/5<8[4:1],,,
{8},,,1/8,1/8,,6>3[4:1],,
{8},,2,2,,7,,1h[8:3],
{8},,8,8,,4>1[4:1]/5<8[4:1],,,
{8},,,,1/8,1/8,,5/7,
{8},4/6,,3/5,,2/4,,,
{8}1h[4:1]/7h[4:1],,,3/5,,4/6,,3>6[2:1],
{8},,,,,,,8,
{8}8,,1,1,,1-5[4:1]/8-4[4:1],,,
{8},,,1/8,1/8,,3<6[4:1],,
{8},,7,7,,1,,8h[2:1],
{8},,1,1,,4>1[4:1]/5<8[4:1],,,
{8},,,,1/8,1/8,,2/4,
{8},3/5,,4/6,,5/7,,,
{8}6h[2:1],,,5,5,,4/7,,
{8}3h[2:1],,,4,4,,2/5,,
{8}6h[4:1],,4,4h[4:1],,5<4[8:5],,,
{8},,,,,,,3h[4:1]/4h[4:1],
{8},,3/4,,2/5,,,5h[4:1]/6h[4:1],
{8},,5/6,,4/7,,,3h[4:1]/4h[4:1],
{8},,3/4,,1/5,,,5h[4:1]/6h[4:1],
{4},5/6,4/8<1[4:3],,
{1},
{6},8,8,8,1,1,
{8}1h[4:1]/8h[4:1],,,1/8,2/7,,5/6,5/6,
{8},4/7,,1,1,,7,7h[2:1],
{8},,,8,8,,2/4,2/4,
{8},5/7,,4/5,4/5,,1/8,1h[8:3]/8h[8:3],
{8},,,2/7,3/6,,3/4,3/4,
{8},2/5,,8,8,,2,2h[2:1],
{8},,,1,1,,5/7,5/7,
{8},2/4,,1/8,,3/6,,7h[8:3]/8h[8:3],
{8},,,1/6,2/5,,1/2,1/2,
{8},4/7,4/7,,2,,7,7h[8:3],
{8},,8,,4/6,,2/4,2/4,
{8},5/7,,8,1/8,,1/2,1h[8:3]/2h[8:3],
{8},,,3/8,4/7,,7/8,7/8,
{8},2/5,2/5,,7,,2,2h[8:3],
{8},,1,,3/8,,5/7,5/7,
{8},2/4,,1,1/8,,2b/7b<1[1:1],,
{1},
{4},,,1>7[1:1],
{1},
{8},,,,,,,2/7h[2:1],
{8},,,5,5,,,3,
{4}3h[4:1],1h[4:1],8h[4:1],6h[4:1],
{8}3,,,3,,2/4,,6,
{8},5/7,5/7,,2/4,2/4,,,
{8}1,1,8,1/8,,5/7,,4-1[4:1]/5,
{8},,,8,8-5[4:1],,,,
{4}4,3,2h[4:1],1,
{4}8,7,6h[4:1],5,
{4}5h[4:1],6h[4:1],7h[4:1],8h[4:1],
{4}1h[4:1],2h[4:1],3h[4:1],4,
{4}5,6,7h[4:1],8,
{4}1,2,3h[4:1],4,
{2}8-4[4:1],1-5[4:1],
{8}6,6,5,5,4,4,3,3q5[4:3],
{1},
{4},4/5,2/7,,
{8}1h[4:1]/8h[4:1],,,1/8,2/7,,5/6,5/6,
{8},4/7,4/7,,1,,7,7h[2:1],
{8},,,8,8,,2/4,2/4,
{8},5/7,,2/8,2/8,,1/7,1h[8:3]/7h[8:3],
{8},,,2/6,3/5,,3/4,3/4,
{8},2/5,2/5,,8,,2,2h[2:1],
{8},,,1,1,,5/7,5/7,
{8},2/4,,1/7,1/7,,2/8,2h[8:3]/8h[8:3],
{8},,,3/7,4/6,,1/2,1/2,
{8},4/7,4/7,,1,,7,7h[8:3],
{8},,8,,3/7,,2/4,2/4,
{8},5/7,,8,1/8,,1/7,1h[8:3]/7h[8:3],
{8},,,2/6,3/5,,7/8,7/8,
{8},2/5,2/5,,8,,2,2h[8:3],
{4},1,3>6[4:5]/4,,
{1},
{8},,,,,8-5[8:3],,,
{8},,1-4[8:3],,,,,8-4[8:3],
{2},1h[4:3],
{1},
{1},
{1},
E
&inote_5=
(185){1},
{4},,,4,
{4}4h[4:13]/6,8,,8,
{4},8,,8,
{4},8,,8,
{4},8w4[4:1],,,
{2}5-2[8:1]/6h[4:1],3h[4:1]/4-7[8:1],
{8}5-2[8:1]/6h[4:1],,,,3,3,2/4,,
{2}5-2[8:1]/6h[4:1],3h[4:1]/4-7[8:1],
{8}8,,1/7,1-4[8:1]/7-4[8:1],,,,2b/8b,
{4},3/4,5>2[8:1]/6h[4:1],,
{8}3h[4:1]/4<7[8:1],,,,2,2q4[8:5],1,8h[8:5],
{8},,,,,8>6[2:1],,4,
{2},1b/7b,
{8}3>8[8:1]/4,,7,6,5<8[8:1],,1,1w5[8:1],
{8},,,3/7,3/7,,2/5,2h[4:1]/5,
{8},4h[4:1],,5,5,,4/6,4-1[8:1]/6,
{8},7-4[8:1],,2,2,3>6[8:3],4,5h[8:3],
{8},,,5,4/6-1[8:1],,2,2-5[8:1],
{8},8,,1,1,2/8<5[8:1],,3>8[8:1],
{8},7,,6,4/5,3,2/4,2-5[8:1]/4-7[8:1],
{8},,,1/8,,7<1[8:5],1,1,
{4},,,2>8[2:1]/8,
{4},,,1/2,
{8}6,6,4h[4:1],,5,5,3h[4:1],,
{8}4,3/4,,2-5[8:1]/5,,6-1[8:1],,3,
{8},2/8,2/8,,3,3,5h[4:1],,
{8}4,4,6h[4:1],,5,5>1[8:3]/6,,7,
{8},,,,3/4,3/4<8[8:3],,2,
{8},,1,1-5[8:1],,8,,6h[4:1],
{8},5,5/6,,3,3,2/4,,
{8}6,6,5-2[8:1]*-8[8:1]/7,,,,1,,
{8}5/6h[4:1],,5,4/7-4[8:1],,3-8[8:1],,6,
{8},1/7,,3/8,3/8-4[8:1],,2,,
{8}3,3,2h[4:1]/4,,5,5,4/6h[4:1],,
{8}5,,7/8,7-3[8:1]/8,,1>6[8:3],,,
{8},,,,2/7,2h[4:1]/7,,4h[4:1],
{8},6h[4:1],,8,,1/7,,,
{8}2,2,1/3,,6,6,5/7,,
{8}3,3,2/4-1[8:1]*-7[8:1],,,,8,,
{8}3/4h[4:1],,3,2-5[8:1]/5,,6-1[8:1],,3,
{8},2/8,,1/6,1-5[8:1]/6,,7,,
{8}6,6,5/7h[4:1],,4,4,3h[4:1]/5,,
{8}4,,1/2,1/2-6[8:1],,8<3[8:3],,,
{8},,,,2/7,2/7h[4:1],,5h[4:1],
{8},3h[4:1],,1,,2/8,,,
{2}3pp5[2:1]/4h[4:1],7,
{2}5h[4:1]/6q4[2:1],2,
{8}2h[4:1]/6h[4:1],,,1<6[4:1]/7,,6>3[4:1],,3>8[4:1],
{8},8w4[4:1],,,,,,3h[4:1]/5h[4:1],
{8},,4/6-1[8:1],,5,,,2h[4:1]/8h[4:1],
{8},,1/7<4[8:1],,8,8,1,2h[4:1]/6h[4:1],
{8},,3>8[8:1]/7,,4,4,,1h[4:1]/8h[4:1],
{8},,2/7,,4/5,4>5[8:5]/5<4[8:5],,,
{8},,,,,,4/5,4/5,
{6},6b,3b,7b,2b,1b/8b,
{8}4>8[16:3]/8,,6,5,4-8[8:1],,1,1w5[8:1],
{8},,,3/7,3/7h[4:1],,5,5-1[8:1],
{8},7-3[8:1],,2,2,1,8,3-8[8:1]/7-4[8:1],
{8},,,1/6,7,3/8<3[8:3],2,2h[8:3],
{8},,,2,1/2>5[8:1],,8,8w4[8:1],
{8},,,2/6,2/6h[4:1],,5,5-2[8:1]/6,
{8},8-5[8:1],,1,1,3,5,2-5[8:1]/7-3[8:1],
{8},,,1b/8b,,4/5,6,5/7V51[4:1],
{8},,3,4,5>1[16:3],,8,8w4[8:1],
{8},,,2/6,2h[4:1]/6,,4,4-7[8:1],
{8},1-4[8:1],,8,8,6,4,3-8[8:1]/7-4[8:1],
{8},,,1/6,2,3pp8[8:3]/8,7,7h[8:3],
{8},,,7,7<4[8:1]/8,,1,1w5[8:1],
{8},,,3/7,3h[4:1]/7,,4,3/4<7[8:1],
{8},1,1,8,7,7-4[8:1],1,1-5[8:1],
{8},6-1[8:1],,4,,3/8,3b/8b,,
{4}4h[4:7],5,,5,
{4},3,,3,
{4}3/5h[4:5],4,,4,
{16},,,,6,,,,4/7,,6,5,6,,2h[8:3]/5h[8:3],,
{16},,,,,,3/6,,4h[4:1]/7h[4:1],,,,,,6,5,
{16}6-1[8:1],,,,3,,3,,,,2,1,2,,3/8,,
{8}3-6[8:1]/8,,7,7-4[8:1],,1>4[8:1],,6<1[8:1],
{8},3,3V51[4:1],,8,8,,,
{8}5/7,5/7,6,3,2/4,2>5[8:1]/4,,8-4[8:1],
{8},1,1,,6,5,4/7,,
{16}4,5h[16:3],,,2h[16:3],,,4h[16:3],,,3h[16:3],,,7h[16:3],,,
{16}5h[16:3],,,6,,,7/8,,7h[16:3]/8,,,2,,,1/2,,
{16}2,3,4,5,8,7,6,5,1,2,3,4,7,6,5,4,
{16}2,3,4,5,8,7,6,5,8,1,2,3,4/8,,,,
{16}6h[16:3],,,5,,,4/7,,3h[16:3],,,4,,,2>5[8:1]/5,,
{8},7,7V15[4:1],,3,3,,,
{16}6,,6,5,,5,7,,2,1,3,,7,8,6,,
{16}2,5,2,5,4,7,4,7,5,6,5,,4/7,,3,,
{16}2/5,,3,4,,,1/8,,4/7,,6,5,,,2/6,,
{32},,,,4/8,,,,4h[4:1]/8,,,,,,,,8b-4[8:1],7,6,5,4,3,2,1,,,,,,,,,
{8}2/5<1[16:3],,3,4,5p1[8:1],,8,8w4[8:1],
{8},,,2/6,2h[4:1]/6,,1,1/2>5[8:1],
{8},7>2[8:1],,4,4,5,6,3/7-2[8:1]*-4[8:1],
{8},,,3/8,7,3/6<4[8:3],2,2h[8:3],
{8},,,2,2>5[8:1]/5,,8,8w4[8:1],
{8},,,2/6,2h[4:1]/6,,1,1<6[8:1]/2,
{8},4>1[8:1],,5,5,6,4,2-6[8:1]/7-4[8:1],
{8},,,3b/8b,,4/5,6,7V51[4:1]/8,
{8},,3,4,5>1[16:3],,8,8w4[8:1],
{8},,,2/6,2h[4:1]/6,,1,1/2q6[8:1],
{8},5q1[8:1],,3,3,8,7,2/6-1[8:1]*-3[8:1],
{8},,,2/5,3,4pp8[8:3]/8,7,7h[8:3],
{8},,,7,7p2[8:1]/8,,1,1w5[8:1],
{8},,,3/7,3/7<4[8:1],2,1,1-5[8:1],
{8},6,6,,3/5,3qq8[8:9]/5pp8[8:9],,,
{1},
{8},,,,,6pp6[16:13],,,
{32},,,,,,,,2h[32:19],,,,,,,,,,,,,,,,,,,5pp4[32:37],,,,,
{32},,,,,,,,,,,,,,,3h[32:25],,,,,,,,,,,,,,,,,
{1},
{1},
{1},
E
