&title=結ンデ開イテ羅刹ト骸
&wholebpm=169
&artist=ハチ
&des=緑風 犬三郎
&shortid=809
&genre=niconicoボーカロイド
&cabinet=SD
&version=maimai FiNALE
&chartconverter=Neskol
&lv_2=5
&des_2=-
&lv_3=7+
&des_3=-
&lv_4=11
&des_4=サファ太
&lv_5=12
&des_5=緑風 犬三郎
&lv_6=13
&des_6=玉子豆腐
&inote_2=
(169.3){1},
{1},
{1},
{1},
{1},
{2}1,1,
{2}2,2,
{2}3,3,
{2}4,4/5,
{1}5-8[4:3],
{1},
{4}1,1,1,,
{4}2,2,2,,
{4}3,3,3,,
{4}4,4,4/5,,
{4}5,5,5,,
{4}6,6,6,,
{4}7,7,7,,
{4}8,8,1/8,,
{1}1-4[4:3],
{1},
{2}4,4,
{4}3,3,3,,
{2}2,2,
{4}1,1,1,,
{2}8,8,
{4}7,7,7,,
{2}6,6,
{4}5,5,4/5,,
{1}4h[2:3]/5h[2:3],
{1},
{2}3,3/4,
{4}5,5,5,,
{2}6,5/6,
{4}4,4,3/4,,
{2}2,1/2,
{4}8,8,8,,
{2}7,7/8,
{4}1,1,1/2,,
{1}1-4[4:3],
{1},
{1}5-8[4:3],
{1},
{1}7-2[4:3],
{1},
{1}3-6[4:3],
{1},
{4}6b,6,5/6,,
{4}5,5,4/5,,
{4}4,4,3/4,,
{2}3/4,4/5,
{4}3,3,3/4,,
{4}4,4,4/5,,
{4}5,5,5/6,,
{2}4/5,5/6,
{4}7,7,7/8,,
{4}8,8,1/8,,
{4}1,1,1/2,,
{2}1/2,1/8,
{4}2,2,1/2,,
{4}1,1,1/8,,
{4}8,8,7/8,,
{2}1/8,7/8,
{1}1h[1:1]/8h[1:1],
{1},
{1}2h[1:1]/7h[1:1],
{1},
{1}3h[1:1]/6h[1:1],
{1},
{1}4h[1:1]/5h[1:1],
{1},
{1}5-1[4:3],
{1},
{1}1h[1:1],
{1},
{1}8-4[4:3],
{1},
{1}4h[1:1],
{1},
{4}5,5,5,,
{4}6,6,6,,
{4}7,7,7,,
{4}8,8,1/8,,
{4}1,1,1,,
{4}2,2,2,,
{4}3,3,3,,
{4}4,5,4/5,,
{1}4h[2:3]/5h[2:3],
{1},
{1}4b/5b,
{1},
{1},
{1},
E
&inote_3=
(169.3){1},
{1},
{1},
{1},
{1},
{4}3,4,4/5,,
{4}6,5,4/5,,
{4}3,3,4,4,
{4}5,4,4/5,,
{1}4h[4:7]/5h[4:7],
{1},
{4}3,3,3/4,,
{4}6,6,5/6,,
{4}3,4,5,6,
{4}4/5,4/5,3/6,,
{4}7,7,7/8,,
{4}2,2,1/2,,
{4}7,8,1,2,
{4}1/8,1/8,2/7,,
{1}8-5[2:1],
{4}4,5,4/5,,
{2}3h[2:1],4,
{4}3,4,3/4,,
{2}6h[2:1],5,
{4}6,5,5/6,,
{2}3h[2:1],4,
{4}3,4,3/4,,
{2}6h[2:1],5,
{4}5,4,3/6,,
{4}2,2,1,1,
{4}8,8,7b/8b,,
{4}7,8,7,8,
{4}1,2,1/2,,
{4}2,1,2,1,
{4}8,7,7/8,,
{4}7,8,7,8,
{4}1,2,1/2,,
{4}2,1,8,7,
{4}8,1,1/8,,
{1}2h[1:1],
{1}3h[1:1],
{1}4h[1:1],
{2}5,4/5,
{1}6h[1:1],
{1}7h[1:1],
{1}8h[1:1],
{4}1,8,1/8,,
{4}1/2,1/2,3/8,1/2,
{4}7/8,7/8,1/6,7/8,
{4}6,5,4,3,
{4}2,1,1/2,,
{4}7/8,7/8,1/6,7/8,
{4}1/2,1/2,3/8,1/2,
{4}3,4,5,6,
{4}7,8,7/8,,
{4}5/6,5/6,4/7,5/6,
{4}3/4,3/4,2/5,3/4,
{4}2,1,8,7,
{4}6,5,5/6,,
{4}3/4,3/4,2/5,3/4,
{4}5/6,5/6,4/7,5/6,
{4}7,8,1,2,
{4}3,4,3/4,,
{2}6h[2:1],5,
{4}4/5,4/5,3/6,,
{2}2h[2:1],1,
{4}1/8,1/8,2/7,,
{2}3h[2:1],4,
{2}6h[2:1],5,
{2}7h[2:1],8,
{4}1/8,1/8,2/7,,
{4}3,3,3/4,,
{4}6,6,5/6,,
{4}3,4,5,6,
{4}4/5,4/5,3/6,,
{4}7,7,7/8,,
{4}2,2,1/2,,
{4}7,8,1,2,
{4}1/8,1/8,2/7,,
{4}3,3,2/4,,
{4}6,6,5/7,,
{4}3,4,6,5,
{4}4/5,4/5,3/6,,
{4}7,7,6/8,,
{4}2,2,1/3,,
{4}7,8,1,2,
{4}1/8,1/8,2/7,,
{1}1-4[2:1],
{4}5,4,4/5,,
{1}3b/6b,
{1},
{1},
{1},
E
&inote_4=
(169.3){1},
{1},
{1},
{1},
{1},
{4}3h[4:3]/4,,5,4,
{4}5/6h[4:3],,4,5,
{4}3h[4:3]/4,,6,4,
{2}5h[4:1]/6h[4:1],4/7,
{2}4h[1:1],5h[4:3],
{2},3/6,
{4}3,3/4,6,5/6,
{4}3,2/4,5,4/6,
{4}6,5/6,3,3/4,
{4}6,5/7,4/8,,
{4}3,2/4,6,5/7,
{4}3,2/4,3/5,4/7,
{4}5/6,7,3/4,2,
{4}5/6,4/7,3/8,,
{4}4h[4:1],5,4/5h[2:1],,
{4}4,3/5,2/6,,
{4}3h[4:1]/4,4,4h[4:1]/5,5,
{4}5h[4:1]/6,7,3/4h[4:1],2,
{4}4,3/5,5,4/6h[4:1],
{4}2,3/7,2/6,,
{4}5/6h[4:1],3,5/6h[4:1],2,
{4}3h[4:1]/4,6,3h[4:1]/4,7,
{4}5/6<1[4:1],,,2/4,
{4}4/5,5/7,1/6,,
{4}2-6[4:1]/8-4[4:1],,,3/7,
{4}2/6,3/7,2b/6b,,
{4}2h[4:1]/4,4,5/7h[4:1],5,
{4}4/6,3>8[4:1]/5,,,
{4}6,5/7,3,2/4<8[8:3],
{2},1/2,
{4}5/7h[4:1],5,2h[4:1]/4,4,
{4}3/5,4/6,2/5,4/7h[4:1],
{4}8,1/8,1/2,1/8,
{2}2-7[4:1],5,
{1}4h[4:3]/6<1[2:1],
{1}3>8[2:1]/5h[4:3],
{2}5h[4:1]/6h[4:1],3h[4:1]/4h[4:1],
{2}5h[4:1]/7h[4:1],4/5,
{1}7<4[2:1]/8h[4:3],
{1}1h[4:3]/2>5[2:1],
{2}4h[4:1]/7h[4:1],2h[4:1]/5h[4:1],
{4}4/6,3/5,2b/7b,,
{12}6h[6:1],,5,7,,,3h[6:1],,4,2,,,
{12}7h[6:1],,8,6,,,1/2,,,3/8,,,
{4}4/5,6/7,1/8,2/3s7[2:1],
{4},,,1/6,
{12}3h[6:1],,4,2,,,6h[6:1],,5,7,,,
{12}2h[6:1],,1,3,,,7/8,,,1/6,,,
{4}3h[4:1]/4,1h[4:1],2h[4:1],4h[4:1],
{4}3,5/6,4b/7b,,
{12}3h[6:1],,4,2,,2,6h[6:1],,5,7,,7,
{12}3h[6:1],,4,2,,2,6,,,4/8,,,
{4}1/7h[4:1],5,2h[4:1]/8,4>1[4:1]*<7[4:1],
{4},,8,2/6,
{12}7h[6:1],,8,6,,6,2h[6:1],,1,3,,3,
{12}7h[6:1],,8,6,,6,3,,,5/7,,,
{4}7h[4:1]/8,5h[4:1],6h[4:1],8h[4:1],
{4}7,1/2,3b/8b,,
{4}1/5h[4:3],2,3,3,
{4}5,3/7,4,2/6,
{4}1h[4:3]/5,6,7,7,
{4}2/7,4-1[4:1]/5-8[4:1],,,
{4}4/5h[4:1],2,3/4h[4:1],1,
{4}4h[4:1]/5,7,2/6,4/8,
{4}1/6h[4:3],2,3,3,
{1}4v1[4:1]/6v1[4:1],
{4}4/5<8[2:1],,1,1,
{4}1<6[2:1]/2,,5,5,
{4}4>1[2:1]/5,,8,8,
{4}5/7,4/6,3/5,1,
{4}4>1[2:1]/5,,8,8,
{4}7/8>3[2:1],,4,4,
{4}4/5<8[2:1],,1,1,
{4}2/4,1,5/7,8,
{12}2h[6:1],,1,3,,,7h[6:1],,8,6,,,
{12}3h[6:1],,4,2,,,4/5,,,5/7,,,
{12}6h[6:1],,5,7,,,3h[6:1],,4,2,,,
{12}6h[6:1],,5,7,,,2/7,,,,,,
{12}6h[6:1],,5,7,,,3h[6:1],,4,2,,,
{12}7h[6:1],,8,6,,,1/8,,,2/7,,,
{12}2h[6:1],,1,3,,,7h[6:1],,8,6>1[2:1],,,
{4},,,7/8,
{4}1/7h[4:3],2,3,3,
{4}2/8,1/7,3/8,2-5[6:1]/7-4[6:1],
{1},
{1},
{1},
E
&inote_5=
(169.3){1},
{12}5h[6:1],,,,,4,5h[6:1],,4,,,4,
{12}5h[6:1],,4,5h[6:1],,4,5h[6:1],,4,5,,,
{12}5h[6:1],,,,,4,5h[6:1],,4,,,4,
{12}5h[6:1],,4,5h[6:1],,4,5h[6:1],,4,5,,,
{4}4/7>1[8:1],4,3<5[8:1]/8,8,
{4}4/7>1[8:1],4,3/8,3/8,
{4}2<8[8:1]/5,5,1/6>4[8:1],1,
{4}2<8[8:1]/5,5,1/6,,
{12}4h[6:1],,,,,5,4h[6:1],,5,,,5,
{12}4h[6:1],,5,4h[6:1],,5,4,,,4/5,,,
{4}3-5[8:1]/6,7-1[8:1],3-5[8:1],7-1[8:1],
{12}3-5[8:1],,,7-1[8:1],,,3,,3,4,,4,
{4}2-8[8:1],6-4[8:1],2-8[8:1],6-4[8:1],
{4}2-8[8:1],6,4/7,,
{4}3/6-4[8:1],2-8[8:1],6-4[8:1],2-8[8:1],
{12}6-4[8:1],,,2-8[8:1],,,6,,6,5,,5,
{4}7-1[8:1],3-5[8:1],7-1[8:1],3-5[8:1],
{4}7-1[8:1],3,2/5,,
{12}5,,5,4,,4,6,,,3/6,,,
{4}4/5,4/5,3/6,1b,
{12}6,,6,4,,4,5,,5,3,,3,
{12}7,,7,5,,5,6,,6,4,,4,
{12}5,,5,3,,3,4,,4,2q7[4:1],,,
{4}8,8,1/8,,
{12}3,,3,5,,5,4,,4,6,,6,
{12}2,,2,4,,4,3,,3,5,,5,
{12}4,,4,6,,6,5,,5,7,,,
{2}1-5[8:1]/8-4[8:1],2/7,
{2}5h[4:1]/6h[4:1],3h[4:1]/4h[4:1],
{4}4h[6:1]/6h[6:1],3h[6:1]/5h[6:1],2/6,,
{12}2,,2,8,,8,1,,1,7,,7,
{12}3,,3,1,,1,2,,2,8,,8,
{12}1,,1,7,,7,8,,8,6>3[4:1],,,
{4}1,1,1/8,,
{12}7,,7,1,,1,8,,8,2,,2,
{12}6,,6,8,,8,7,,7,1,,1,
{12}8,,8,2,,2,1,,1,3,,,
{2}4-8[12:1]/5-1[12:1],3/6,
{2}6>3[4:1],2<7[4:1],
{2}6>3[4:1],2<7[4:1],
{4}6h[4:1],8h[4:1],1h[4:1],3qq6[4:3],
{1}5h[4:3],
{2}3<6[4:1],7>2[4:1],
{2}3<6[4:1],7>2[4:1],
{4}3h[4:1],1h[4:1],8h[4:1],6h[4:1],
{4}3,4/5,2/7,,
{12}2/7,,2,4,,1,8,,7,5,,8,
{12}1,,2,4,,1,8,,7,5,,8,
{4}2-4[8:1],7-5[8:1],1>3[8:1],8<6[8:1],
{4}1-5[8:1],8-4[8:1],1,1/8,
{12}2/7,,7,5,,8,1,,2,4,,1,
{12}8,,7,5,,8,1,,2,4,,1,
{4}7-5[8:1],2-4[8:1],8<6[8:1],1>3[8:1],
{4}8-4[8:1],1,2/7,,
{12}3/6,,6,8,,5,4,,3,1,,4,
{12}5,,6,8,,5,4,,3,1,,4,
{4}6pp2[2:1],4,4,4,
{4}1/8,1v3[4:1]/8v6[4:1],,,
{12}3/6,,3,1,,4,5,,6,8,,5,
{12}4,,3,1,,4,5,,6,8,,5,
{4}3-1[8:1],6-8[8:1],4>2[8:1],5<7[8:1],
{4}4-1[8:1],5,2/7,,
{4}1h[4:1],2h[4:1],3h[4:1],4-1[8:1],
{4},1<6[4:1]*>4[4:1],,,
{4}5h[4:1],6h[4:1],7h[4:1],8p1[2:1],
{4},,8,8,
{2}1-4[4:1],8-5[4:1],
{2}4-1[4:1],5-8[4:1],
{4}1,2,3,4,
{4}3h[6:1]/5h[6:1],2h[6:1]/6h[6:1],1/7,,
{12}8,,8,1,,1,2,,2,3,,3,
{12}4,,4,5,,5,6,,6,7,,7,
{12}6,,6,5,,5,4,,4,3,,3,
{12}2,,2,1,,1,8,,8,1/8,,,
{12}1,,1,8,,8,7,,7,6,,6,
{12}5,,5,4,,4,3,,3,2,,2,
{12}3,,3,4,,4,5,,5,6,,6,
{12}7,,7,8,,8,1,,1,1/8,,,
{12}2,,2,4,,4,5,,5,7,,7,
{12}2,,2,4,,4,5,,5,7,,7,
{12}5,,5,4,,4,2,,2,7,,7,
{12}5,,5,4,,4,2,,2,2/7,,,
{12}3,,3,1,,1,8,,8,6,,6,
{12}3,,3,1,,1,8,,8,6,,6,
{12}8,,8,1,,1,3,,3,6,,6,
{12}8,,8,1,,1,3,,3,3/6,,,
{4}1,2,3,4-1[12:1],
{4}5-8[12:1],1>8[2:1],8,,
{1}1b,
{1},
{1},
{1},
E
&inote_6=
(169.3){1},
{12}3h[6:1],,4,,,4,3h[6:1],,4,,,4,
{12}3,,3,5,,5,4,,4,6,,,
{12}6h[6:1],,5,,,5,6h[6:1],,5,,,5,
{12}6,,6,4,,4,5,,5,3,,,
{4}4/8,5/6,1/5,3/4,
{2}5h[4:1]/6h[4:1],3h[4:1]/4h[4:1],
{4}1/5,3/4,4/8,5/6,
{2}3h[4:1]/4h[4:1],5h[4:1]/6h[4:1],
{12}6,,6,4,,4,5,,5,3,,,
{2}2-6[8:1]/3-6[8:1],5h[4:1]/7h[4:1],
{4}1>3[8:1]/5,6,4>2[8:1]/8,7,
{4}6/8,4/5,1/3,1/8,
{4}4/8<6[8:1],3,1/5<7[8:1],2,
{4}1/3,4/5,6/8,1/8,
{4}1>3[8:1]/5,6,4>2[8:1]/8,7,
{4}6/8,4/5,1/3,1/8,
{4}4/8<6[8:1],3,1/5<7[8:1],2,
{4}1/3,4/5,6/8,1/8,
{12}5/8,,4,5,,,1/4,,,,,,
{4}4/5,2pp4[8:1]/7qq5[8:1],,,
{12}3h[6:1],,4,3,,,4h[6:1],,5,4,,,
{4}6/8,1bpp2[4:1]/7bqq6[4:1],1b/7b,,
{12}2>5[8:1],,1,1,,,8<5[8:1],,1,1,,,
{12}3,,3,4,,,2/5,,,1/8,,,
{12}6,,6,4,,4,5,,5,2,,2,
{4}8b>3[4:1],3b<6[4:1],6b,1,
{12}7<4[8:1],,8,8,,,1>4[8:1],,8,8,,,
{12}6,,6,5,,,4/7,,,4-1[8:1],,,
{4}5-8[8:1],4-1[8:1],5-8[8:1],3p6[4:1],
{4}6q3[4:1],3-8[16:3],7,,
{12}7,,7,5,,5,4,,4,2,,2,
{4}1-6[8:1],2-5[8:1],1-6[6:1],2,
{12}3>8[8:1],,4,4,,,5<8[8:1],,4,4,,,
{12}2,,2,1,,,3/8,,,4/5,,,
{12}3,,3,1,,1,8,,8,6,,6,
{4}5-1[8:1],5pp7[16:3]*qq3[16:3],,,
{12}3>8[8:1],,4,4,,,5<8[8:1],,4,4,,,
{12}2,,2,1,,,3/8,,,4/5,,,
{4}4-8[2:1],6,8>4[2:1],6,
{4}4-8[2:1],6,8V24[2:1],6,
{4}4qq2[8:3],5,4q8[8:3],3,
{4}4qq1[8:5],5,6,7,
{4}8-4[2:1],2,4<8[2:1],2,
{4}8-4[2:1],2,4V68[2:1],2,
{4}8v6[4:1],1,8v2[4:1],7,
{4}8p4[8:1]*q4[8:1],8,2b/6b,1qq1[4:1],
{4}1>6[16:5]/5,6,7,3/8pp8[4:1],
{4}4/8<3[16:5],3,2,1/6,
{4}7<4[4:1],4q8[4:1],8q4[4:1],4>1[4:1],
{4}1,4,1/2,3/8pp8[4:1],
{4}4/8<3[16:5],3,2,1qq1[4:1]/6,
{4}1>6[16:5]/5,6,7,3/8,
{4}2q7[4:1],7p2[4:1],2>6[4:1],6>3[4:1],
{4}2,7,1/5,4pp4[4:1],
{4}4>7[16:5]/8,7,6,2/5qq5[4:1],
{4}1/5<2[16:5],2,3,4/8,
{4}1v4[8:1]/7v4[8:1],1/7,2v5[8:1]/8v5[8:1],2/8,
{4}1/4>1[8:1]*<7[8:1],,7/8,2/5qq5[4:1],
{4}1/5<2[16:5],2,3,4pp4[4:1]/7,
{4}4>7[16:5]/8,7,6,1/5,
{4}3<6[4:1],6p2[4:1],2<7[4:1],7p3[4:1],
{4}3<7[4:1],7,8,2/7,
{12}1,,1,2,,2,3,,3,4,,,
{2}2v4[8:1]/7v5[8:1],4v2[8:1]/5v7[8:1],
{12}5,,5,6,,6,7,,7,8,,,
{4}4/5,4-1[8:1]/5-8[8:1],,1/8,
{4}5/7,2/4,2p6[8:1]/7q3[8:1],,
{4}4/5,4v2[8:1]/5v7[8:1],,3/6,
{12}1,,1,2,,2,3,,3,4,,,
{4}3p6[4:1]/4,6q3[4:1],7,8,
{12}1/7-4[8:1],,7,8,,,2-5[8:1]/8,,2,1,,,
{12}4/8,,3,2/4,,5,3/6,,2,1/5,,6,
{12}2/7,,1,5/8,,6,3/7,,1,5/8,,6,
{12}2/7,,2,1,,1,8,,8,7,,7,
{12}2-5[8:1]/8,,2,1,,,1/7-4[8:1],,7,8,,,
{12}1/5,,6,5/7,,4,3/6,,7,4/8,,3,
{12}2/7,,8,1/4,,3,2/6,,8,1/4,,3,
{12}2/7,,7,8,,8,1,,1,2,,2,
{12}3/7-4[8:1],,7,8,,1,2-5[8:1]/6,,2,1,,8,
{12}3/7,,2,1/5,,6,4/7,,3,2/6,,7,
{12}2/8,,1,6/8,,7,3/8,,1,5/8,,7,
{12}2,,2,1,,1,8,,8,7,,7,
{12}2-5[8:1]/6,,2,1,,8,3/7-4[8:1],,7,8,,1,
{12}2/6,,7,4/8,,3,2/5,,6,3/7,,2,
{12}1/7,,8,1/3,,2,1/6,,8,1/4,,2,
{12}3/8,,7,3/6,,3,4/6,,6,3/5,,3,
{12}5,,5,4,,4,2-5[8:1]/7-4[8:1],,,,,,
{4}4/5,4-1[8:1]/5-8[8:1],,5/6,
{1}3b/8b,
{1},
{1},
{1},
E
