&title=立ち入り禁止
&wholebpm=160
&artist=まふまふ
&des=緑風 犬三郎
&shortid=830
&genre=niconicoボーカロイド
&cabinet=SD
&version=maimai FiNALE
&chartconverter=Neskol
&lv_2=4
&des_2=-
&lv_3=7+
&des_3=-
&lv_4=11+
&des_4=Jack
&lv_5=12
&des_5=緑風 犬三郎
&lv_6=13+
&des_6=玉子豆腐
&inote_2=
(160){1},
{1},
{1},
{1},
{4},,,1,
{4},1,,2,
{4},2,,3,
{4},3,,4h[2:1],
{4},,,5,
{4},5,,6,
{4},6,,7,
{4},7,,8h[2:1],
{4},,,1,
{4},1,,1,
{4}1,1,,8,
{4}8,8,,1,
{4}8,1,,8,
{4},8,,8,
{4}8,8,,1,
{4}1,1,,8,
{4}1,8,,1-5[4:3],
{1},
{4},,,8-4[4:3],
{1},
{4},,,3,
{4},3,,4,
{4}4,4,,5,
{4}5,5,,4,
{4}5,4,,6,
{4},6,,5,
{4}5,5,,4,
{4}4,4,,5,
{4}4,5,,4-1[4:3],
{1},
{4},,,8h[2:1],
{4},,,7h[2:1],
{4},,,6h[2:1],
{4},,,5,
{4}5,4/5,,4,
{4},4,,3,
{4},3,,1/2,
{4},7/8,,1,
{4}1,1b,,2,
{4}2,2,,3,
{4}3,3,,4,
{4}4,4,,5,
{4}4,5,,6h[2:1],
{4},,,6h[2:1],
{4},,,7,
{4}7,7,,8,
{4}1,8b,,8,
{4}8,8,,7,
{4}7,7,,6,
{4}6,6,,5,
{4}4,5,,4,
{4}4,4,,3,
{4}3,3,,2-5[4:3],
{1},
{4},,,6,
{4},6,,7,
{4},7,,8,
{4},8,,1h[2:1],
{4},,,2,
{4},2,,3,
{4},3,,4,
{4},4,,4/5,
{4},,,5h[1:1],
{1},
{4},,,4h[1:1],
{1},
{4},,,5h[1:1],
{1},
{4},,,4,
{4},,,4/5,
{4}4/5,4b/5b,,3,
{4}3,3,,2,
{4}2,2,,1,
{4}1,8,8,1,
{4}8,1,,8,
{4},8,,7,
{4},7,,6h[2:1],
{4},,,5,
{4}4,5b,,6,
{4}6,6,,7,
{4}7,7,,8,
{4}8,1,1,8,
{4}1,8,,1,
{4},1,,2,
{4},2,,2-5[4:3],
{1},
{4},,,7-4[4:3],
{1},
{4},,,1-5[4:3],
{1},
{4},,,8-4[4:3],
{1},
{1},
{1},
E
&inote_3=
(160){1},
{1}1-4[2:1],
{1}5-8[2:1],
{1}1>4[2:1]/8<5[2:1],
{4}4h[2:1]/5h[2:1],,,5,
{4}6,5/7,,4,
{4}3,2/4,,2,
{4}1,8,7,1/8,
{4}2/7,3/6,,4,
{4}3,2/4,,5,
{4}6,5/7,,7,
{4}8,1,2,1/8,
{4}1/8,2b/7b,,3,
{4}3,4,4,5,
{4}5,4/5,,5,
{4}5,6,5/6,7-3[2:1],
{4},,,2,
{4}2,3,4,5,
{4}6,5/6,,5,
{4}5,4,4,5,
{4}5,3/6,3/6,2pp5[2:3]/7,
{1},
{4},,,6,
{4}5,4,3>8[2:1],,
{4},,,6,
{4}6,5,5,4,
{4}4,3/5,,4,
{4}4,3,3/4,2-6[2:1],
{4},,,7,
{4}7,6,5,4,
{4}3,3/5,,3,
{4}3,4,4,5,
{4}5,6,5,3/6,
{4},3,4,5,
{4}4,4/5,,6h[1:1],
{4},,,5h[1:1],
{4},,,4h[1:1],
{4},,,3,
{4},4/5,,3h[2:1],
{4},4,,6h[2:1],
{4},5,,3/4,
{4},5/6,,4/5,
{4}3/6,2b/7b,,1/2,
{4}1/2,7/8,7/8,1/2,
{4}1/2,3/8,,5/6,
{4}5/6,3/4,3/4,5/6,
{4}5/6,4/7,,4h[2:1],
{4},5,,4/5,
{4}4/5,3/6,,3/4,
{4}3/4,1/2,1/2,7/8,
{4}7/8,1/2,1/2,3b/8b,
{4},3/4,3/4,5/6,
{4}5/6,4/7,,1/2,
{4}1/2,7/8,7/8,1/2,
{4}1/2,3/8,,8h[2:1],
{4},1,1,2/7,
{4},1/8,1/8,2h[2:1]/7h[2:1],
{4},,,1,
{4}8,2/7,,7-4[2:1]/8-3[2:1],
{4},,,1-6[2:1]/2-5[2:1],
{4},,,7,
{4}6,5,4,4-1[2:1],
{4},,,1-6[2:1]/2-5[2:1],
{4},,,7-4[2:1]/8-3[2:1],
{4},,,2,
{4}3,4,5,4/6,
{4},3/5,,3h[1:2],
{1},
{4},,,4h[1:1],
{4},,,3,
{4},4/5,,6h[1:1],
{4},,,5h[1:1],
{1},
{1},
{4},4/5,3/6,2b/7b,
{4},1/2,7/8,1/2,
{4}7/8,1/6,,3/4,
{4}3/4,5/6,5/6,3/4,
{4}5/6,4/7,,5h[2:1],
{4},4,,4/5,
{4}3/6,2/7,,1/2,
{4}1/2,3,4,4/5,
{4}3/6,2/7,1/8,2b/7b,
{4},7/8,1/2,7/8,
{4}1/2,3/8,,5/6,
{4}5/6,3/4,3/4,5/6,
{4}3/4,2/5,,1h[2:1],
{4},8,8,2/7,
{4},1/8,1/8,2b-5[2:1]/7b-4[2:1],
{4},,,4,
{4}5,3/6,,3,
{4}4,3/5,,6,
{4}5,4/6,,7,
{4}6,5,4/5,4,
{4}3,2,1/8,8,
{4}1,1/8,2b/7b,,
{1},
{1},
{1},
E
&inote_4=
(160){1},
{16}2h[16:3],,,3h[16:3],,,4h[16:3],,,5h[16:3],,,6,,,,
{16}7h[16:3],,,6h[16:3],,,5h[16:3],,,4h[16:3],,,3,,,,
{16}2h[16:3],,,4h[16:3],,,5h[16:3],,,7h[16:3],,,2,,,,
{4},,4b/5b,1/8,
{8}3,3,,2/4,,3/5,,4/6,
{8},5/7,,6,6,,1/8,,
{8}6,6,,5/7,5/7,,6h[8:3],,
{8},5,,3/7,,,1/8,,
{8}6,6,,5/7,,4/6,,3/5,
{8},2/4,,3,3,,1/8,,
{8}3,3,,2/4,2/4,,3h[8:3],,
{8},4,,2/6,,,4/7,,
{8}3h[4:1]/5,,4,4,,,5,,
{4}2>5[4:1],,,5/7,
{8}3/4,,5/6,,2/4,,3,3,
{8}5,5,,4/6,4/6,,2/5,,
{8}4/6h[4:1],,5,5,,,4,,
{4}7<4[4:1],,,2/4,
{4}5/6,3/4,5/7,4>1[8:1]/8<5[8:1],
{4},1-5[8:1],,3b/7b,
{4}6,5,3/4,2/6,
{4}3,4,5/6,3/7,
{8}2,,1,,8,8h[2:1],,,
{8},1-5[8:1],,,,,3/7,,
{8}2/6h[4:1],,5,5/6,,,3/4,,
{4}7p3[4:1],,,2/4,
{8}5/6,,3/4,,5/7,,6,6,
{8}4,4,,3/5,3/5,,2/6,,
{8}3h[4:1]/7,,4,3/4,,,5/6,,
{4}2q6[4:1],,,5/7,
{4}3/4,5/6,2/4,3/7,
{4}2/5,3/8,1/5<4[4:3],,
{4},,,2/7,
{8}4,5,4/5,,,,3h[8:3],,
{8},4,4,,5,,6h[8:3],,
{8},5,5,,4,,3h[8:3],,
{8},4,4,,5,,3h[4:1]/6h[4:1],,
{8},3/6-3[8:1],,,,,1h[4:1]/8,,
{4}3,2/7h[4:1],5,3h[4:1]/6,
{8}4,,4/5,,,2/4,2/4,,
{8},5/7,5/7,,,3/6,3/6,3/6,
{8}3/6,3/6,4b/5b,,,,1/2,,
{8}4/7,,7/8,,2/5,2h[8:3]/5,,1,
{8}1,2,3/8,,1,,7/8,,
{8}2/5,,1/2,,4/7,4/7h[8:3],,8,
{8}8,7,1/6,,8,,2>4[8:1]/5,,
{8},,5/8<6[8:1],,,,5,5,
{8}4-2[8:1]/6-2[8:1],,,,,,3,3,
{8}2/4,,6,6,5/7,,3,3,
{16}5,,5,,4/6,,,3/5,,,2/7,,2b/7b,,,,
{16},,8,,8h[16:3],,,7h[16:3],,,6>3[4:1],,,,,,
{4},1/2,3/8,1/6,
{8}7-4[4:1]/8-3[4:1],,,,,,2,2,
{8}1/3,,7,7,6/8,,4/5,,
{4}1/5,2/6,3/7,4>1[8:1]/8<5[8:1],
{4},1-5[8:1],,3b/7b,
{8}6,,5,,4,4h[2:1],,,
{8},5-8[8:1],,1,,,2,2,
{8}5,5,3,3,,2/4,,3/5,
{8},4/6,,5/7,,6,6h[4:1],,
{8}5h[4:1],,4h[4:1],,3,3,,5,
{8}4,5,,6,6,,4/5,,
{8}6,6,,5/7,,4/6,,3/5,
{8},2/4,,3,3,,7,7,
{8}4,4,6,6,3,3>6[2:1],,,
{4},,5,1-5[8:13]*>1[4:13],
{1},
{1},
{1},
{1},
{1},
{1},
{1},
{8},1>4[8:1]/8<5[8:1],,,,2/7,2b/7b,,
{16},,,,4/5h[16:3],,,6h[16:3],,,7h[8:3],,,,8,,
{8}8,7,1/6,,8-4[8:1],,1,,
{16}2/7,,,,4h[16:3]/5,,,3h[16:3],,,2h[8:3],,,,1,,
{8}1,2,3/8,,1,,7<5[8:1]/8,,
{8},,1/2>4[8:1],,,,8,1,
{8}8,1,2/7,,,,7,7,
{8}6/8,,2,2,1/3,,7,7,
{16}4,,4,,3/5,,,4/6,,,2/7,,2b/7b,,,,
{16},,1,,1h[16:3],,,2h[16:3],,,3<6[4:1],,,,,,
{4},7/8,1-5[8:1],6,
{4}7,1/8,1/8z4[8:3],,
{8},,2,1,3/8,,4/5,,
{8}2/6,2/6,2/6,,4/8,4/8,4>1[8:1]/8<5[8:1],,
{16},,,,1-5[8:1],,,,,,,,3b/7h[16:3],,,6h[16:3],
{16},,5h[16:3],,,4h[16:3],,,3,,,,2h[16:3]/6,,,3h[16:3],
{16},,4h[16:3],,,5h[16:3],,,6,,,,3h[16:3]/7,,,2h[16:3],
{16},,1h[16:3],,,8h[16:3],,,7,,,,2/6h[16:3],,,7h[16:3],
{16},,8h[16:3],,,1h[16:3],,,2,,,,4/8h[16:3],,,6h[16:3],
{16},,4h[16:3],,,2h[16:3],,,8,,,,1h[16:3]/5,,,3h[16:3],
{16},,5h[16:3],,,7h[16:3],,,1,,,,7/8,,,3/4,
{16},,1/2,,,5/6,,,2/7,,2/7,,,,,,
{1},
{1},
{1},
E
&inote_5=
(160){1},
{16}2/7,,6,5,,5,7,,3,4,,4,2,,,,
{16}1/7,,3,4,,4,2,,6,5,,5,7,,,,
{16}2/8,,6,5,,5,7,,3,4,,4,2V41[4:1],,,,
{8},,8-4[8:1],,1,,3,4>1[8:1],
{8}5,6,,5<8[8:1],4,3,,8,
{8}7,6,4/5,3,2,1,6,5<8[8:1],
{8}4,3,,4>1[8:1],5,6-3[8:1],,1-4[8:1],
{8},8,,2/7,2/7,,6,5<8[8:1],
{8}4,3,,4>1[8:1],5,6,,1,
{8}2,3,4/5,6,7,8,3,4>1[8:1],
{8}5,6,,5<8[8:1],4,3-6[8:1],,8-5[8:1],
{8},1,,2/7,2/7,,6>3[8:1],6,
{8}2,2,1,1h[4:1],,8,1>4[8:1],1,
{8}6,6,7-3[8:1],7,,2,1>4[8:1],1,
{8}7,7,4,4,5<4[8:3],5,4,,
{8},1h[4:1],,8,2/7,,3<6[8:1],3,
{8}7,7,8,8h[4:1],,1,8<5[8:1],8,
{8}3,3,4/5,4/5,,1,8<5[8:1],8,
{8}2,2,5,5,4>5[8:3],4,5,,
{16},,8-4[8:1],,,,1,,1,,,,3/7,,6,5,
{16},5,7,,3,4,,4,2,,,,2/6,,3,4,
{16},4,2,,6,5,,5,7,,,,3/7,,6,5,
{16},5,7,,3,4,,4,2,,1/8,,,,4/5,,
{8}3/6,2-5[8:1]/7-3[8:1],,,,,3<6[8:1],3,
{8}7,7,8,8h[4:1],,1,8<5[8:1],8,
{8}3,3,2-6[8:1],2,,7,8<5[8:1],8,
{8}2,2,5,5,4>5[8:3],4,5,,
{8},8h[4:1],,1,2/7,,6>3[8:1],6,
{8}2,2,1,1h[4:1],,8,1>4[8:1],1,
{8}6,6,4/5,4/5,,7,7/8,6,
{8}4/5,3,1/2,3,4/5,6,7/8,6,
{8}4/5,3,1/2,3,4/5<4[8:3],,,,
{8},1,,1,,1/5,,3/6,
{16}4,5,4,,4/5,,,,,,6,,6>3[4:1],,,,
{8},2,2,,,8,8-4[8:1],,
{8}1,1-5[8:1],,8<2[8:5],,1h[8:5],,,
{8},,,,,4/5,4/5,,
{8}1/8,1-5[8:1]/8-4[8:1],,,,3,3<6[4:1],,
{8},7,7,,,6,6-3[8:1],,
{8}2-7[8:1],,8-4[8:1],,1,1,2/7,,
{8},4/5,4/5,,,1/8,2/7,3/6,
{4}3/6,7<4[8:1]/8>3[8:1],,1-6[8:1]/2-5[8:1],
{16},,,,7/8,,,3/7>4[16:3],,,4,,,,1,,
{8}1,2/8,2/8,,2-6[8:1],7-3[8:1],,,
{16}2h[4:1],,,,1,,,2<5[16:3]/6,,,5,,,,8,,
{8}8,1/7,1/7,,4/6,3,5<8[8:1],,
{8}2,3,4>1[8:1],,7,6,5-8[8:1],,
{8}1-4[8:1],,8,,6,5/7-4[8:1],,1,
{8}1-5[8:1],8,8,,7-3[8:1],1-5[8:1],,,
{16}8,,8,,5/7,,,2/4,,,1/8,,3b/6b,,,,
{16},,1/8,,1/8,,,2/4,,,5/7-3[8:1],,,,2,,
{8}2,1,8,7,7,8,1-7[8:1]/6-4[8:1],,
{16},,,,2/5,,,4/7,,,3/6,,,,2/7,,
{4}2-6[8:1]/7,8-5[8:1],4-1[8:1],5h[4:1],
{8}4,5,2,1/5,1>4[8:1]/5<8[8:1],,,,
{8}3/7,3/7,2-5[8:1]/6-1[8:1],,,,3/7,4,
{16}5,,6,,1/7,,,3/5,,,4/8h[4:1],,,,1,,
{8}7,2-6[8:1],,8,,,8<5[8:1],4>1[8:1],
{8},,6,5,4,3,2>5[8:1],6<1[8:1],
{8},,3,4,5,6,7-5[8:1],4-8[8:1],
{8},,6,5,4,3-6[8:1]/5,,8,
{8}8,7-4[8:1],,2,2,,1>4[8:1],5<8[8:1],
{8},,3,4,5,6,7<4[8:1],3>8[8:1],
{8},,6,5,4,3,2-4[8:1],5-1[8:1],
{8},,3,4,5,4/6,,1/8,
{8}2/7,3/6,4/5,,2h[1:7],,6h[4:27],,
{1},
{1},
{1},
{1},
{1},
{1},
{8},,,,,2b>5[8:1]/6b<1[8:1],,,
{8},2/6,,4/8,,2b/7b,2b/7b,,
{16},,7/8,,7/8,,,3/7>4[16:3],,,4,,,,1,,
{8}1,2/8,2/8,,6-1[8:1],2-5[8:1],,,
{16}8h[4:1],,,,1,,,2<5[16:3]/6,,,5,,,,8,,
{8}8,1/7,1/7,,3/5,6,4>1[8:1],,
{8}7,6,5<8[8:1],,2,3,4-8[8:1],4,
{8}5-1[8:1],5,4,,3,2-5[8:1]/4,,8,
{8}8-4[8:1],1,1,,2-6[8:1],8-4[8:1],,,
{16}1,,1,,2/4,,,5/7,,,1/8,,3b/6b,,,,
{16},,1/8,,1/8,,,5/7,,,2-6[8:1]/4,,,,7,,
{8}7,8,1,2,2,1,3<5[8:1]/8>2[8:1],,
{16},,,,4/7,,,2/5,,,3/6,,,,2/7,,
{8}2/7-3[8:1],,1-4[8:1],1,5-8[8:1],5,4h[4:1],,
{8}5,3,2,1/5,1>4[8:1]/5<8[8:1],,,,
{16}3/7,,3/7,,2-5[8:1]/6-1[8:1],,,,,,,,3/7,,2,1,
{16},7,8,,3,4,,6,5,,,,2/6,,7,8,
{16},2,1,,6,5,,3,4,,,,3/7,,2,1,
{16},6,5,,7,8,,3,4,,,,2/6,,7,8,
{16},3,4,,2,1,,6,5,,,,3/7,,2,1,
{16},3,4,,7,8,,6,5,,,,2/6,,7,8,
{16},6,5,,2,1,,3,4,,,,4,5,4,5,
{16}4,5,4,5,4,5,4,5,4,,3/6,,,,,,
{1},
{1},
{1},
E
&inote_6=
(160){1},
{16}6,5,6,4,5,4,6,5,6,4,5,4,6,,,,
{16}3,4,3,5,4,5,3,4,3,5,4,5,3,,,,
{16}6,5,6,3,4,3,6,5,6,3,4,3,6,,,,
{16}1h[2:1],,,,,,,,2,,,,3b/7b,,6,6,
{16}5,,4/7,,3,4,,6,5,,4/7,,8,,2,2,
{16}1,,3/8,,3/4,,5/7,,3/8,,,,2/6,,3,3,
{16}4,,2/5,,3,,4/7,,6,5,,3,4,,1,1,
{16}8,,2/7,,,,1b/5b,,,,,,2b/6b,,3,3,
{16}4,,2/5,,6,5,,3,4,,2/5,,1,,7,7,
{16}8,,1/6,,5/6,,2/4,,1/6,,,,3/7,,6,6,
{16}5,,4/7,,6,,2/5,,1,1,8b,,,,7,7,
{8}8,1/6,,4b/8b,,,3h[8:3]/4,,
{8}4,5h[8:3],,4,3h[4:1],,4h[4:1],,
{16}5h[4:1],,,,6,,5/6,,,,7,,5/7,,4,5,
{16}4,,6,5,6,,3,4,3-5[8:1],,6,,7-5[8:1],,,,
{4}3-1[8:1],7-1[8:1],3,5/6h[8:3],
{8}5,4h[8:3],,5,6h[4:1],,4h[4:1],,
{16}5h[4:1],,,,3,,3/5,,,,3,,3/4,,7,5,
{16}6,,2,4,3,,8,1,8,1,8,,2>5[8:1]/6<1[8:1],,,,
{16}2/6,,,,1-5[8:1],,,,1/5,,,,3b/7b,,6,5,
{16},3,4,,2,1,2,1,2,,3/8,,2/5,,3,4,
{16},6,5,,7,8,7,8,7,,1/6,,4/8,,7,5,
{16},2,4,,8,1,8,1,8,,2b/7b,,,,7,8,
{8}7,1/6,,4b/8b,,,5/7h[8:3],,
{8}5,4h[8:3],,6,7h[4:1],,5h[4:1],,
{16}4h[4:1],,,,2,,2/4,,,,4,,3/5,,2,4,
{16}3,,7,5,6,,4,5,4,,3/6,,3>8[8:1]/5,,,,
{4}4,4/7<4[8:1],3,2h[8:3]/4,
{8}4,5h[8:3],,3,2h[4:1],,4h[4:1],,
{8}5h[4:1],,7,5/7,,6,2/5,,
{8}2,1/2,7,7/8,6,5/6,3-8[8:1],3,
{8}7-3[8:1],7,2-6[8:1],2,8<1[4:3],8,4,,
{4},,,3,
{16}4,5,4,,4/5,,,,,,4,,4>2[4:1],,,,
{8},7,7<5[4:1],,,2,2<7[4:1],,
{8},5,5>2[4:1],,,8,8<1[2:1],,
{8},,,,,8,2/6,,
{8}4/8,3-8[8:1]/7-4[8:1],,,,1,2-4[4:1],,
{8},5,6-1[4:1],,,2,3-6[4:1],,
{8},8,7-3[4:1],,,2,2,8,
{8}1,7,5/7,1,8,2,2/4,5,
{8}3/6,4/5,,1/5,1-5[8:1]/5-1[8:1],2/6,1<6[8:1]/5>2[8:1],,
{16},,,,2,,3,4,3,,2/5-1[8:1],,,,4,,
{8}3,2/8,1/7,,4-8[8:1]/8-4[8:1],3/7,4<7[8:1]/8>3[8:1],,
{16},,,,7,,6,5,6,,4-8[8:1]/7,,,,5,,
{8}6,1/7,2/6,,1-6[8:1]/6,2/7,1/6,,
{8}7-3[8:1],4/8,3/7,,3,1/5,2/6,3V14[4:1]/7V58[4:1],
{8}4/8,,,,,2,3/4,7,
{16}5/6,,2,,4/5,,8,1,8,,2b/7b,,,,8,,
{16}1/7,,2/6,,2b/4b,,,5b/7b,,,1b/8b,,2b/7b,,,,
{32}1,,,,8,,,,1b/5b,2,3,,,6b,7,8,,,,2b,3,4,,,,,,,1/2,,,,
{8}4/5,7/8,2/5,3,4pp4[4:1]*qq4[4:1],3/5,4,,
{16},,,,3/8,,2,1,2,,4V28[4:1]/8,,,,5,,
{8}6,7,6-4[8:1]*-8[8:1],,,,2/6,,
{8}1/3,2,5/7,6,2/4,3,2/4,1/5,
{8}1>4[8:1]/5<8[8:1],1/5,1-5[8:1]/5-1[8:1],,1/5,,3b/7b,,
{24}4,,,4,,,6h[6:1],,,,5,,,,,1/7,,,,,,5/7,,,
{16}4,,3/5,,,,1/7,,,,,,3,4,3,4,
{16}3,5,3,5,3,6,3,6,3,7,3,7,3,,4/6,,
{16}7,8,7,8,7,1,7,1,7,2,7,2,7<4[8:1],,,,
{8}1,8-3[8:1],,5,4,2/6,,6,
{16}5,,3/7,,,,2/5,,3/6,,4/7,,8,1,8,,
{16}3,4,,2,1,,3,4,,2,8,1,7,,6,5,
{16},7,8,,6,5,,8,1,8,2/7,,3,1,3,8,
{16}3,7,3,6,3,5,3,4,3,,2/5,,,,6/8,,
{8}6,2/6,2,2/4,4,1/4,1>5[8:3],,
{4},1<5[8:3],,1-5[8:3],
{4},,,1V35[8:3],
{4},1V75[8:3],,1s5[8:3],
{4},,,1,
{4},,,1h[1:1],
{1},
{8},,,,,1b-5[8:1],,1b,
{8},1bw5[8:1],,1b,,3/7,3b/7b,,
{16}2/4,,3,,4/7,,6,5,6,,4-8[8:1]/7,,,,5,,
{8}6,2/7,3/8,,2<7[8:1]/6>3[8:1],3/7,2-6[8:1]/6-2[8:1],,
{16},,,,2,,3,4,3,,2/5-1[8:1],,,,4,,
{8}3,2/8,3/7,,3/8-3[8:1],1/2,3/8,,
{8}2-6[8:1],3/5,2/6,,6,4/8,3/7,2V84[4:1]/6V48[4:1],
{8}1/5,,,,,8,5/6,1,
{16}3/4,,8,,4/5,,1,8,1,,2b/7b,,,,1/2,,
{16}3/8,,4/7,,5b/6b,,,3b/4b,,,1b/8b,,3b/6b,,,,
{32}1,,,,8,,,,1b/8b,2/7,3/6,,,3b/6b,2/7,1/8,,,,1b/8b,2/7,3/6,4/5,,,,,,6/8,,,,
{8}4/5,1/2,3/7,4/6,5pp5[4:1]*qq5[4:1],3/7,5,,
{16},,,,3/8,,6,5,6,,4V28[4:1]/8,,,,6,,
{8}5,4V68[4:1],1,2,3,4,2/6,,
{8}5/8,7,1/4,2,5/8,6,5/7,4/8,
{16}4>1[8:1]/8<5[8:1],,4/8,,4-8[8:1]/8-4[8:1],,,,4/8,,,,6,5,6,4,
{16}5,4,6,5,6,4,5,4,6,,,,3,4,3,5,
{16}4,5,3,4,3,5,4,5,3,,,,7,5,7,4,
{16}5,4,7,5,7,4,5,4,7,,,,2,4,2,5,
{16}4,5,2,4,2,5,4,5,2,,1/8,,7,5,7,3,
{16}5,3,7,5,7,3,5,3,7,,1/8,,2,4,2,6,
{48}4,,,6,,,2,,,4,,,2,,,6,,,4,,,6,,,1,,2,,3,,4/8,,,,,,7,,,5,,,6,,,2,,,
{16}4,3,7,5,6,2,4,3,8-4[16:1],,8,,,,,,
{1},
{1},
{1},
E
