&title=片想いサンバ
&wholebpm=150
&artist=オワタP
&des=小鳥遊さん
&shortid=805
&genre=niconicoボーカロイド
&cabinet=SD
&version=maimai FiNALE
&chartconverter=Neskol
&lv_2=5
&des_2=-
&lv_3=7
&des_3=-
&lv_4=11+
&des_4=ぴちネコ
&lv_5=13
&des_5=小鳥遊さん
&des_6=
&inote_2=
(150){1},
{1},
{4}4,4,4,,
{4}5,5,5,,
{4}4,4,4,,
{4}4/5,4/5,4/5,,
{2}5/6,4/5,
{2}3/4,4/5,
{2}3/4,4/5,
{2}5/6,4/5,
{4}3/4,3/4,3/4,,
{4}4/5,4/5,4/5,,
{4}5/6,5/6,5/6,,
{4}4/5,4/5,4/5,,
{1}4b/5b,
{4}3,3,3,,
{4}2,2,2,,
{4}1,8,1/8,,
{4}7,7,7,,
{4}6,6,6,,
{4}5,5,5,,
{4}4,4,4/5,,
{4}3,3,3,,
{4}2,2,2,,
{4}1,1,1,,
{4}8,8,1/8,,
{4}8,8,7,7,
{4}6,6,5/6,,
{4}4,4,3,3,
{4}2,2,1/2,,
{4}1,1,2,2,
{4}3,3,4/5,,
{2}5/6,3/4,
{4}4/5,4/5,4b/5b,,
{4}6,6,4/5,,
{4}3,3,4/5,,
{4}6,6,7,,
{4}8,8,1/8,,
{4}2,2,1/8,,
{4}7,7,1/8,,
{4}2,2,3,,
{1}4h[2:1]/5h[2:1],
{1}5-8[4:3],
{1},
{1}1-4[4:3],
{2},4/5,
{1}4-1[4:3],
{1},
{1}8-5[4:3],
{2},4/5,
{4}3,3,3,,
{4}4,4,4,,
{4}5,5,5,,
{4}6,6,4/5,,
{4}7,7,7,,
{4}8,8,8,,
{4}1,1,1,,
{4}1/8,1/8,1/8,,
{4}2,2,1/8,,
{4}7,7,1/8,,
{4}2,2,3,,
{4}4,4,4/5,,
{4}6,6,4/5,,
{4}3,3,4/5,,
{4}6,6,7,,
{1}1h[2:1]/8h[2:1],
{4}8,8,7,,
{4}6,6,5,,
{4}4,4,3,,
{4}4/5,3/6,2/7,,
{2}1/2,1/8,
{2}7/8,1/8,
{2}7/8,1/8,
{2}1/2,1/8,
{4}7/8,7/8,7/8,,
{4}1/8,1/8,1/8,,
{4}1/2,1/2,1/2,,
{4}1/8,1/8,1/8,,
{1}1b/8b,
{4}2,2,2,,
{4}3,3,3,,
{4}4/5,4/5,3/6,3/6,
{1}2b/7b,
{1},
{1},
{1},
E
&inote_3=
(150){1},
{1},
{2}3h[2:1],4h[2:1],
{2}5h[2:1],6,
{2}6h[2:1],5,
{4}4/5,3/6,2b/7b,,
{2}1/2,7/8,
{4}1/8,2/7,3/6,,
{2}3/4,5/6,
{4}4/5,3/6,2/7,,
{2}1h[4:1]/2h[4:1],7h[4:1]/8h[4:1],
{4}1/8,2/7,3/6,,
{2}5h[4:1]/6h[4:1],3h[4:1]/4h[4:1],
{4}4/5,3/6,2h[4:1]/7h[4:1],,
{1}2b/7b,
{2}3h[2:1],4,
{2}6h[2:1],5,
{4}4/5,3/6,2b/7b,,
{4}3,4,3/4,,
{4}6,5,5/6,,
{4}3,4/5,6,4/5,
{4}4/5,3/6,2b/7b,,
{4}7,8,7/8,,
{4}2,1,1/2,,
{4}7,1/8,2,1/8,
{4}1/8,2/7,3b/6b,,
{4}3,3,4,4,
{4}5,5,6,5/6,
{4}7,7,8,8,
{4}1,1,2,1/2,
{4}3,4,5,6,
{4}7,8,1,2,
{4}3,3,4,4,
{4}4/5,3/6,2b/7b,,
{4}1/2,1/2,7/8,1/6,
{4}7/8,7/8,1/2,3/8,
{4}1/2,1/2,7/8,1/6,
{4}7/8,1/2,2b/7b,,
{4}5/6,5/6,3/4,2/5,
{4}3/4,3/4,5/6,4/7,
{4}6,5/6,3,3/4,
{1}5-2[2:1]/6-1[2:1],
{1}2h[1:1],
{1}1h[1:1],
{1}8h[1:1],
{2}7h[2:1],8,
{1}6h[1:1],
{1}5h[1:1],
{1}4h[1:1],
{2}3h[2:1],4,
{4}2,1,1/2,,
{4}7,8,7/8,,
{4}2,1/2,7,7/8,
{4}1/8,2/7,3b/6b,,
{4}6,5,5/6,,
{4}3,4,3/4,,
{4}6,5/6,3,3/4,
{4}4/5,3/6,2b/7b,,
{4}5/6,5/6,3/4,2/5,
{4}3/4,3/4,5/6,4/7,
{4}5/6,5/6,3/4,2/5,
{4}3/4,5/6,3b/6b,,
{4}1/2,1/2,7/8,1/6,
{4}7/8,7/8,1/2,3/8,
{4}2,1/2,7,7/8,
{1}1-6[2:1]/2-5[2:1],
{4}6,5,5/6,,
{4}3,4,3/4,,
{4}6,5,4,3,
{4}4/5,4/5,3b/6b,,
{2}1/2,7/8,
{4}1/8,2/7,3/6,,
{2}3/4,5/6,
{4}4/5,3/6,2/7,,
{2}1h[4:1]/2h[4:1],7h[4:1]/8h[4:1],
{4}1/8,2/7,3/6,,
{2}5h[4:1]/6h[4:1],3h[4:1]/4h[4:1],
{4}4/5,3/6,2h[4:1]/7h[4:1],,
{1}2b/7b,
{4}2,1,1/2,,
{4}7,8,7/8,,
{4}1/8,1/8,2/7,2/7,
{1}3b/6b,
{1},
{1},
{1},
E
&inote_4=
(150){1},
{4},,,1b,
{4}8,4/7,4,2/5,
{4}5,3/7,4,2/6,
{4}5,3/8,4,1/6,
{12}5,5,5,4,4,4,5b,,,,,,
{8}5/6,5/6,,,4/5,4/5,,,
{8}3/4,3/4,,,3/8,,1/6,,
{8}3/4,3/4,,,4/5,4/5,,,
{8}5/6,5/6,,,1/6,,3/8,,
{8}5/7,5/7,,,4/5,4/5,,,
{8}2/4,2/4,,,3/8,,1/6,,
{8}2/4,2/4,,,4/5,4/5,,,
{8}5/7,5/7,,,1/8,,2v3[16:3]/7v6[16:3],,
{4},,5h[2:1],4,
{4}4h[2:1],5,5h[2:1],4,
{4}4h[4:1],5h[4:1],4h[4:1],5,
{12}3,3,3,3,3,3,3b,,,,,,
{4}3/4,5,6h[4:1],8,
{4}5/6,4,3h[4:1],1,
{2}1h[4:1]/2h[4:1],7h[4:1]/8h[4:1],
{8}2/4,,5/7,,2,1,8,7,
{4}5/6,4/5,3h[4:1]/4,1,
{4}3/4,4/5,5/6h[4:1],8,
{2}7h[4:1]/8h[4:1],1h[4:1]/2h[4:1],
{4}4>1[4:1]/5<8[4:1],,,2b/7b,
{2}5h[4:1]/6-8[8:1],5h[4:1]/6-1[8:1],
{4}5h[4:1]/6-2[8:1],,4/5,1b/2b,
{2}3-1[8:1]/4h[4:1],3-8[8:1]/4h[4:1],
{4}3-7[8:1]/4h[4:1],,4/5,7b/8b,
{8}6,6,5,5,6,5,4/7,,
{8}3,3,4,4,3,4,2/5,,
{2}5-1[8:1]/6h[4:1],3h[4:1]/4-8[8:1],
{8}2/7,2/7,2v3[16:3]/7v6[16:3],,,,,,
{4}4/5,2q3[16:5]/6,7h[4:1],,
{4}1/8,2q3[16:5]/7,6h[4:1],,
{4}4/5,2q3[16:5]/6,7h[4:1],,
{4}1/8,2q3[16:5]/7,6h[4:1],,
{8}5/6,5/6,5q3[4:1]/6<2[4:1],,,,,,
{8}3/4,3/4,3>7[4:1]/4p6[4:1],,,,,,
{8}6,6,5/7,,3,3,2/4,,
{1}3bp6[2:1]/7b>2[2:1],
{4}4h[4:1],3h[4:1],2h[4:1],1,
{4}5h[4:1],6h[4:1],7h[4:1],8,
{4}4h[4:1],3h[4:1],2h[4:1],1,
{8}4/5,6,7/8,,4/5,3,1/2,,
{8}4/5h[4:1],,6h[4:1],,7h[4:1],8,8,,
{8}4h[4:1]/5,,3h[4:1],,2h[4:1],1,1,,
{8}4/5h[4:1],,6h[4:1],,7h[4:1],8,8,,
{12}2,2,2,2,2,2,2,,,1b/8b,,,
{4}5/7,4/6<2[4:1],3h[4:1],,
{4}2/4,3>7[4:1]/5,6h[4:1],,
{4}5/7,4/6<2[4:1],3h[4:1],,
{8}4/5,3,1/2,,4/5,6,7/8,,
{4}1/3,2>6[4:1]/8,7h[4:1],,
{4}6/8,1/7<3[4:1],2h[4:1],,
{4}1/3,2>6[4:1]/8,7h[4:1],,
{12}8b,8b,8b,1b,1b,1b,7h[4:1],,,2,,,
{2}4-2[32:3]/5-8[32:3],4-1[32:3]/5-7[32:3],
{2}4-2[32:3]/5-8[32:3],4-1[32:3]/5-7[32:3],
{2}4>2[32:3]/5-8[32:3],4-1[32:3]/5<7[32:3],
{4}4>2[32:3]/5-8[32:3],,4/5,2b/7b,
{8}8,8,1,1,2h[4:1]/7h[4:1],,,,
{8}6,6,3,3,4h[4:1]/5h[4:1],,,,
{8}4,3,2,1,8,7,6,5,
{1}4b>1[2:1]/5b<8[2:1],
{1}3h[4:3]/6h[4:3],
{2}3h[4:1]/6h[4:1],3h[4:1]/6h[4:1],
{2}3h[4:1]/6h[4:1],3h[4:1]/6h[4:1],
{12}4,4,4,5,5,5,4b/5b,,,,,,
{8}5/7,5h[16:3]/7h[16:3],,,2/4,2h[16:3]/4h[16:3],,,
{8}5/6,5h[16:3]/6h[16:3],,,3/8,,1/6,,
{8}2/4,2h[16:3]/4h[16:3],,,5/7,5h[16:3]/7h[16:3],,,
{8}3/4,3h[16:3]/4h[16:3],,,1/6,,3/8,,
{8}5/6,5h[16:3]/6h[16:3],,,2/4,2h[16:3]/4h[16:3],,,
{8}4/8,4h[16:3]/8h[16:3],,,2/5,,4/7,,
{8}3/4,3h[16:3]/4h[16:3],,,5/7,5h[16:3]/7h[16:3],,,
{8}1/5,1h[16:3]/5h[16:3],,,2/7,,1>4[16:3]/8<5[16:3],,
{4},,4/5h[4:1],1,
{4}3h[4:1]/4,8,5/6h[4:1],1,
{4}2h[4:1]/4,1,5/7h[4:1],8,
{12}1b,1,1,1,1,1,1,1,1,1,1,1,
{1}1b/8b,
{1},
{1},
{1},
E
&inote_5=
(150){1},
{4}1,1,1,1b,
{16}4/5,,3,,4h[4:1]/5,,,,6,4,,3,5,,,,
{16}4/5,,6,,4/5h[4:1],,,,3,5,,6,4,,,,
{16}4/5,,3,,4h[4:1]/5,,,,6,4,,3,5,,,,
{12}1,1,1,8,8,8,2b/7b,,,,,,
{8}3-8[8:1]/4,3/4,,,5/6-1[8:1],5/6,,,
{8}3-8[8:1]/4,3/4,,,5/7,6,2/4,3,
{8}7<4[8:1]/8,7/8,,,1/2>5[8:1],1/2,,,
{8}7<4[8:1]/8,7/8,,,1/2,3,7/8,6,
{8}1/3<6[8:1],1/3,,,6>3[8:1]/8,6/8,,,
{8}1/3<6[8:1],1/3,,,4/7,6,2/5,3,
{8}4/7>2[8:1],4/7,,,2<7[8:1]/5,2/5,,,
{8}4/7>2[8:1],4/7,,,3/4,1,5/6,8,
{16}2b/7b,,,,4/5h[4:1],,,,3,4,,6,5,,,,
{16}4/5,,3,,4h[4:1]/5,,,,6,5,,3,4,,,,
{16}4/5,,6,,4/5h[4:1],,,,3,4,,6,5,,,,
{12}8,8,8,1,1,1,2b/7b,,,,,,
{16}2h[16:11]/5,,5,,4,,4,,3,,3,3,,,,,
{16}4/7h[16:11],,4,,5,,5,,6,,6,6,,,,,
{16}3h[16:3]/5,,4,4,,,,,4/6h[16:3],,5,5,,,,,
{8}3h[2:1]/4,4,5,5,6h[8:1],5h[8:1],4h[8:1],3,
{16}2h[16:11]/6,,6,,5,,5,,4,,3,3,,,6,,
{16}3/7h[16:11],,3,,4,,4,,5,,6,6,,,3,,
{16}2h[16:3]/4,,3,3,,,6,,5/7h[16:3],,6,6,,,4/5,,
{8}3h[8:1],4h[8:1],5h[8:1],6h[8:1],4-8[8:1],,1b,,
{8}3-8[8:1]/6,6,7b,,3-8[8:1]/5,5,7b,,
{8}3-8[8:1]/4,4,5,5,3-8[8:1]/6,6,7b,,
{8}3/6-1[8:1],3,2b,,4/6-1[8:1],4,2b,,
{8}5/6-1[8:1],5,4,4,3/6-1[8:1],3,2b,,
{8}2h[2:1],3,4,5,6h[2:1],7,8,1,
{8}2h[2:1],1,8,7,6h[2:1],5,4,3,
{8}2-6[8:1],2,1b,,7-3[8:1],7,8b,,
{8}1,8,2v3[8:1]/7v6[8:1],,2/7,,1b/5b,,
{16}6>3[8:1]/8,,8,,1,,1,,2,4,2,,1b/5b,,,,
{16}1/3<6[8:1],,1,,8,,8,,7,5,7,,4b/8b,,,,
{16}6>3[8:1]/8,,8,,1,,1,,2,4,2,,1b/5b,,,,
{16}2/8,,2/8,,1/7,,1/7,,6,5,,3,4,,,,
{16}2<7[8:1]/4,,4,,5,,6,,7,8,7,,1b/6b,,,,
{16}5/7>2[8:1],,5,,4,,3,,2,1,2,,3b/8b,,,,
{16}6,5,6,5,7h[8:1],,8,,3,4,3,4,2h[8:1],,1,,
{4}4w8[4:1]/8b,,,2/6,
{16}4/5,,3,,4h[4:1]/5,,,,7,5,,2,4,,,,
{16}4/5,,6,,4/5h[4:1],,,,2,4,,7,5,,,,
{16}4/5,,3,,4h[4:1]/5,,,,7,5,,2,4,,,,
{12}6,6,6,3,3,3,4-8[8:1]/5-1[8:1],,,,,,
{16}1/8,,7,,1/8h[4:1],,,,3,1,,6,8,,,,
{16}1/8,,2,,1h[4:1]/8,,,,6,8,,3,1,,,,
{16}1/8,,7,,1/8h[4:1],,,,3,1,,6,8,,,,
{12}1,1,1,8,8,8,2b/7b,,,,,,
{8}1-5[8:1]/6,6,6,6,5-2[8:1]/6,6,,,
{8}2-7[8:1]/6,6,6,6,6/7-4[8:1],6,,,
{8}4>1[8:1]/6,6,6,6,1-5[8:1]/6,6,,,
{8}5p3[8:3]/6,6,6,6,6>4[8:1],,,,
{8}3/8-4[8:1],3,3,3,3/4-7[8:1],3,,,
{8}3/7-2[8:1],3,3,3,2-5[8:1]/3,3,,,
{8}3/5<8[8:1],3,3,3,3/8-4[8:1],3,,,
{12}1,1,1,5,5,5,2b-7[8:1]/6b-3[8:1],,,,,,
{16}6>3[8:1]/8,,8,,1,,1,,2-6[8:1],4,2,,8b,,,,
{16}5/7>2[8:1],,5,,4,,4,,3-7[8:1],1,3,,8b,,,,
{16}6>3[8:1]/8,,8,,1,,1,,2-6[8:1],4,2,,8b,,,,
{16}4/7>2[8:1],,4,,3,,3,,4,5,,5,4,,,,
{16}3,4,3,4,2,5,2,5,1,6,1,6,7b/8b,,,,
{16}2,1,2,1,3,8,3,8,4,7,4,7,5b/6b,,,,
{16}1,5,1,5,2,6,2,6,3,7,3,7,4,8,4,8,
{4}1b/5w1[4:1],,,3/7,
{16}4/5,,6,,4/5h[4:1],,3,,2,4,,7,5,,,,
{16}4/5,,3,,4h[4:1]/5,,6,,7,5,,2,4,,,,
{16}4/5,,6,,4/5h[4:1],,3,,2,4,,7,5,,,,
{12}4/5,4/5,4/5,3/6,3/6,3/6,2b/7b,,,,,,
{16}3-8[8:1]/4,,5,5,,,,,5/6-1[8:1],,4,4,,,,,
{16}3-8[8:1]/4,,5,5,,,,,5/7,,6,,2/4,,3,,
{16}7<4[8:1]/8,,1,1,,,,,1/2>5[8:1],,8,8,,,,,
{16}7<4[8:1]/8,,1,1,,,,,1/2,,3,,7/8,,6,,
{16}1/3<6[8:1],,8,8,,,,,6>3[8:1]/8,,1,1,,,,,
{16}1/3<6[8:1],,8,8,,,,,4/7,,6,,2/5,,3,,
{16}4/7>2[8:1],,5,5,,,,,2<7[8:1]/5,,4,4,,,,,
{16}4/7>2[8:1],,5,5,,,,,3/4,,1,,5/6,,8,,
{16}2b/7b,,,,1h[4:1]/8,,7,,6,8,,3,1,,4,,
{16}1/8,,7,,1/8h[4:1],,2,,3,1,,6,8,,5,,
{16}1/8,,2,,1h[4:1]/8,,7,,6,8,,3,1,,4,,
{12}1/8,1/8,1/8,2/7,2/7,2/7,4/5,4/5,4/5,3qq5[16:7]/6pp4[16:7],3/6,3/6,
{1}3b/6b,
{1},
{1},
{1},
E
