&title=極圏
&wholebpm=207
&artist=cosMo VS dj TAKA「SOUND VOLTEX」より
&des=華火職人
&shortid=796
&genre=ゲームバラエティ
&cabinet=SD
&version=maimai FiNALE
&chartconverter=Neskol
&lv_2=6
&des_2=-
&lv_3=9
&des_3=-
&lv_4=12+
&des_4=小鳥遊さん
&lv_5=14
&des_5=華火職人
&des_6=
&inote_2=
(207){1},
{1},
{2}1,1,
{2}2,2,
{2}3,3,
{2}4,4,
{1}4/5,
{1},
{4}5,5,5,,
{1}5/6,
{4}4,4,4,,
{1}3/4,
{4}5,5,5,,
{1}4/6,
{4}4,4,4,,
{1}3/5,
{4}6,6,6,,
{4}7,7,7,,
{1}8h[2:1],
{1}1b/7b,
{4}1,1,1,,
{4}2,2,2,,
{1}3h[2:1],
{1}2b/4b,
{1}5h[4:3]/6h[4:3],
{2},4/5,
{4},3h[4:3]/4h[4:3],,,
{1},
{1}4/5,
{1}4/5,
{1}3/6,
{1}3/6,
{1}2/7,
{1}2/7,
{1}1/8,
{1}1/8,
{1}8h[2:1],
{1}7h[2:1],
{1}6h[2:1],
{1}5h[2:1],
{2}4,4,
{2}3,3,
{2}2,2,
{1}1b/8b,
{4}1,1,2,2,
{4}3,3,4,4,
{1}5h[2:1]/6h[2:1],
{1}3h[2:1]/4h[2:1],
{4}6,5,4/6,,
{4}3,4,3/5,,
{4}5,5,6,6,
{4}7,7,1/8,,
{4}8,8,7,7,
{4}6,6,5,5,
{1}3h[2:1]/4h[2:1],
{1}5h[2:1]/6h[2:1],
{4}3,4,3/5,,
{4}6,5,4/6,,
{4}4,4,3,3,
{4}2,2,1/8,,
{1}1-5[4:3],
{1},
{1}8-4[4:3],
{1},
{1}1-6[4:3]/2-5[4:3],
{1},
{1}7-4[4:3]/8-3[4:3],
{1},
{1}1h[2:3],
{2}8,8,
{1}8h[2:3],
{2}1,1,
{1}7h[4:3]/8h[4:3],
{1}1h[4:3]/2h[4:3],
{1}3b/4b,
{1}5b/6b,
{1}1b/2b,
{1}7b/8b,
{4}1,1,2,2,
{4}3,3,4,4,
{2}5h[2:3],4,
{2}4,4b,
{4}5,5,6,6,
{4}7,7,8,8,
{4}1,1,8,8,
{2}1h[2:1],8,
{4}8,8,7,7,
{4}6,6,5,5,
{2}4b/6b,3b/5b,
{2}4b/6b,3b/5b,
{4}4,4,3,3,
{4}2,2,1,1,
{4}8,8,1,1,
{2}8h[2:1],1,
{4}8,8,7,7,
{4}6,6,5,5,
{4}4/5,4/5,3/6,3/6,
{4}2/7,2/7,1/8,1/8,
{1}1h[1:2],
{1}8h[1:1],
{4},2h[4:15]/7h[4:15],,,
{1},
{1},
{1},
{1},
{1},
{1},
E
&inote_3=
(207){1},
{1},
{4}5/6,5/6,3/4,3/4,
{4}5/6,5/6,3/4,3/4,
{4}5,5,4/6,4/6,
{4}3,3,3/4,2p5[8:5],
{1},
{4}3/4,5/6,2b/7b,,
{4}6,6,5/7,5/7,
{4}4,3,2/5,2/5,
{4}3,4,5,4/6,
{1}7>2[2:1],
{4}3,3,2/4,2/4,
{4}1,8,2/7,2/7,
{4}8,1,2,3>8[4:3],
{1},
{4}6,5,4/7,4/7,
{4}3,4,2/5,2/5,
{4}3,4,5/6,7q4[4:3],
{1},
{4}5,4,3/6,3/6,
{4}4,5,3/6,3/6,
{4}5,4/6,3/7,2/8,
{2}1h[2:1],8b,
{4}1,2,3,4,
{4}5,6,7,1/8,
{4}7,6,5,4>7[4:3],
{1},
{1}5h[1:1]/6b,
{1}7h[1:2],
{1}8h[1:1],
{2},7/8,
{1}1h[1:1]/2,
{1}3h[1:2],
{1}4h[1:1],
{2},2/5,
{2}3h[2:1],4,
{2}6h[2:1],5,
{2}2h[2:1],1,
{1}3/8,
{1}2h[2:1]/5h[2:1],
{1}4h[2:1]/7h[2:1],
{1}3h[2:1]/6h[2:1],
{8}4,4,4,,5,5,5,,
{4}4b/6b,7,8,1,
{4}2/7,3/8,2/7,1>6[4:3],
{1},
{4}7,8,1/6,,
{4}2h[4:1],1,3/8,,
{4}7h[4:1],8,1/6,,
{4}5/7,5/7,2/4,2/4,
{4}1/8,2/7,3b/6b,,
{4}2/8,3,4,5,
{4}3/6,4/7,3/6,5<2[4:3],
{1},
{4}3/4,3/4,2/5,,
{4}7h[4:1],8,1/6,,
{4}2h[4:1],1,3/8,,
{4}2/4,3,4/6,5w1[8:5],
{1},
{4}3b/8b,2,1,1,
{4}1/6,7,8,8V25[4:3],
{1},
{4}4/6,3/7,2/8,,
{4}4/7,6,5,5,
{4}2/5,3,4,5V37[4:3],
{1},
{2}1h[4:1]/8h[4:1],2/7,
{4}3,3,4,5,
{4}4/6,3/7,2/8,1,
{8}8,8,8,,1,1,1,,
{8}1/8,1/8,1/8,,2/7,,,,
{8}6,6,5,,4/7,,,,
{8}3,3,4,,2/5,,,,
{1}1-4[8:3],
{1}5-8[8:3],
{1}1>4[8:3],
{4}4/5,3/6,2/7,1/8,
{8}1h[4:1]/8h[4:1],,,,2/7,2/7,2b/7b,,
{4}3,2/4,6,5/7,
{8}2,2,1/2,,7,7,7/8,,
{8}1,1,1/8,,2/7,,,,
{4}4h[4:1],3h[4:1],2,,
{4}5h[4:1],6h[4:1],7,,
{8}1,1,1,,8,8,8,,
{8}2/7,2/7,2/7,,3b/6b,,,,
{4}3/4,2,1,8,
{4}4/7,6,2/5,3,
{8}5/6,5/6,5b/6b,,3/4,3/4,3b/4b,,
{8}7/8,7/8,7b/8b,,1/2,1/2,1b/2b,,
{4}3h[4:1],4,2/5,1/6,
{4}7h[4:1],8,1/6,,
{4}3/4,5/6,4/7,8,
{4}5/6,3/4,2b/5b,,
{4}4/7,4/7,2/5,2/5,
{4}7/8,1/2,3/4,5<2[4:3],
{1},
{4}3/4,5/7,2/4,4q3[4:3]/5<2[4:3],
{1},
{4}5/6,7/8,1/2,3/8,
{4},2b/6b,,,
{1},
{1},
{1},
E
&inote_4=
(207){1},
{4},,,1/8,
{4}5/6,3/4,5/7,2/4,
{12}6/8,,,1/3,,,4,5,4,5,,,
{2}3h[4:1]/4h[4:1],6h[4:1]/7h[4:1],
{12}1h[4:1]/2h[4:1],,,,,,4,5,4,5,,,
{1}2b<3[2:3]/7b,
{4},,,1b,
{8}3h[4:1],,4,,2/5,2/5,,1/8h[8:3],
{4},7h[4:1],6h[4:1],5h[4:1],
{1}4s8[2:1],
{8}1/2,,3/4,,1/2,1/2,,4/8,
{8},,5/6,,4/7,4/7,,1h[8:3]/8,
{4},2h[4:1],3h[4:1],4h[4:1],
{1}5z1[2:1],
{8}7/8,7/8,,5/6,,7/8,,1/6,
{8}1/6,,3/4,,2,2,1,1h[8:3],
{4},8h[4:1],7h[4:1],6h[4:1],
{1}5s1[2:1],
{8}1/2,1/2,,3/4,,2,1,2,
{8}3/8,,5/6,,7,7,8,8h[8:3],
{4},1h[4:1],2h[4:1],3h[4:1],
{1}4z8[2:1],
{1}5s1[2:1],
{8}1/8,,3,3/4,,6,5/6,,
{8}2/4,,5/7,,1,8,1,8,
{8}1,,2/4,2/4,,5/7,5/7,,
{6}2h[6:1],3h[6:1],4h[6:1],5h[6:1],6h[6:1],7h[6:1],
{1}8b>7[4:7],
{1},
{1},
{1},
{1}1s5[2:1],
{1}1>4[8:3]/8-5[8:3],
{1}1-4[8:3]/7-4[8:3],
{1}4-8[2:1]/5-1[2:1],
{2}1h[2:1]/8,2h[2:1],
{2}3h[2:1],4h[2:1],
{2}8h[2:1],7h[2:1],
{2}6h[2:1],5h[2:1],
{8}4h[2:1],,,,,,4/5,4h[8:5]/5h[8:5],
{1},
{1}4-1[2:1]/5-8[2:1],
{16}2/7,,1,8,1,8,1,8,1,8,1,8,1b,,,,
{8}3,4,2,2,5,4,6,6,
{4}5/7,1/7,1/3,3/5<4[1:1],
{1}1,
{4},,1/8,2/7,
{16}1h[16:3],,,2h[16:3],,,3,,3/4,,,,1/5,,,,
{16}8h[16:3],,,7h[16:3],,,6,,5/6,,,,4/8,,,,
{16}2h[16:3],,,3h[16:3],,,4,,7h[16:3],,,6h[16:3],,,5,,
{1}3qq8[2:1]/4pp7[2:1],
{8}6,5,7,7,4,5,3,3,
{4}2/4,2/8,6/8,4/6,
{4}1/2-5[8:1],1,7-4[8:1]/8,8,
{4}1-5[8:1]/8,8,4b/8b,,
{16}6h[16:3],,,7h[16:3],,,8,,1/8-4[8:1],,,,,,,,
{16}3h[16:3],,,2h[16:3],,,1,,1-5[8:1]/8,,,,,,,,
{16}6h[16:3],,,7h[16:3],,,8,,3h[16:3],,,2h[16:3],,,1,,
{4}1-5[4:1]/8-4[4:1],,,2b/7b,
{8}5/6,6,6,,3/4,3,3,,
{8}6,5,4,3,2-6[8:1],,,,
{8}7/8,7,7,,1/2,2,2,,
{8}6/8,,1/3,,1/8,1/8,1/8,,
{8}3,3,4,4,5,5,6,6,
{2}7-3[8:1],1-5[8:1],
{8}3/4,,5/6,,1,1,8,8,
{4}2V41[16:5]/7V58[16:5],,,2b/7b,
{8}3,4,5,6,7h[4:1],,8,,
{8}6,5,4,3,2h[4:1],,1,,
{8}5/7,7,7,,2/4,2,2,,
{8}3,4,5,6,2h[4:1]/7h[4:1],,,,
{4}3-8[8:1]/4-8[8:1],,2,1/3,
{4}5-1[8:1]/6-1[8:1],,7,6/8,
{8}1/7,1/7,,2/8,,1/7,,3/8,
{8}3/8,3/8,,1/6,,3/8,,1/6,
{8}2,2,7,7,1,1,8,8,
{16}2/7,,2/7,,2/7,,2/7,,1,8,1,8,1,8,1,8,
{8}1b,,,,4/5,4/5,3b/6b,,
{4}5/7,1/7,1/3,3/5<4[1:1],
{1}1h[1:1],
{4},,1/8,2/7,
{16}6h[16:3],,,7h[16:3],,,8,,1/8-4[8:1],,,,2,,,,
{16}3h[16:3],,,2h[16:3],,,1,,1-5[8:1]/8,,,,7,,,,
{16}6h[16:3],,,7h[16:3],,,8,,3h[16:3],,,2h[16:3],,,1,,
{1}7qq4[2:1]/8pp3[2:1],
{8}6,5,7,7,4,5,3,3,
{4}2/4,2/8,6/8,4/6,
{4}3/4-8[8:1],1b,5-1[8:1]/6,8b,
{4}2/4-8[8:1],1b,5-1[8:1]/7,8b,
{16}4h[16:3],,,3h[16:3],,,2,,1/2-6[8:1],,,,8,,,,
{16}5h[16:3],,,6h[16:3],,,7,,7-3[8:1]/8,,,,1,,,,
{16}2h[16:3],,,3h[16:3],,,4,,7h[16:3],,,6h[16:3],,,5,,
{1}4pp7[2:1]/8pp3[2:1],
{4}3/4,5/6,2/4,5/7,
{12}1/2,,,7/8,,,1,8,1,8,1,8,
{4}1h[4:1],2h[4:1],3h[4:1],4h[4:1],
{4}5h[4:1],6h[4:1],7h[4:1],8h[4:1],
{16}1b,,,,1,8,1,8,1,8,1,8,1,8,1,8,
{1}1pp5[8:5]*qq5[8:5],
{4},2h[4:15]/7b<8[2:7],,,
{1},
{1},
{1},
{1},
{1},
{1},
E
&inote_5=
(207){1},
{4},,,1/8,
{12}6,5,6,3,4,3,6,5,7,3,4,2,
{12}7,5,7,2,4,2,8,5,8,1,4,1,
{4}2h[6:1]/5h[6:1],6h[6:1]/7h[6:1],1h[6:1]/3h[6:1],4h[6:1]/6h[6:1],
{12}2h[6:1]/8h[6:1],,,3h[6:1]/4h[6:1],,,1,1,1,8,8,8,
{1}2h[4:3]/7h[4:3],
{48}2,,,1,,,2,,,1,,,3,,,8,,,3,,,8,,,4,,5,,6,,7,,8,,1,,2b/5b,,,,,,,,,,,,
{8}2/7,,4/5h[4:1],,8,1,2,3h[4:1]/4,
{8},5,3/4,2,3/4,5,3/4,2,
{8}1h[4:1]/8h[4:1],,,4h[4:1]/7h[4:1],,,1-6[8:1]/2,,
{8}1/2-5[8:1],,1/2,,1/2,1-6[8:1]/2-5[8:1],,1/2,
{8},,7/8,1,2,3,4,5/6h[4:1],
{8},4,5/6,7,5/6,4,5/6,7,
{8}1/8,1/8,,2h[4:1]/5h[4:1],,,7-4[8:1]/8,,
{8}7/8,8-3[8:1],,7-4[8:1]/8,,7/8-3[8:1],,7/8,
{8}7,,1/2h[4:1],,4,5,6,7/8h[4:1],
{8},6,7/8,1,7/8,6,7/8,1,
{8}7/8,6,5,4h[4:1]/7h[4:1],,,1/2-6[8:1],,
{8}1/2,1-5[8:1],,1/2,,2-5[8:1],1-6[8:1],2,
{8}1,,7h[4:1]/8,,5,4,3,1/2h[4:1],
{8},8,1/2,3,1/2,8,1/2,3,
{8}1h[8:5]/8,7,6,5h[4:1],,,2/6-1[8:1],3-8[8:1]/7,
{8}6,3,,2V41[4:1]/7V58[4:1],,2/7,,,
{8}7-4[8:1],8,7,2-5[8:1],1,2,6-1[8:1],4,
{16}6,,3-8[8:1],,5,,3,,6>3[8:1],,,,2,1,8,7,
{16}6,5,4,3,2/8,,7,,1,,4/6,,8,,2,,
{6}7h[1:0],1h[1:0],6h[1:0],2h[1:0],5h[1:0],3h[1:0],
{1}4>5[4:11],
{1},
{1},
{1},
{1}1s5[16:9],
{1}8-5[2:1]*>5[2:1],
{1}2-5[2:1]/8-5[2:1],
{1}4-8[2:1]/5-1[2:1],
{2}2b<3[2:7]/7b,3h[4:1],
{2}2h[4:1],1h[4:1],
{2}8h[4:1],7h[4:1],
{2}6h[4:1],5h[4:1],
{8}4h[4:7],,,,,,5,5h[8:7],
{1},
{1}4z8[2:1]/6z2[2:1],
{16}2/8,,1,1,1,1,1,1,1-5[8:1],1,1,1,1b,,,,
{8}4/6,4,7/8,7,1/2,2,1-5[8:1]/7,7,
{4}1/8-4[8:1],2-5[8:1]/8,2/7-4[8:1],3-8[8:1]/7,
{16}3/6,,,,7,6,5,4,1,2,3,4,1,8,7,6,
{16}1,2,3,4,5,6,7,8,1-4[8:1]/5-8[8:1],,,,1b/5b,,,,
{16}5/7,,,3,3<6[8:1],,7,,6-2[8:1],,,,7b,,,,
{16}1/3,,,6,6>3[8:1],,2,,3-7[8:1],,,,2b,,,,
{16}1-4[8:1]/8,,,8,1,,6,,5h[8:1]/7h[8:1],,,,2h[8:1]/4h[8:1],,,,
{16}1/8,,6,5,6,,3,4,3,,4/5,,2b/7b,,,,
{8}4/5,5,1/2,2,7/8,7,2/8-4[8:1],2,
{4}1-5[8:1]/8,1/6-1[8:1],3-8[8:1]/6,3,
{4}7v4[8:1],7b/8b,2v5[8:1],1b/2b,
{4}6v1[8:1],5b/6b,3v8[8:1],3b/4b,
{16}5/7,,,3,3<6[8:1],,7,,6-2[8:1],,,,7b,,,,
{16}1/3,,,6,6>3[8:1],,2,,3-7[8:1],,,,2b,,,,
{16}4/5-8[8:1],,,4,5,,4,,1h[8:1]/3h[8:1],,,,6h[8:1]/8h[8:1],,,,
{16}1,8,1,8,2,7,2,7,3/6,,4/5,,2b/7b,,,,
{16}4/7,,6,5,6,,3,4,3,,6,5,6,5,6,,
{16}1,2,3,4,7,6,5,4,2,1,2,1,3/8,,,,
{48}1,,,,1,,,,1,,,,8,,,,8,,,,8,,,,2,,,3,,,4,,,5,,,8,,,7,,,6,,,5,,,
{24}3/4,,,2,,,5/6,,,7,,,1,8,1,8,1,8,1b,,,,,,
{16}2/7,3,4,5,6,7,8,1,6,5,4,3,2,1,8,7,
{8}6>3[8:1],,2,2,1h[4:1],,8h[4:1],,
{8}4,4,5,5,3/6,3/6,2/7,2/7,
{48}1,,,2,,,3,,,4,,,8,,,7,,,6,,,5,,,2,,3,,4,,5,,6,,7,,1b/8b,,,,,,,,,,,,
{16}3,4,3,5,3,6,3,7h[16:7],,,8,,1,,2,,
{16}3/6,,4/5,,6,5,6,5,7,4,7,4,1,2,1,2,
{16}3/8,7,6,5,4,3,2,1,3/8,4,5,6,7,8,1,2,
{8}3/7,6,2/5,3,4-1[8:1]/8-5[8:1],,4/8,,
{16}2/4,,,6,5/6,,,,2-7[8:1]/4,,,,1/2b,,,,
{16}6/8,,,3,3/4,,,,5/7-2[8:1],,,,7b/8,,,,
{8}1/3,1-5[8:1]/3,,1/7-4[8:1],,2-5[8:1]/7,,2/5,
{8}7,7/8-4[8:1],,2-5[8:1]/8,,2/7-4[8:1],,4/7,
{8}3,3,6,6,3,2/4,6,5/7,
{16}1,8,1,8,1,8,1,8,1,8,1,8,1,8,1,8,
{32}2h[4:1]/7h[4:1],,,,,,,,,,,,,,,,8,7,6,5,4,3,2,1,4b/8b-4[8:1],,,,,,,,
{4}1-5[8:1]/8,1/7-4[8:1],2-5[8:1]/7,2/6-1[8:1],
{16}3/6,,,,2,3,4,5,8,7,6,5,8,1,2,3,
{16}8,7,6,5,4,3,2,1,4-1[8:1]/8-5[8:1],,,,4b/8b,,,,
{16}3/4-8[8:1],,,3,4,,1,,3-7[8:1]/7,6,5,4,1b/3,,,,
{16}5-1[8:1]/6,,,6,5,,8,,2/6-2[8:1],3,4,5,6/8b,,,,
{16}1-4[8:1]/8,,,8,1,,6,,5h[8:1]/7h[8:1],,,,2h[8:1]/4h[8:1],,,,
{16}1/8,,6,5,7,,3,4,2,,3/6,,1b/8b,,,,
{8}4/5,5,1/2,2,7/8,7,2/8-4[8:1],2,
{4}1-5[8:1]/8,1/6-1[8:1],3-8[8:1]/6,3/5-1[8:1]*-8[8:1],
{4}5,4b-1[8:1]*-8[8:1]/5b,4,4b/5bw1[8:1],
{4}5,4bw8[8:1]/5b,4,4b/5b,
{16}3/4-7[8:1],,,3,4,,1,,2-7[8:1]/6,5,4,3,1b/2,,,,
{16}5-2[8:1]/6,,,6,5,,8,,3/7-2[8:1],4,5,6,7/8b,,,,
{16}1-4[8:1]/8,,,8,1,,6,,1h[8:1]/3h[8:1],,,,6h[8:1]/8h[8:1],,,,
{16}1,8,1,8,2,7,2,7,3/6,,4/5,,1b/8b,,,,
{12}4/5,,6,5/6,,3,3/4,,7,5/7,,2,
{12}2/4,,7,7/8,,1,1/8,8,8,1,1,1,
{4}2/8h[4:1],7h[4:1],6h[4:1],5h[4:1],
{4}4h[4:1],3h[4:1],2h[4:1],1,
{24}1b/8b,,,,,,1,8,1,8,1,8,1,8,1,8,1,8,1,8,1,8,1,8,
{16}1,2,3,4,8,7,6,5,1,2,3,4,5,6,7,8,
{4},2b>8[2:7]/7b<1[2:7],,,
{1},
{1},
{1},
{1},
{1},
{1},
E
