&title=敗北の少年
&wholebpm=185
&artist=kemu
&des=はっぴー
&shortid=829
&genre=niconicoボーカロイド
&cabinet=SD
&version=maimai FiNALE
&chartconverter=Neskol
&lv_2=5
&des_2=-
&lv_3=8+
&des_3=-
&lv_4=11+
&des_4=小鳥遊さん
&lv_5=13
&des_5=はっぴー
&des_6=
&inote_2=
(185){1},
{1},
{2}1,1,
{2}2,2,
{2}3,3,
{4}4,4,4,,
{2}5,5,
{2}6,6,
{2}7,7,
{4}8,8,8,,
{1}1h[2:1],
{1}1h[2:1],
{1}2h[2:1],
{2}2,2,
{1}3h[2:1],
{1}3h[2:1],
{1}4h[2:1],
{1}4/5,
{2}5,5,
{1}5,
{2}6,6,
{2}6,5/6,
{2}7,7,
{1}7,
{2}8,8,
{2}8,1/8,
{1}8-5[4:3],
{1},
{1}1-4[4:3],
{1},
{2}8,8,
{2}7,7,
{2}6,6,
{1}4b/5b,
{4}4,4,4,,
{4}3,3,3,,
{4}2,2,2,,
{4}1,1,1,,
{4}8,8,8,,
{4}7,7,7,,
{1}6h[2:1],
{2}4/5,4/5,
{4}5,5,5,,
{4}6,6,6,,
{4}7,7,7,,
{4}8,8,8,,
{1}1h[2:1],
{1}8h[2:1],
{1}1-5[4:3],
{1},
{2}8,8,
{2}1,1,
{1}8-4[4:3],
{1},
{2}1,1,
{2}8,8,
{1}7h[2:1],
{2}7,7,
{1}6h[2:1],
{2}6,6,
{2}5,5,
{2}4,4,
{2}3,3,
{2}2,2,
{1}1-4[4:3],
{1},
{1}8-5[4:3],
{1},
{2}1,1,
{2}2,2,
{2}3,3,
{1}4b/5b,
{1}4b/5b,
{4}5,5,5,,
{4}6,6,6,,
{4}7,7,8,8,
{4}1,1,1/8,,
{4}2,2,2,,
{4}3,3,3,,
{1}3h[2:1]/4h[2:1],
{2}4/5,4/5,
{4}4,4,4,,
{4}3,3,3,,
{4}2,2,1,1,
{4}8,8,1/8,,
{1}1h[1:1]/8h[1:1],
{2},1b/8b,
{4}1,1,2,2,
{4}3,3,3/4,,
{4}5,5,6,6,
{4}7,7,7/8,,
{4}2,2,1/2,,
{4}7,7,7/8,,
{1}1-5[4:3],
{1},
{4}5,5,6,6,
{4}7,7,7/8,,
{4}1,1,2,2,
{4}3,3,3/4,,
{1}5h[2:1]/6h[2:1],
{1}3h[2:1]/4h[2:1],
{1}4h[2:1]/6h[2:1],
{1}3h[2:1]/5h[2:1],
{4}4,4,4,,
{4}3,3,3,,
{4}2,2,2,,
{4}1,8,1,,
{4}8,8,8,,
{4}7,7,7,,
{4}6,6,6,,
{4}5,4,5,,
{1},
{1},
{1},
E
&inote_3=
(185){1},
{1},
{4}4,3,2,1,
{4}8,7,7/8,,
{4}5,6,7,8,
{4}1,2,1/2,,
{4}1,2,3,4,
{4}5,6,7,1/8,
{4}2,2,1,1,
{4}1/8,1/8,2/7,,
{4}6,6,5/6,,
{4}3,3,3/4,,
{4}4,4,5,5,
{4}6,6,5/7,,
{4}3,3,3/4,,
{4}6,6,5/6,,
{4}5,5,4,4,
{4}3,3,2/4,,
{4}7,7,7/8,,
{4}2,2,1/2,,
{4}1,1,8,8,
{4}7,7,6/8,,
{4}2,2,1/2,,
{4}7,7,7/8,,
{4}8,8,1,1,
{4}2,2,1/3,,
{2}6h[2:1],5,
{2}3h[2:1],4,
{2}6h[2:1],5,
{2}3h[2:1],4,
{4}6,6,5,5,
{4}4,4,3/6,3/6,
{4}2/7,2/7,1/8,1/8,
{1}2b/7b,
{4}2,2,1,1,
{4}8,7/8,1/6,,
{4}7,7,8,8,
{4}1,1/2,3/8,,
{1}6<1[2:1],
{1}3>8[2:1],
{4}7,7,8,8,
{4}1,1,2/8,,
{4}7,7,8,8,
{4}1,1/2,3/8,,
{4}2,2,1,1,
{4}8,7/8,1/6,,
{4}7h[8:3]/8h[8:3],,,6>3[2:1],
{1},
{1}1-6[2:1]/2-5[2:1],
{1}7-4[2:1]/8-3[2:1],
{4}2,1,1/8,7,
{4}8,1/8,2/7,,
{1}7-4[2:1]/8-3[2:1],
{1}1-6[2:1]/2-5[2:1],
{4}6,5,4/5,3,
{4}4,4/5,3/6,,
{1}8-5[2:1],
{1}4-1[2:1],
{4}2,3,4,5,
{4}6,7,1/8,,
{1}7-2[2:1],
{1}3-6[2:1],
{4}7,8,1,2,
{4}1/8,1/8,2/7,,
{2}3h[2:1],4,
{2}6h[2:1],5,
{2}3h[2:1],4,
{2}6h[2:1],5,
{1}4h[2:1]/5h[2:1],
{4}4/5,4/5,3/6,3/6,
{4}2/7,2/7,1/8,1/8,
{1}2h[1:1]/7h[1:1],
{1},
{4}7,7,7/8,7/8,
{4}1,1/2,3/8,,
{4}2,2,1/2,1/2,
{4}8,7/8,1/6,,
{1}2>5[2:1],
{1}6<1[2:1],
{4}1/2,1/2,8,7,
{4}7/8,7/8,1/6,,
{4}3,3,3/4,3/4,
{4}5,5/6,4/7,,
{4}7,7,7/8,7/8,
{4}1,1/2,3/8,,
{1}3>6[4:5],
{1},
{4}7/8,7/8,1/2,1/2,
{4}8,7/8,1,1/2,
{4}7/8,7/8,1/2,1/2,
{4}7/8,1/2,3/8,,
{1}3<6[2:1],
{1}7>2[2:1],
{4}3/4,3/4,2/5,,
{4}5/6,5/6,4/7,,
{4}1/2,1/2,7/8,7/8,
{4}1,1/2,8,7/8,
{4}1/2,1/2,7/8,7/8,
{4}1/2,7/8,1/6,,
{1}6>3[2:1],
{1}2>5[2:1],
{1}7<4[2:1],
{1}3<6[2:1],
{4}7,8,1,1,
{4}2,1,7/8,,
{4}2,1,8,8,
{4}7,8,1/2,,
{4}7,8,1,1,
{4}2,1,7/8,7/8,
{4}7,8,1,2,
{4}1/8,1/8,2b/7b,,
{1},
{1},
{1},
E
&inote_4=
(185){1},
{4},,,4/5,
{4}2h[4:1],3h[4:1],4,4/5,
{8}6,5,6,,5/6,,4/7,,
{4}6,5/7,3,2/4,
{8}3,4,3,,1/8,,,,
{4}7h[4:1],6h[4:1],5,4/5,
{8}3,4,3,,3/4,,2/5,,
{4}3,2/4,6,5/7,
{8}6,5,6,,2b/7b,,,,
{4}6,5/6,6,5/6,
{8}6,,5/7,,6,5,4/6,,
{4}6,5/6,6,5/6,
{4}6,5,4,3,
{4}3,3/4,3,3/4,
{8}3,,2/4,,3,4,3/5,,
{4}3,3/4,3,3/4,
{8}4/5,,,3/6,3h[4:1]/6h[4:1],,,,
{4}6,5/6,6,5/6,
{8}6,,6/7,,6,5,4/6,,
{4}6,5/6,6,5/6,
{4}6,6>4[4:1]/7,,,
{4}3,3/4,3,3/4,
{8}3,,2/3,,3,4,3/5,,
{4}3,3/4,3,3/4,
{4}5/6,3/4,4/5,,
{8}3h[8:3]/6,,,4,4,,5,5,
{8},5/6h[8:3],,,5,,4,,
{8}3/6h[8:3],,,5,5,,4,4,
{8},3/4,,3h[8:3]/4,,,,,
{8}3/6,,5,,4,,3,3h[8:3],
{4},2,1,4qq1[1:1]/8qq5[1:1],
{1},
{4},2b,3b,4b,
{8}5/6,,7/8,7/8>5[8:3],,,,,
{4},1/2,7/8,5/6,
{8}3/4,,1/2,1<4[8:3]/2,,,,,
{8},,2/5,,4,4,5,5,
{4}2-5[8:1],6,7-4[8:1],3,
{4}2>5[8:1],6,7<4[8:1],2,
{8}3,,4,,5,,6,6,
{8},5/7,,3,3,,2/4,,
{8}5/6,,3/4,3>6[8:3]/4,,,,,
{4},5/6,7/8,1/2,
{8}3/4,,5/6,5/6<3[8:3],,,,,
{4},,1/8,2/7,
{8}3-5[8:1],,,6-4[8:1],,,2-5[8:1],,
{8},7-4[8:1],,,1,1b,,,
{8}3h[8:3],,,4,2/5,,,,
{8}6h[8:3],,,5,4/7,,4/5,,
{16}3/6,,,,1/2,,,1/2,,,1/2,,,,,,
{16}7/8,,,7/8,,,7/8,,,,,,3/6,,,,
{8}4,4,,7,7,,2,2,
{8},5,5,,3/4,,5/6,,
{8}3,3,2/4,,1/8,,5/6,,
{8}4/7,4/7,,,3/6,,2/7,,
{1}1>8[4:5]/8,
{1},
{8}1/2,,3,3,,5,5,,
{8}4,4,,3h[8:3]/6h[8:3],,,,,
{4}6,5/7,3,2/4,
{4}7,6/8,2,1/3,
{8}5,5,4,4,6,6,3,3,
{8}7,7,2,2,1/8,1/8,1b/8b,,
{8}3/4,3h[8:11]/4,,,4,,4,,
{4}4,4,4,4/5,
{8}5/6,5/6h[8:11],,,5,,5,,
{4}5,5,5,4/5,
{1}3h[4:3]/6h[4:3],
{8}4,4,5,5,3,3,6,6,
{8}2,2,7,7,1/8,1/8,1/8,1/8,
{1},
{4},7b,6b,5b,
{8}3/4,,1/2,1<4[8:3]/2h[8:5],,,,,
{4},7/8,1/2,3/4,
{8}5/6,,7/8,7h[8:5]/8>5[8:3],,,,,
{16},,,,4/7,,,,3h[16:3],,,4h[16:3],,,5,,
{4}7-4[8:1],2,3-8[8:1],7,
{4}6<1[8:1],3,2>5[8:1],7,
{8}6,,5,,4,,3,3,
{8},2/4,,6,6,,5/7,,
{8}3/4,,5/6,5h[8:5]/6<3[8:3],,,,,
{4},3/4,1/2,7/8,
{8}5/6,,3/4,3>6[8:3]/4h[8:5],,,,,
{4},,1/8,2/7,
{4}4/7h[4:1],6,2h[4:1]/5,3,
{4}2b/7b,1/2,3/4,5/6,
{8}7/8,,1/2,1<3[8:3]/2h[8:5],,,,,
{4},7/8,5/6,3/4,
{8}1/2,,7/8,7h[8:5]/8>6[8:3],,,,,
{8},,4/5,,4/5,4/5,,3/6,
{4}3-8[8:1]/6,7,6-1[8:1],2,
{4}3>8[8:1],7,6<1[8:1],2,
{8}3,,4,,5,,6,6,
{8},5/7,,3,3,,2/4,,
{8}5/6,,3/4,3>5[8:3]/4h[8:5],,,,,
{4},5/6,7/8,1/2,
{8}3/4,,5/6,5h[8:5]/6<4[8:3],,,,,
{4},,1/8,2/7,
{8}3-5[8:1]/6,,,6-4[8:1],,,2-5[8:1],,
{8},7-4[8:1],,,1,1b,,,
{8}3/7-4[8:1],,,2-5[8:1],,,8-4[8:1],,
{8},1-5[8:1],,,8,8b,,,
{4}7h[4:1],6h[4:1],5,4/5,
{8}3,4,3,,3/4,,2/5,,
{4}3,2/4,6,5/7,
{8}8,1,8,,1/8,,,,
{4}2h[4:1],3h[4:1],4,4/5,
{8}6,5,6,,5/6,,4/7,,
{4}6,5/7,3,2/4,
{8}1,8,1,,2b/7b,,,,
{1},
{1},
{1},
E
&inote_5=
(185){1},
{4},,,3/5,
{4}6-3[8:1],2-5[8:1],6-1[8:1],3-6[8:1],
{8}8-5[8:1],,4,4,3/5,,4/6,,
{4}3-6[8:1],7-4[8:1],3-8[8:1],6-3[8:1],
{4}1-4[8:1],5<4[4:1],4,,
{4}3-6[8:1],7-4[8:1],3-8[8:1],6-3[8:1],
{8}1-4[8:1],,5,5,4/6,,3/5,,
{4}6-3[8:1],2-5[8:1],6-1[8:1],3-6[8:1],
{8}8,8,1,1,2/7,,,,
{8}5,,6,6-8[8:1],,1-5[8:1],,6,
{8}6,,5/7,,4,4,3/5,,
{8}7,,8,8-4[8:1],,3-1[8:1],,6-3[8:1],
{8},2>7[8:3],,7,,8,8,,
{8}4,,3,3-1[8:1],,8-4[8:1],,3,
{8}3,,2/4,,5,5,4/6,,
{8}3/5,,4-1[8:1],5,6,,5,5-8[8:1],
{8},1-5[8:1],,8,8,,3/7,,
{8}8<5[8:1],,3,3-8[8:1],,7-4[8:1],,3,
{8}3,,1-4[8:1]/4,,5,5,4/6,,
{8}1/8,7,2,2-5[8:1],,6-1[8:1],,3-6[8:1],
{8},7<2[8:3],,2,,1,1,,
{8}4>1[8:1],,6,6-1[8:1],,2-5[8:1],,8<5[8:1],
{8},1,1,,4/5,,3,,
{8}4/6,,5-1[8:1],4,3,,4,4-8[8:1],
{8},7-3[8:1],,1,1,,3/7,,
{8}3/4,3/4h[8:11],,,3V52[2:1],,,,
{2},3,
{8}5/6,5h[8:11]/6,,,6V47[2:1],,,,
{2},6,
{8}3>8[4:1]/4<7[4:1],,,,,,4/7,4/7,
{8},4/5,4/5,,2/7,,2/7,,
{8}1/8,1/8,2/7,2/7,3/6,3/6,4/5,4/5,
{4},,,3b/6b,
{8}3/6,4>7[4:1],5,6,,,8,,
{4}2/7-3[8:1],4-1[8:1]/7,4/8-5[8:1],1/8,
{8}6,5<2[4:1],4,3,,,1,,
{4}1>5[4:1],5<1[4:1],1>5[4:1],6,
{8}7-3[8:1],,1-4[8:1]*-6[8:1]/7,,1,,8,1/7,
{8},2/5,6,4/7,3,2/5,6,4/7,
{4}3-8[8:1],3/5,6-1[8:1],4/6,
{8}3,3,2/7,,1-4[8:1]/5-8[8:1],,1/5,,
{8}3,4>7[4:1],5,6,,,8,,
{8}2-6[8:1]/7,,2/5-8[8:1],,1-4[8:1]/5,,1/8,8,
{8}7-4[8:1],,3,2-5[8:1],,8,8,,
{8}7-3[8:1],7,8-4[8:1],8,1-5[8:1],1,2,2,
{8}2/5,1,8,4/7,8,1,2/5,1,
{8}8,4/7,8,1,2b/7b,3b/6b,,,
{16}4/7,,6q2[4:1],5,,,2V48[4:1],,,,,,,,,,
{16}2/5,,3p7[4:1],4,,,7V51[4:1],,,,,,,,,,
{16}1/8,,1/8,,2/4,,,5/7,,,3/6,,4/5,,,,
{16}5/7,,,2/4,,,1/8,,3/6,,4,5,4,5,4,,
{8}3-6[8:1],3,8,7-2[8:1],7,4,3-6[8:1],3,
{8}7,7,8<5[8:1],8,4>1[8:1],4,,,
{16}1,8,1,,3h[8:1]/7h[8:1],,,,2h[8:1]/6h[8:1],,,,3,4,3,,
{16}2/5,,2/5,,6,5,6,,4/7,,4/7,,8b,,,,
{8}2pp5[2:1]/6,,5,,8,8,8,,
{8}3/7qq4[2:1],,4,,1,1,1,,
{16}2/5,,3,4,3,,4/7,,6,5,6,,2-6[8:1]/5,,,,
{4}2/7-3[8:1],1-4[8:1]/7,1/5-8[8:1],1/5,
{8}4/7,6,2/5,3,4/7,6,2/5,3,
{8}4/8,6,1/5,3,4/8,6,1/5,3,
{8}4/5,4/5,3/6,3/6,2/7,2/7,1/8,1/8,
{16}2/7,,3,6,3,6,3,6,4,5,4,,3/6,,,,
{8}3/4,2h[8:5]/5h[8:5],,,,,,2/5,
{8},4h[8:5]/7h[8:5],,,,,,,
{8}1/8,2h[8:5]/7h[8:5],,,,,,2<7[8:1],
{8},6>3[8:1],,1h[8:3],,,8<1[4:3],,
{1},
{8}5,5,3/6,3/6,2,2,1/8,1/8,
{8}2/7,6,5,4,3/6,3/6,4/5,4h[8:7]/5h[8:7],
{16},,,,,,,,,,,,,,5,4,
{8}3/6,3h[8:5]/6h[8:5],,,,,,,
{8}7-4[8:1],7,8,1,2-5[8:1],2,1,8,
{4}2-6[8:1]/7,2/5-8[8:1],1-4[8:1]/5,1/8,
{8}7-4[8:1],7,8,1,2-5[8:1],2,1,8,
{16}8h[4:1],,,,6,,,,5/7,,,4/6,,,3/5,,
{8}2-6[8:1],,2/8-3[8:1]*-5[8:1],,8,,1,2/8,
{8},1/7,1-5[8:1]/7-3[8:1],,1/7,,1/7,,
{8}4/6-1[8:1],4,4/6,,3-8[8:1]/5,5,3/5,,
{16}6,,6,,2b/7b,,1/8,,1/8,,1,8,1,8,1,8,
{8}2-5[8:1],2,1,8,7-4[8:1],7,8,1,
{8}2/7-3[8:1],,4-1[8:1]/7,,4/8-5[8:1],,1/8,1,
{8}2-5[8:1],2,1,8,7-4[8:1],7,8,1,
{8}2-6[8:1],2,1-5[8:1],1,8-4[8:1],8,7,7,
{8}4/7,8-4[8:1],,2,1-5[8:1],,7,8,
{16}2/7,,4,5,4,5,4,5,4,5,4,5,3/6,,,,
{8}3-8[8:1]/6,6,6,6,6/8-5[8:1],6,6,6,
{8}5-1[8:1]/6,6,6,6,1-4[8:1]/6,6,6,6,
{8}4-8[8:1]/6,6,6,6,6/8-4[8:1],6,6,6,
{4}4>8[4:1]/6,8<4[4:1],4>8[4:1],8,
{4}6-4[8:1],3/6,3-5[8:1],3/6,
{4}6>3[4:1],3q7[4:1],7p2[4:1],2,
{8}1-5[8:1],,7,7,8-4[8:1],,2,2,
{4}3/6,4-1[8:1],4/5-8[8:1],1/5,
{8}3/6-1[8:1],3,3,3,1-4[8:1]/3,3,3,3,
{8}3/4-8[8:1],3,3,3,3/8-5[8:1],3,3,3,
{8}3/5-1[8:1],3,3,3,1-5[8:1]/3,3,3,3,
{8}3/5,6,2-5[8:1]/7-4[8:1],,2/7,,2/7,,
{8}3/8,4,5,1/6,5,4,3/8,4,
{8}5,1/6,5,4,3-5[8:1]/6,3/6,,,
{8}1/6,5,4,3/8,4,5,1/6,5,
{8}4,3/8,4,5,4b/5b,4b/5b,,,
{8}3-6[8:1],3,7-4[8:1],7,3-8[8:1],3,6-3[8:1],6,
{8}1-4[8:1],1,5,6,4>1[8:1]/7,,5,,
{8}6-3[8:1],6,2-5[8:1],2,6-1[8:1],6,3-6[8:1],3,
{8}8-5[8:1],8,4>5[4:1],4,5,,,,
{8}6-3[8:1],6,2-5[8:1],2,6-1[8:1],6,3-6[8:1],3,
{8}8-5[8:1],8,4,3,2/5<8[8:1],,4,,
{8}3-6[8:1],3,7-4[8:1],7,3-8[8:1],3,6,,
{8}1/8,1/8,2/7,3/6,4b/5b,,,,
{1},
{1},
{1},
E
