&title=奏者はただ背中と提琴で語るのみ
&wholebpm=230
&artist=月鈴那知(CV:今村彩夏)
&des=小鳥遊さん
&shortid=823
&genre=オンゲキCHUNITHM
&cabinet=SD
&version=maimai FiNALE
&chartconverter=Neskol
&lv_2=7
&des_2=-
&lv_3=9
&des_3=-
&lv_4=12
&des_4=某S氏
&lv_5=13+
&des_5=小鳥遊さん
&des_6=
&inote_2=
(230){1},
{1},
{1}1h[1:2],
{1},
{1},
{1}1,
{1}2h[1:2],
{1},
{1},
{1}2,
{1}3h[1:2],
{1},
{1},
{1}3,
{1}4h[1:2],
{1},
{1},
{1}4/5,
{1},
{2}5,5,
{2}5,4h[4:3]/6h[4:3],
{4},,,4,
{4},4,,4,
{4},3h[4:3]/5h[4:3],,,
{2},3,
{2}3,3,
{1}2h[4:3]/4h[4:3],
{4},2,,2,
{4},2,,1-5[4:3],
{1},
{4},4b/6b,,,
{1},
{1}8h[2:1],
{4}8,8,,7h[2:1],
{4},,,7,
{2}7,6h[2:1],
{4},,6,6,
{4},4h[8:3]/5h[8:3],,,
{1}3h[8:3]/6h[8:3],
{4},4h[2:1],,,
{4},4,4,,
{1}3h[2:1],
{4}3,3,,2h[2:1],
{4},,,2,
{2}2,1h[8:3]/8h[8:3],
{4},2h[8:3]/7h[8:3],,,
{4}1b/8b,,,1,
{4},1,,2,
{4},2,,3,
{4},3,,4,
{4},4,,5,
{4},4/6,,4,
{4},3/5,,5,
{4},4/6,,4,
{4},3/5,,4-1[4:3],
{1},
{4},,,5-8[4:3],
{1},
{4},,,4,
{4}4,5,5,4,
{4}5,4,,4h[8:3]/5h[8:3],
{2},3h[8:3]/6h[8:3],
{4},2h[8:3]/7h[8:3],,,
{4}1b/8b,,1,1,
{4}2,2,3,3,
{2}4/5,5h[8:3]/6h[8:3],
{2},3h[8:3]/4h[8:3],
{4},,5,5,
{4}6,6,7,7,
{4}8,8,1h[8:3]/8h[8:3],,
{4},2/7,2/7,,
{4},,8,8,
{4}7,7,6,6,
{4}4/5,,4,4,
{4}5,5,3/6,3/6,
{4}3/6,,4,4,
{4}3,3,2,2,
{4}1,1,8-4[4:3],,
{1},
{2},1b,
{1},
{2},1h[8:3]/2h[8:3],
{2},7h[8:3]/8h[8:3],
{4},,1,1,
{4}2,2,3,3,
{4}4/5,,5,5,
{4}6,6,7/8,,
{4},,8,8,
{4}7,7,6,6,
{4}4/5,,4,4,
{4}3,3,1/2,,
{2}1/2,8h[2:1],
{2}1,1h[2:1],
{2}8,1-4[4:3]/8-5[4:3],
{1},
{2},6-3[4:3],
{1},
{2},2,
{1}2-7[4:3],
{1},
{2}8,7h[8:3]/8h[8:3],
{8},,1/6,,,,,1h[8:3]/2h[8:3],
{8},,,,,3/8,,,
{4},8,8,,
{1}1-5[4:3],
{8},,,,,8-4[4:3],,,
{1},
{4},,3,3,
{4}2,2,1h[8:3]/8h[8:3],,
{4},7,7,6,
{4}6,4h[8:3]/5h[8:3],,,
{4}6,6,7,7,
{4}1h[8:3]/8h[8:3],,,2,
{4}2,3,3,4h[8:3]/5h[8:3],
{4},,4,4,
{4}3,3,2,2,
{4}1,1,8,8,
{4}7,7,5/6,,
{4}5,5,6,6,
{4}7,7,8,8,
{4}1,1,2,2,
{2}3/4,3-6[4:3],
{1},
{2},7,
{1}7-2[4:3],
{1},
{4}1,,1,1,
{4}1,2/8,,3,
{4}3,3,2/4,,
{4}5,5,5,4/6,
{4},7,7,7,
{1}6/8,
{4},,,1h[8:47],
{1},
{1},
{4},,,8h[8:23],
{1},
{1},
{1},
{1},
{1},
E
&inote_3=
(230){1},
{1},
{1}6h[1:2],
{1},
{1}5h[1:2],
{1},
{1}4h[1:2],
{1},
{1}3,
{1},
{1}3h[1:2],
{1},
{1}4h[1:2],
{1},
{1}5h[1:2],
{1},
{1}6,
{1},
{1},
{4}8,8,7,7,
{4}6,6,5,5,
{4}4/5,4/5,,4,
{4}4,3,3,2,
{4}2,1,1,1/8,
{4}1/8,,1,1,
{4}2,2,3,3,
{4}4,4,4/5,4/5,
{4},5,5,6,
{4}6,7,7,8,
{4}8,1/8,1/8,,
{4},2h[4:5]/7h[4:5],,,
{1},
{4}1,1,2,3,
{4}3/4,3/4,,5,
{4}5,6,7,7/8,
{4}7/8,,8,8,
{4}7,6,5/6,5/6,
{4},4-1[4:3],,,
{1},
{4},8,8,7,
{4}6,5/6,5/6,,
{4}4,4,3,2,
{4}1/2,1/2,,1,
{4}1,2,3,3/4,
{2}3/4,5-8[4:3],
{1},
{4},,,8h[2:1],
{4},7h[2:1],,6h[2:1],
{4},5,,4h[2:1],
{4},3h[2:1],,2h[2:1],
{4},1,,1h[2:1],
{4},2h[2:1],,3h[2:1],
{4},4,,5h[2:1],
{4},6h[2:1],,7h[2:1],
{4},8,,8-5[4:3],
{1},
{4},,,4-1[4:3],
{1},
{4},,,2,
{4}2,3,3,4,
{4}4,5,5,6<4[8:13],
{1},
{1},
{4},,3,3,
{4}3/4,3/4,2,2,
{4}1/2,1/2,8-5[2:1],,
{2},4-1[2:1],
{4},,7,7,
{4}7/8,7/8,6,6,
{4}5/6,5/6,4-1[2:1],,
{2},8-5[2:1],
{4},,4,4,
{4}3,3/4,2,2,
{4}1,1/8,8,8,
{4}7,7/8,6,6,
{4}5,4/5,4/5,4/5,
{4}3/6,3/6,2/7,2/7,
{1}1>8[4:5],
{1},
{2},8h[1:1],
{1},
{4},8b,7-3[2:1],,
{2},2-6[2:1],
{4},,7,7,
{4}8,1/8,1,1,
{4}2,1/2,3,3,
{4}3/4,3/4,2/5,,
{4}1/8,,1,2,
{4}3,4,5,6,
{4}7,8,8,7,
{4}6,5,4,3,
{4}2,1,1/8,1/8,
{4}2/7,2/7,3/6,3/6,
{4}4/5,4-1[4:3]/5-8[4:3],,,
{1},
{4},,2,3,
{4}4,5,6,7,
{4}6,5,4,3,
{4}2,3,4,5,
{4}6,7,6,5,
{4}4,3,1/2,1/2,
{8}1/2,,1/2,,,,,7/8,
{8},7/8,,7/8,,7/8,,,
{4},1/8,,,
{1}2h[8:7]/7h[8:7],
{8},,,,,3/6,,3/6,
{8},,,4/5,,4/5,,,
{4},,6,7,
{4}8,1,2,3/4,
{4}3/4,3,2,1,
{4}8,7,5/6,5/6,
{4}6,7,8,1,
{4}2,3/4,3/4,3,
{4}2,1,8,1/8,
{4}1/8,,7,6,
{4}5,4,3,1/2,
{4}3/8,2,3,4,
{4}5,6,7/8,1/6,
{4}7,6,5,4,
{4}3,1/2,3/8,2,
{4}3,4,5,3/6,
{4}3/6,4/5,4-1[2:1]/5-8[2:1],,
{4},,,1-4[2:1]/8-5[2:1],
{1},
{1}4-8[2:1]/5-1[2:1],
{4},1>4[2:1]/8<5[2:1],,,
{4},,5,6,
{4}7,7/8,7/8,1,
{4}2,3,3/4,3/4,
{4}4,3,2,1/2,
{4}1/2,8,7,6,
{4}5/6,5/6,,,
{4},,,4h[2:3],
{1},
{4},3h[2:3],,,
{4},,,2h[2:3],
{1},
{4},1h[8:11],,,
{1},
{1},
{1},
E
&inote_4=
(230){1},
{1},
{1}1>7[4:11]/8h[1:1],
{1},
{1}8,
{1}8,
{1}1h[1:1]/8<2[4:11],
{1},
{1}1,
{1}1,
{1}2pp5[4:11]/7h[1:1],
{1},
{1}7,
{1}7,
{1}3h[1:1]/7qq4[4:11],
{1},
{1}3,
{1}3h[2:3],
{1},
{4}3,4,2h[2:1],,
{4}8,8,5/7,4/6,
{4}3/5,2/4,3/5,6,
{4}5,7h[2:1],,1,
{8}1,,1,8,,8,1,,
{4}1/8,2/7,4/5<8[8:3],4,
{4}4h[4:1],,3/4,2/5,
{8}4,5,4,,4/5,,3/6,,
{4}2/7,1>4[8:3]/8,8,8h[4:1],
{8},,7/8,,1/6,,8,1,
{1}8w4[8:3],
{4},2V48[2:1],,,
{1}7V51[2:1],
{8}3,,3,4,3,4,3,,
{4}3/4,3/4,2/5,6,
{8}6,5,6,5,6,,5/6,,
{8}5/6,,4/7,,3,,3,4,
{8}3,,2/5,,6,5,6,,
{8}4/7,,7,8,7,,1/6,,
{8}2,1,2,,3/8-4[4:1],,1b,,
{8},,3,,2/4,,2,1,
{8}2,,7,8,7,,6/8,,
{8}6,,5/7,,7,8,7,,
{8}2,1,2,,1/3,,3,,
{8}2/4,,3,4,3,,6,5,
{8}6,,5/7,,7-2[4:1],,,3-6[4:1],
{8},,8-5[4:1],,,4-1[4:1],,,
{4}8b,8b,8b,2>1[4:3]/6h[1:1],
{1},
{4},2/6,,3h[1:1]/7<8[4:3],
{1},
{4},3/7,,2,
{4}1/3,7,6/8,3,
{4}2/4,6,5/7,4h[4:1],
{8}5,5,,4,5,,5h[4:1],,
{8}4,4,,5,4,,3/6pp4[4:3],,
{1},
{4},2/7,,2qq5[4:3]/7,
{1},
{4},1/8,,2/7,
{8}3,3,,4,,2/5,,6,
{4}6,5,4/7,3h[8:3]/4-8[4:1],
{2},5-1[4:1]/6h[8:3],
{8},,1/8,,,2/7,,,
{4}8b,8b,1,2/8,
{8}3,3,4,,3/5,,3,4,
{8},6,5,,7-4[4:1],,8,8,
{8},1/6,,,2-5[4:1],,1,1,
{8},3/8,,,6,,5/7,,
{8}6,6,5,,4/6,,6,5,
{8},3,4,,2h[8:3],,,1h[8:3],
{4},8,8<1[2:1],,
{4},,2-5[4:1],8,
{4}7-4[4:1],1,2-5[4:1],8,
{8}7-4[4:1],,1,,2h[8:3],,,4h[8:3],
{4},5,5<2[8:3],,
{8},,,,3,4,3,4,
{8}2,5,2,5,1,6,1,6,
{8}8,7,8,,1/6,,7,4,
{8}6,3,5,2,4h[4:1],,2,5,
{8}3,6,4,7,5b,,,,
{1},
{8},,,,1/2,,2-5[4:1],2,
{8},8b,,,7/8,,7-4[4:1],7,
{8},1b,,,2/4,,3,4,
{8},4,5,,5/7,,6,5,
{8},5,4,,3h[4:1]/4h[4:1],,,2h[4:1]/5h[4:1],
{4},1/6,7-3[4:1]/8-4[4:1],,
{4},,1/2,1/2,
{4}3/4,3/4,5/6,5/6,
{8}7/8,,7/8,,2h[8:3],,,3h[8:3],
{4},4,5<4[2:1],,
{2},5q2[4:1]/6<1[4:1],
{2},3>8[4:1]/4p7[4:1],
{2},4qq1[4:3]/5pp8[4:3],
{1},
{8}1,8,1,,3h[4:1],,5,5h[4:1],
{8},4,4/5,,3/6,,6h[4:1],,
{8}4,4h[4:1],,5,4/5,,3/6,,
{8}2h[4:1],,8,8h[4:1],,1,1/8,,
{8}2/7,,7h[4:1],,1,1h[4:1],,8,
{8}1/8,,2/7,,1h[4:1],,8,8h[4:1],
{8},2,2h[4:1],,7,2/7,,2h[4:1],
{8},6,6h[4:1],,3,3h[4:1],,5,
{8}3/5,,3,5,4h[2:1],,,,
{8}6,6h[8:3],,,3,3h[4:1],,5,
{8}5h[8:5],,,,,4,5,4h[2:1],
{8},,,5,4,6<3[2:1],3,,
{8},,,,,,6,5,
{8}7,,4/5,,3,4,2,,
{8}1/3,,1/2,,3,4,2,,
{8}4/5,,6,5,7,,6/8,,
{8}7/8,,7,8,6,,1/8,,
{8}2,1,3,,2/4,,4/5,,
{4}3/6,2/7,1>4[8:3]/8<5[8:3],,
{8},,,,1/2,,2,1,
{4}2-5[8:1],8-4[8:1],1-5[8:1],7,
{8}7,,1/6,,7,8,7-4[8:1],,
{4}1-5[8:1],8-4[8:1],2,2,
{8}3/8,,3,4,3-6[8:1],,7-4[8:1],,
{4}1-5[8:1],8,8,5/7,
{8}6,5,6-3[8:1],,2-5[8:1],,8-4[8:1],,
{4}1,1,1w5[1:1],,
{1},
{4},,4,4,
{1}4w8[1:1],
{1},
{8}8,,8,,1/2,,3,3,
{8}2/4,,5,5,4,4,5/6,,
{8}6,6,5/7,,4,4,5,5,
{8}3/4,,2,2,1/3,,8,8,
{8}1,1,7/8,,7,7,6/8,,
{8}1,1,8,8,,,,,
{4},,,7-3[4:7]/8z4[4:7],
{1},
{1},
{4},,,1s5[4:7]/2-6[4:7],
{1},
{1},
{8},,6,5,4,3b,,,
{1},
{1},
{1},
E
&inote_5=
(230){1},
{1},
{2}5/6h[2:1],7h[2:1],
{2}8h[2:1],1pp6[4:5],
{1}8h[1:1],
{6},,,4,5,4,
{1}3h[1:1]/6<5[4:3],
{4},,6,5,
{1}2h[2:1]/4q1[2:1],
{1}5p8[2:1]/7h[2:1],
{2}1/8h[2:1],7h[2:1],
{2}6h[2:1],5s1[4:7],
{1}8h[2:3],
{1},
{1}1h[2:3]/7pp4[4:5],
{8},,,,,,4-8[4:11],4,
{1}4h[2:5],
{1},
{1},
{8}3/4,,3,4,3,,2/5,,
{8}3,5,4,6,5/7,,6,5,
{4}6,3/5,4/7,2/5,
{8}3,4,3,,2/4,,3,5,
{8}4,6,5/7,5/7,,2/4,2-6[8:1]/4,,
{8}7,,5/8,,5/6,,6,5,
{8}6,,4/7,,6,4,5,3,
{8}2/4,,3,4,3,,4/6,,
{8}2/5,,4/7,,6,5,6,,
{8}5/7,,6,4,5,3,4h[4:1],,
{8}2h[4:1],,7,3/6,4h[2:1]/5h[2:1],,,,
{8},,1/8,,4,4/7,,5,
{8}2/5,3,4,5,6,5,4,3,
{8}2b/5b,,3,3,7,7,1,1,
{4}7-3[8:1],8>2[8:1],6,4b/8b,
{8}6,6,2,2,8,8,2-6[8:1],,
{4}1<7[8:1],3,1b/5b,4h[8:1]/8h[8:1],
{8}4/8-4[8:1],,,1,2,3,6,5,
{8}4,5,6,4/7h[4:1],,8,1h[4:1]/6,,
{24}7,,,2/6h[4:1],,,,,,5,,,4h[4:1]/7,,,,,,8,,4,,8,,
{24}4,,8,,4,,3b/7b,,,,,,6,,,6,,,3,,,3,,,
{8}8,8,2-6[8:1],2,8-5[8:1],,1,,
{8}3b/7b,,4,4,6,6,2,2,
{8}7-2[8:1],7,4-8[8:1],,6,,1b/5b,,
{8}3,3,6,6,1,1,7-3[8:1],7,
{8}1-4[8:1],,8,,2/6,3/7b-3[8:1],,1,
{8}2b-5[8:1],,5,6b-1[8:1],,1,2bz6[16:9],,
{4},,,5>1[2:5]/6h[4:1],
{4},6,6,5h[4:1],
{4},5,5,4h[4:1],
{4},4,4,2/4,
{4}3/5,5/6,4/5,3h[4:1]/4<8[2:3],
{4},3,3,2h[4:1],
{4},2,2,1>4[8:3]/8<5[8:3],
{24},,,,,,,,,,,,,,,5,4h[24:5],,,,,5,,,
{8}4,3,8,1,2,3,4b>6[4:11]/8bpp5[4:11],,
{1},
{1},
{1},
{8},,1/8,1/8,2b/7b,,1/5,,
{8}3/4,3,1/3,3,3/4,,4/8,,
{8}5/6,6,6/8,6,5/6,,2h[4:1]/4h[4:1],,
{8},7h[4:1]/8h[4:1],,,1h[4:1]/4h[4:1],,,3h[4:1]/7h[4:1],
{8},,1h[4:1]/5h[4:1],,,4b/8b>6[2:1],,,
{4},,1/2-5[8:1],1,
{8}7-4[8:1]/8,,8,,2h[4:1]/5,,1,3-1[8:1]/8-4[8:1],
{8},3/8,,,4/7h[4:1],,8,1-5[8:1]/6-8[8:1],
{8},1/6,,,1h[4:1]/5,,8,2-5[8:1]/7-4[8:1],
{8},2/7,,,5/6-1[8:1],,5,,
{4}3-8[8:1]/4,4,5/6<1[8:1],5,
{4}3>8[8:1]/4,4,6>3[4:1],3>8[4:1],
{4}8<5[4:1],5pp1[2:1]*qq1[2:1],,,
{8},,3b/7b,,4h[8:3]/8,,6,5,
{8}2/4,3,4/7,,1/5h[8:3],,3,4,
{8}5/7,6,2/5,,4h[8:3]/8,,6,5,
{8}2/4,3,4/6,5,3/4v7[8:1],,1,,
{8}5v2[8:1]/6,,8,,5,5,4,4,
{8}6,6,3,3,7,7,2,2,
{8}1/8,1/8,1/8,2b/7b,,3,5,2,
{8}6,4,7,1b/6b,,5/7,8,8,
{16}4,5,6,7,8,1,2,3,4b>6[1:1]/8bpp5[1:1],,,,,,,,
{1},
{16},,1,8,2b/7b,,,,2h[4:1]/5,,,,1,,3>1[8:1]/8p4[8:1],,
{8},3/8,,,4/7h[4:1],,8,1q5[8:1]/6<8[8:1],
{8},1/6,,,3-8[8:1]/4,,4,,
{4}5/6-1[8:1],5,3>8[8:1]/4,4,
{4}5/6<1[8:1],5,3<6[4:1],6<1[4:1],
{4}1>4[4:1],4pp8[2:1]*qq8[2:1],,,
{8},,2b/6b,,1/8,,5/7,6,
{8}3/5,4,5/7,6,1/5,,2/4,3,
{8}4/6,5,2/4,3,4/8,,5/7,6,
{8}3/5,4,5/7,6,1-6[8:1]/5,,7,,
{8}4/8-3[8:1],,2,,4,4,5,5,
{8}3,3,6,6,2,2,7,7,
{8}1/8,1/8,1/8,2b/7b,,6,4,7,
{8}3,5,2,3b/8b,,2/4,1,1,
{16}5,4,3,2,1,8,7,6,1/5h[4:1],,,,3,,,,
{8}4h[4:1]/8,,6,,3,4,5h[4:1],,
{4}4h[4:1],3h[4:1],4h[4:1],5h[4:1],
{8}6,5,4,3h[4:1],,4,3,4,
{8}2,3,4,5,6,5,4,3,
{8}2,1,8,7,1b,1,1,8b,
{8}8,8,7b,7,7,6b,6,8b,
{8}8,8,1b,1,1,2b,2,2,
{8}3b,3,4b,5,6,,,,
{8}1b/5b,3/7,,,2b/5b,3/4,,4b/7b,
{8}5/6,,,,,4b/5b,3/6,2/7,
{8},,,4b/7b,3/6,2/5,1>4[4:1]/4<7[4:1],,
{4},,2b-4[4:1]/8b,4-1[4:1],
{4}1-5[4:1],5-8[4:1],8V63[8:3],6,
{4}8,1/7-5[4:1],5-8[4:1],8-4[4:1],
{4}4-1[4:1],1V36[8:3],3,1,
{4}3V52[2:1]/8,5,2-6[4:1],6-1[4:1],
{4}1V73[8:3],7,5,1/6V47[2:1],
{4}4,7-3[4:1],3-8[4:1],8,
{8}1w5[8:1],,,,3b/7b,,6,4,
{8}5,3,2-6[8:1]/4,,1-5[8:1],,8-4[8:1],,
{8}7,,2/5,,3,5,4,6,
{4}5/7-3[8:1],8-4[8:1],1-5[8:1],2,
{8}3/4,,1/8,7,5/6,4,3-1[8:1],,
{4}4-8[8:1],5-7[8:1],1,5/6,
{8}1/8,2,3/4,5,6-8[8:1],,5-1[8:1],,
{8}4-2[8:1],,8,,1/6,1/6h[4:1],,5,
{8}6,5,4/7,,2/5,,3/8,3h[4:1]/8,
{8},4,3,4,2/5,,4/7,,
{8}2/5,2h[4:1]/5,,1,2,1,3/8,,
{8}1/6,,4/7,4/7h[4:1],,8,7,8,
{4}1/6,3/8,1/8-4[8:1],8>3[8:1],
{4}8<5[8:1],8w4[8:1],8,1-5[8:1]/8,
{4}1<6[8:1],1>4[8:1],1w5[8:1],1,
{8}3/7,,1,1,2/8,2/8,3/7,3/7,
{16}4/6,,4/6,,5,6,7,8,1,2,3,4,5,6,7,8,
{16}4,3,2,1,8,7,6,5h[16:13],,,,,,,,,
{12},,,6,7,8,1,2,3,4pp1[4:5]/5,,,
{1},
{4},5qq8[4:5],,,
{4},,,2qq7[1:1],
{4}7,6,5,4,
{8}5,,6,6,3,3,5,5,
{16}3,6,3,6,2,7,2,7,1-5[8:1],8,1,8,,,,,
{1},
{1},
{1},
E
