&title=右肩の蝶
&wholebpm=140
&artist=のりP
&des=ものくろっく
&shortid=811
&genre=niconicoボーカロイド
&cabinet=SD
&version=maimai FiNALE
&chartconverter=Neskol
&lv_2=5
&des_2=-
&lv_3=7
&des_3=-
&lv_4=11
&des_4=サファ太
&lv_5=13
&des_5=ものくろっく
&des_6=
&inote_2=
(140){1},
{1},
{1},
{1},
{1},
{2}5,5,
{2}4,4,
{2}5,5,
{1}4b/5b,
{1}3-6[4:3],
{1},
{1}7-2[4:3],
{1},
{1}1-4[4:3],
{1},
{1}8-5[4:3],
{1},
{4}4,4,4,,
{4}3,3,3,,
{4}2,2,2,,
{4}1,8,1,,
{4}8,8,8,,
{4}7,7,7,,
{4}6,6,6,,
{4}5,4,4/5,,
{1}3h[2:1],
{2}3,3/4,
{1}5h[2:1],
{2}5,5/6,
{1}7h[2:1],
{2}7,7/8,
{1}1h[2:1],
{2}1,1/8,
{2}2,2,
{4}3,3,4/5,,
{2}6,6,
{4}7,7,1/8,,
{4}7,8,7/8,,
{4}8,1,1/8,,
{4}1,2,1/2,,
{4}1/8,1/8,2/7,,
{4}3,4,3/4,,
{4}4,5,4/5,,
{4}5,6,5/6,,
{4}4/5,4/5,3/6,,
{1}4-1[4:3],
{1},
{1}8-5[4:3],
{1},
{1}3h[1:1]/4h[1:1],
{1},
{1}5h[1:1]/6h[1:1],
{2},4/5,
{4}4,4,3,3,
{4}2,2,1,,
{4}8,8,7,7,
{4}6,6,4/5,,
{2}3,3,
{4}2,2,1/8,,
{2}7,7,
{4}6,6,4/5,,
{4}4b/5b,,,3,
{4}4,3/4,,4,
{4}5,4/5,,5,
{4}6,5/6,,4/5,
{4}4/5,3/6,,7,
{4}8,7/8,,8,
{4}1,1/8,,1,
{4}2,1/2,,1/8,
{4}1/8,2/7,,3,
{4}3,4,4,5,
{4}5,4/6,,6,
{4}6,5,5,4,
{4}4,3/5,,2,
{4}2,1,1,8,
{4}8,1/7,,7,
{4}7,8,8,1,
{4}1,2/8,,7,
{4}8,7/8,,8,
{4}1,1/8,,2,
{4}2,3,3,4,
{4}4,4/5,,3,
{4}4,3/4,,4,
{4}5,4/5,,6,
{4}6,7,7,1/8,
{1},
{1},
{1},
E
&inote_3=
(140){1},
{1},
{1},
{1},
{1},
{4}6,6,5/6,,
{4}3,3,3/4,,
{4}5,4,4/5,,
{2}3h[4:1]/6h[4:1],3b/6b,
{1}4-1[2:1],
{1}8-5[2:1],
{1}3-6[2:1],
{1}7-2[2:1],
{4}2,2,1/2,,
{4}7,7,7/8,,
{4}2,1,7,8,
{4}1/8,1/8,2b/7b,,
{4}3,4,3/4,,
{4}3,4,4/5,,
{4}6,6,5,5,
{4}6,5,5/6,,
{4}7,8,7/8,,
{4}7,8,1/8,,
{4}2,2,1,1,
{4}2,1,1/2,,
{2}3h[2:1],4,
{4}3,3,3/4,,
{2}6h[2:1],5,
{4}6,6,5/6,,
{2}3h[2:1],4,
{4}3,3,3/4,,
{2}6h[2:1],5,
{4}4/5,4/5,3/6,,
{1}4-1[2:1],
{4}8,7,7/8,,
{1}8-5[2:1],
{4}4/5,3/6,2b/7b,,
{4}2,1,3/8,1/2,
{4}7,8,1/6,,
{4}2,1/2,7,7/8,
{4}1/8,1/8,2/7,,
{4}6,5,4/7,5/6,
{4}3,4,2/5,,
{4}6,5/6,3,3/4,
{4}4/5,4/5,3/6,,
{1}3h[1:1],
{1}4h[1:1],
{1}5h[1:1],
{2}6h[2:1],5,
{1}7h[1:1],
{1}8h[1:1],
{1}1h[1:1],
{2}2h[2:1],1,
{4}3,4,5,6,
{4}7,8,7/8,,
{4}6,5,4,3,
{4}2,1,1/2,,
{2}3h[2:1],4h[2:1],
{2}5,5/6,
{2}6h[2:1],5h[2:1],
{2}4,4>1[2:1]/5<8[2:1],
{4},,,2,
{4}1,1/2,7/8,7,
{4}8,1/6,,1/2,
{4}1/2,7/8,7/8,1/8,
{4}1/8,2/7,,6,
{4}5,5/6,3/4,3,
{4}4,2/5,,5/6,
{4}5/6,3/4,3/4,4/5,
{4}4/5,3/6,,1/2,
{4}3/8,7/8,1/6,1-6[2:1]/2-5[2:1],
{4},,,6,
{4}5/6,3,3/4,3/4,
{4}2/5,1b/6b,,7/8,
{4}1/6,1/2,3/8,7-4[2:1]/8-3[2:1],
{4},,,3,
{4}3/4,6,5/6,4/5,
{4}3/6,2b/7b,,3,
{4}3,2/4,,6,
{4}6,5/7,,6,
{4}5,3,4,4/5,
{4}4/5,3/6,,7,
{4}7,6/8,,2,
{4}2,1/3,,2,
{4}1,7,8,1b/8b,
{1},
{1},
{1},
E
&inote_4=
(140){1},
{1}4h[4:27],
{1},
{1},
{1},
{4}5,6,,5,
{4}5,6,,5,
{4}5,6,,5,
{4}2/7,3/4>6[2:3],,,
{1},
{8},,,,4h[4:1]/7h[4:1],,,5/6,
{1}5/6p4[2:1],
{8}3,3,5,,6,6,4,,
{4}3/6h[2:1],4,5,4/5,
{4}3h[2:1]/6,5,4,2/5,
{4}3/4,4/5,5/6,4/5,
{4}2V41[8:3]/7V58[8:3],,,2b/7b,
{16}2h[16:3],,,3h[16:3],,,4,,4,,,,3/5,,,,
{16}7h[16:3],,,6h[16:3],,,5,,5,,,,4/6,,,,
{16}3h[16:3],,,2h[16:3],,,1,,1,,,,2/8,,,,
{8}5/7,,2/4,,6,6,5/7,,
{16}3h[16:3],,,4,,,2/5,,2h[4:1]/5,,,,1,,,,
{16}7h[16:3],,,8,,,1/6,,1/6h[4:1],,,,5,,,,
{16}3h[16:3],,,4,,,2/5,,2/5h[4:1],,,,4q1[16:5],,,,
{2},3b/7b,
{4}2,4,5,4/6,
{4}7,5,4,3/5,
{4}1,7,6,5>2[4:1]/7,
{2},1/7,
{4}7h[4:1]/8,3,1/2h[4:1],6,
{4}2/4,4/5,5/7-3[8:1],,
{2}2-5[8:1],8-4[8:1],
{8}3h[4:1],,4,,3/7,3/7,,,
{4}3>8[4:1]/5h[2:1],,,7/8,
{4}4h[2:1]/6<1[4:1],,,1/2,
{4}3>8[4:1]/4<7[4:1],,,1/6,
{8}8,8,1,1,2b/7b,,,,
{16}3h[16:3]/4,,,2h[16:3],,,1,,1-5[8:1],,,,,,,,
{16}5/6h[16:3],,,7h[16:3],,,8,,8-4[8:1],,,,,,,,
{16}1/2h[16:3],,,3h[16:3],,,4,,4>1[8:1]/5<8[8:1],,,,,,,,
{8}2/7,,3/4,,6,5,4/7,,
{16}3h[16:3],,,4,,,5/7,,5/7,,,,1/6,,,,
{16}7h[16:3],,,8,,,1/3,,1/3,,,,2/5,,,,
{16}3h[16:3],,,4,,,5/7,,5/7,,,,2<5[16:5]/6,,,,
{2},3b/7b,
{4}3h[2:3],4,4,6,
{4}4,4,4,3/6,
{4}1/2h[4:1],6,7h[4:1]/8,3,
{8}1/8,,2/4h[4:3],,3,3,3,3,
{2}3-1[8:1],7-5[8:1]/8,
{4}3h[4:1],4h[4:1],5h[4:1],6,
{2}5/6-8[8:1],1/2-4[8:1],
{4}6,5/7p2[16:5],,,
{4}1h[4:3]/8,7,6h[4:1],,
{4}4/7>2[4:1],,,4/5,
{4}7h[4:3]/8,6,4h[4:1],,
{4}2<7[4:1]/5,,,5/6,
{4}3h[2:1]/7<4[4:1],,,1/2,
{4}2>5[4:1]/6h[2:1],,,7/8,
{4}5/6,3/4,1/2,3V52[2:1]/7V58[2:1],
{4},,,1,
{8}1h[16:3]/8h[16:3],,,2b/7b,,,3h[16:3]/4h[16:3],,
{8},3/4,2-5[8:1],,,,5h[16:3]/6h[16:3],,
{8},5/6,7-4[8:1],,,,1h[16:3]/2h[16:3],,
{8},1/2,3-8[8:1],,,,7,8,
{8}1/6,,2,1,3/8<4[2:1],,1h[2:1],,
{4},,1>5[2:1]/6,8h[2:1],
{4},,5/7,2h[4:1]/4,
{4}4,4/6h[4:1],4,3/5h[4:1],
{4}1b-4[8:1],,,1/2-5[8:1],
{4}8,7-4[8:1],1,2-5[8:1],
{4}8-4[8:1],1-5[8:1],6<4[8:3],,
{8},,5,6,4/7,,3h[4:3]/8,,
{4}2,6,8<4[8:3],,
{8},,3,4,2/5,,1/3h[4:1],,
{4}6,6h[4:1]/8,3,3-8[8:1],
{4}7<2[16:5],,,1h[4:1]/8h[4:1],
{8},2/7,,5/6,,2/4,2b-5[8:1]/4b,,
{16}6<3[16:5],,,,,,,,,,,,2h[16:3],,,3h[16:3],
{16},,4,,4p8[8:1],,,,,,,,7h[16:3],,,6h[16:3],
{8},5,5q1[8:1],,,,3/4,3/4,
{16}2/5,,,,5/6,,5/6,,4/7,,,,3h[16:3],,,2h[16:3],
{16},,1,,1q5[8:1]/8,,,,,,,,6h[16:3],,,7h[16:3],
{8},8,1/8p4[8:1],,,,3,3,
{8}6,6,2/6,,4v2[4:1]/8v6[4:1],,,,
{4},3h[8:3]/8h[8:3],,,
{1},
{1},
{1},
E
&inote_5=
(140){1},
{1}4h[8:15]/6h[8:15],
{1},
{1}3h[8:15]/5h[8:15],
{1},
{1}4h[4:3]/7p3[2:1],
{1}2q6[2:1]/5h[4:3],
{1}4h[4:3]/6p2[2:1],
{16}2/7,,,,,,,,5/7,,,2/4,,,3/6,,
{16}3b/6b,,4h[16:9]/5,,,6,,,5,,,6,,,2/6,,
{16}2/6,,3/4h[16:9],,,2,,,3,,,2,,,1/5,,
{16}1/5,,2h[16:9]/4,,,3,,,4,,,3,,,4/8,,
{8}3-6[8:1]/7-2[8:1],,,,3/6,4,5,4,
{4}3/6-4[8:1],2-5[8:1],8-4[8:1],1-5[8:1],
{16}8,,,,3/6,,4,5,4,,,,2/7,,,,
{16}2h[16:3],,,3h[16:3],,,4h[8:1],,5,,,,1/8,,,,
{8}3,3,6,6,4,5,2b/7b,,
{8}3/4h[8:1],2,3/4h[8:1],2,3/4h[8:1],1,3/4h[8:1],1,
{8}3v1[8:1]/4v1[8:1],1,,,2>4[8:1]/7<5[8:1],,2/7,,
{8}4h[2:1]/5,3,2,1,8-4[8:1],,4/8,3,
{8}5/7,6,2/4,3,3/8,5/6,3/8,,
{8}5h[8:1]/6,7,5h[8:1]/6,7,5h[8:1]/6,8,5h[8:1]/6,8,
{8}5v8[8:1]/6v8[8:1],8,,,2-5[8:1]/7-4[8:1],,2/7,,
{8}4/6,5>1[8:3]/7pp1[8:3],5/7,,,,,1,
{8}3/7,1/5,3>8[8:1]/7v4[8:1],,3/7,,3b/7b,,
{4}3/5h[4:3],3,3p7[8:1],,
{4}4h[2:1]/6,6-3[8:1],,2/6,
{4}5/7h[4:3],5,6q2[8:1],,
{8}2,8,3V52[4:1]/7V58[4:1],,,,,,
{8}4/6,,3/5,3,1-6[8:1]/3h[4:1],,,,
{8}6/8-3[8:1],6,7-2[8:1],,3-6[8:1],,,,
{16}2/8-5[8:1],,,3,,,4,,1-4[8:1]/7,,,6,,,5,,
{8}3/6,,3/6,4/5,2-5[8:1]/7-4[8:1],,2/7,,
{4}3pp5[8:1],6qq4[8:1],2p5[8:1],7q4[8:1],
{4}1-5[8:1],8>6[4:1],3h[4:1],,
{8}2-5[8:1],2,7-4[8:1],7,2-5[8:1]*-6[8:1],2,,,
{8}1/8,4/5,1/8,4/5,1>4[8:1]/8<5[8:1],,1b/8b,,
{8}3/4h[8:1],2,3/4h[8:1],2,3/4h[8:1],1,3/4h[8:1],1,
{8}3v1[8:1]/4v1[8:1],1>6[4:1]*q6[4:1],,,,,2/7,,
{8}3h[2:1]/4,2,1,8,7-3[8:1],,3/7,1,
{8}5/7,6,2/4,3,4/7,1/2,4/7,,
{8}5h[8:1]/6,7,5h[8:1]/6,7,5h[8:1]/6,8,5h[8:1]/6,8,
{8}5v8[8:1]/6v8[8:1],8<3[4:1]*p3[4:1],,,,,2/7,,
{8}3/5,2q1[8:3]/4<1[8:3],2/4,,,,,1,
{8}2/6,4/8,2v5[8:1]/6<1[8:1],,2/6,,2/6,,
{4}3>6[8:5]/5h[8:1],4h[8:1],3h[8:1],2h[8:1],
{8}8,8,8V64[8:1],,8-4[8:1]*V24[8:1],,8,,
{16}1/7,,8,8,8,,1,1,,8,8,8,8,,8V63[4:1],,
{8}8-3[8:1],,,,1,1,8,8,
{8}1-5[8:1]*V35[8:1],8,,,3-7[8:1]*V57[8:1],2,,,
{16}2/5,,3/5,,4/5,,5/6,,5/7,,5/8,,7,7,7,7,
{8}7-3[8:1]*V13[8:1],6,,,1-5[8:1]*V35[8:1],8,,,
{16}8V63[4:1],,8-3[8:1],,,,,,,,4,4,4,4,4,,
{4}4p1[2:1]/5,5,5,5,
{4}4/5q8[2:1],4,4,4,
{4}3q6[2:1]/7,7,7,7,
{4}3/7q2[2:1],3,3,3,
{4}6qq4[8:1],3pp5[8:1],7q4[8:1],2p5[8:1],
{4}8-4[8:1],1<3[4:1]*p2[4:1],,,
{16}1/8,,6,,1/8,,3,,2/7,,1,8,,,2-4[8:1]/7-5[8:1],,
{1}4qq1[2:1]/5pp8[2:1],
{16}6/8,,,3/7,,,2/5,,,,,,5/6h[8:1],,8,,
{8}4h[8:1]/5,8,4/5h[8:1],8,3h[8:1]/4,8,3v8[8:1]/4-8[8:1],8>6[4:1]*q6[4:1],
{8},,,,3/7,,3h[2:1]/5,4,
{8}2,1,8<5[8:1],,5/8,2,1/4,2,
{8}4/8,7,2/5,7/8,2/5,,3h[8:1]/4,1,
{8}4/5h[8:1],1,4h[8:1]/5,1,5/6h[8:1],1,5-1[8:1]/6v1[8:1],1<3[4:1]*p3[4:1],
{8},,,,2/6,,3/4,2V41[8:3]/3V58[8:3],
{8}2/3,,,,,2/7,3/6,4/5,
{4}2-6[8:1]/7-3[8:1],2/7,1b/8b,4-1[8:1]/6-3[8:1],
{16}4/6,,,,4,5,,4/5,,,1/8,,5/6,,3/4,,
{8}1qq6[4:1]/2pp5[4:1],3/8,,,,,3h[4:1]/8h[4:1],,
{16},,2,1,2,,2,1,,,5/6,,1-5[8:1]/2-6[8:1],,,,
{4}1<7[8:1]/2>4[8:1],1-5[8:1]/2-5[8:1],1<5[4:1]/2,2h[4:1],
{16},,3,4,2,5,3,4,2>6[4:1],,6,,6<2[4:1],,,,
{8}2q5[8:3],,,,,6,7,8qq5[8:3],
{8}1pp4[8:3],,,,,7,2/6,1/5,
{8}4/8,1/5,2-5[8:1]/6-1[8:1],,2b/6b,,1/8h[8:1],5,
{8}1h[8:1]/8,4,1/8h[8:1],6,1h[8:1]/8,3,1>4[8:1]/8<5[8:1],2/7,
{8},,2h[8:1]/7h[8:1],,4b/5b,,5p1[8:1]/7,7,
{8}5/6,,2/4q8[8:1],2,3/4,,5/7,6,
{8}2/4,3,5/7,1/6,3/8,,4h[8:1]/5,1,
{8}4/5h[8:1],8,4h[8:1]/5,2,4/5h[8:1],7,4>1[8:1]/5<8[8:1],3/6,
{16},,,,3h[8:1]/6h[8:1],,,,1b/8b,,,,5,4,5,4,
{32}6,,3,,6,,3,,7,,2,,7,,2,,8,7,6,5,4,3,2,1,3-7[8:1]/8-4[8:1],,,,,,,,
{4}3/8,3h[8:3]/8h[8:3],,,
{1},
{1},
{1},
E
