&title=ワンダーラスト
&wholebpm=230
&artist=sasakure.UK
&des=小鳥遊さん
&shortid=843
&genre=niconicoボーカロイド
&cabinet=SD
&version=maimai FiNALE
&chartconverter=Neskol
&lv_2=5
&des_2=-
&lv_3=7+
&des_3=-
&lv_4=11+
&des_4=ぴちネコ
&lv_5=13+
&des_5=小鳥遊さん
&des_6=
&inote_2=
(230){1},
{1},
{1},
{1},
{1},
{1},
{2},1,
{1},
{1}1,
{2},2,
{1},
{1}2,
{2},3,
{1},
{1}3,
{2},4,
{1},
{1}4/5,
{2},4h[2:3]/5h[2:3],
{1},
{1},
{1},
{1},
{2},5,
{2},5,
{2},6,
{2},6,
{2},7h[1:1],
{1},
{2},8h[1:1],
{1},
{2},1,
{2},1,
{2},2,
{2},2,
{2},3h[1:1],
{1},
{2},4h[1:1],
{1},
{2},4/5,
{2},4/5,
{2},5/6,
{2},5/6,
{2},5h[1:1]/6h[1:1],
{1},
{2},6,
{2}6,5/6,
{2},4/5,
{2},4/5,
{2},3/4,
{2},3/4,
{2},3h[1:1]/4h[1:1],
{1},
{2},5h[1:1]/6h[1:1],
{1},
{2},7,
{2},7,
{2},8,
{2},(178)8h[4:3],
{1},
{1}8h[4:3],
{2},1h[4:3],
{1},
{1}1h[4:3],
{2},1,
{4},1,,,
{4}2,,,2,
{2},3,
{4},3,,,
{4}4,,,4,
{2},(185)5h[4:3],
{1},
{1}4h[4:3],
{2},5,
{4},5,,,
{4}6,,,6,
{2},(192)7h[4:3],
{1},
(199){1}7h[4:3],
{2},(206)8h[4:3],
{1},
(213){4}8h[4:3],,,(214),
{2},1/8,
{1},
(230){2},1,
{2}1,1,
{2},2,
{2}2,2,
{2},3,
{2}3,4,
{2}4,5,
{2}5,4/5,
{2},5,
{2}5,5,
{2},6,
{2}6,6,
{2},7,
{2}7,8,
{2}8,1,
{2}1,1b/8b,
{2},1-5[4:3],
{1},
{2},8-4[4:3],
{1},
{2},1,
{2}1,8,
{2}8,7,
{2}7,5/6,
{2},3,
{2}3/4,6,
{2}5/6,4,
{2}5,3/6,
{2},5,
{2}5,4,
{2}4,3,
{2}3,1/2,
{2},7,
{2}7/8,2,
{2}1/2,8,
{2}1,2b/7b,
{2},2,
{2}2,3,
{2}3,4,
{2}4,4/5,
{2},6,
{2}5/6,3-6[4:11],
{1},
{1},
{1},
{1},
{1},
E
&inote_3=
(230){1},
{1},
{1}4h[1:1],
{1}5h[2:1],
{2}4/5,4/5,
{1}3b/6b,
{2},6,
{2}6,5/6,
{2},3,
{2}3,3/4,
{2},4,
{2}5,3/6,
{2},6,
{2}6,5/6,
{2}5/6,4,
{2}3,3/4,
{2},2,
{2}1,1/8,
{2}1/8,1-4[8:7]/8,
{1},
{1}5-8[8:7],
{1},
{1}1-4[8:7]/8-5[8:7],
{2},6h[1:2],
{1},
{2},5h[1:2],
{1},
{2},4h[1:2],
{1},
{2},3,
{2},3/4,
{2},3h[1:1],
{2},4h[1:1],
{2},5h[1:1],
{2},6,
{2}6,5,
{2}5,4,
{2}4,4/5,
{2}4/5,3/6,
{2},3h[1:2],
{2},4,
{2},4h[1:2],
{2},5,
{2},5h[1:2],
{2},6,
{2},6,
{2}5/6,4/7,
{2},6h[1:1],
{2},5h[1:1],
{2},4h[1:1],
{2},3,
{2}2/4,3,
{2}3,3/4,
{2},6,
{2}6,5/6,
{16},,,,,,,,6,,,,,,,7,
{2},8,
{2}1/8,2b/7b,
{2},(178)6-3[8:5],
{1},
{1}2-7[8:5],
{2},6-3[8:5],
{1},
{4}3,3,3,3,
{2},4-1[8:5],
{1},
{1}8-5[8:5],
{2},4-1[8:5],
{1},
{4}8,8,8,8,
{2},(185)2>5[8:5],
{1},
{1}6<1[8:5],
{2},2>5[8:5],
{1},
{4}6,6,7,7,
{4}8,8,(192)1>4[8:5],,
{1},
(199){1}5<8[4:3],
{2},(206)1>4[8:7],
{1},
(213){4}5,,,(214)4qq1[4:7]/5pp8[4:7],
{1},
{1},
(230){4},,7,7,
{4}7/8,,2,2,
{4}1/2,,7,8,
{4}1,2,3h[2:1],,
{4}4,,3,3,
{4}4/5,,6,6,
{4}4/5,,5,5,
{4}4,3,2b/4b,,
{4},,2,2,
{4}1/2,,7,7,
{4}7/8,,2,1,
{4}8,7,6h[2:1],,
{4}5,,6,6,
{4}4/5,,3,3,
{4}4/5,,6,7,
{4}8,1,2b/8b,,
{2},3h[2:1],
{2}4h[2:1],5h[2:1],
{2}6,7h[2:1],
{2}8h[2:1],1h[2:1],
{4}2,,2,1,
{4}7/8,,6,5,
{4}3/4,,2,3,
{4}4,5,6,7,
{4}8h[2:1],,1,1,
{4}2/8,,8,8,
{4}1/7,,6,7,
{4}8,1,2,2,
{4}3/8,,7,8,
{4}1/2,,3,4,
{4}5/6,,7,6,
{4}5,4,3,2,
{4}1h[2:1],,8,8,
{4}1/7,,1,1,
{4}2/8,,3,2,
{4}1,8,7,7,
{4}1/6,,2,1,
{4}8,7,6,5,
{4}3b/4b,,2,2,
{4}3,4,5,6,
{4}7b/8b,,1,1,
{4}2/8,,7,7b-3[2:11],
{1},
{1},
{1},
{1},
{1},
{1},
{1},
{1},
E
&inote_4=
(230){1},
{1},
{1}6h[2:3],
{1}5h[2:3],
{1}4h[32:41],
{1}3h[32:9],
{8},,,,8h[4:1],,,8,
{8},8,,8,,8,,,
{8}1h[4:1],,,1,,1,,1,
{8},1,,,4h[4:1],,,4,
{8},4,,4,,4,,,
{8}5h[4:1],,,5,,5,,5,
{8},5,,,2>5[8:3]/7,,8,,
{4}1,8,2>5[8:3]/7,8,
{4}1,8,2>5[8:3]/7,8,
{4}1,8,2/7<4[8:3],1,
{4}8,1,2/7<4[8:3],1,
{4}8,1,2/7<4[8:3],1,
{8}8,,1,,2h[4:1]/7h[4:1],,,5h[4:1]/8h[4:1],
{8},,3h[4:1]/6h[4:1],,,1h[4:1]/4h[4:1],,,
{8}2h[4:1]/7h[4:1],,,4h[4:3]/5h[4:3],,,,,
{48},,,,,,,,,,,,,6,,,,,,,7,,,,,,,8,,,,,,,1,,,,,,,2,,,,,,,
{8}3b,,1/3,1/3,,4/5,,6/8,
{8},1/8,1-6[8:1]/8-3[8:1],,,,,,
{8},,5,5,,,4,5,
{4}4h[2:1],,5,7h[4:1],
{8}6h[4:1],,5h[4:1],,4h[4:1],,3,3h[4:1],
{8},2q3[8:7],,,,,,,
{1},
{8}4,,5,,6h[8:3],,,7p6[8:7],
{1},
{4},,2-6[2:1],5,
{8}5,,5,,5h[4:1],,,4h[4:1]/6h[4:1],
{4},3/7,7-3[2:1],4,
{8}4,,4,,4h[4:1],,,3h[4:1]/5h[4:1],
{4},2/6,2>5[8:3]/7,8,
{4}1,8,2>5[8:3]/7,8,
{4}1,8,2/7<4[8:3],1,
{4}8,1,2/7<4[8:3],1,
{4}8,1,3h[1:2],4,
{4}4,4,4,4,
{4}4,4,6h[1:1],5,
{4}5,5,2h[1:1],3,
{4}3,3,7h[1:2],6,
{4}6,6,6,6,
{4}6,6,4h[1:1],3,
{4}3,3,5p4[2:1],,
{8},,,2,2-5[8:1],,,7,
{8}7-4[8:1],,,2,2>5[8:1],,,7,
{8}7<4[8:1],,,1,1h[4:1],,2h[4:1],,
{4}3h[4:1],4h[4:1],5h[4:1],6h[4:1],
{4}7h[4:1],8h[4:1],1,2/7,
{1}3>6[2:1]/6<3[2:1],
{8},3,3,3h[4:1],,4,3h[4:1],,
{8}4,3h[4:1],,4,5,6h[4:1],,5,
{8}6h[4:1],,5,6h[4:1],,5,6,5,
{8}4,3h[4:1],,4,3h[4:1],,4,3,
{4}1/2,7/8,5/6,3/4,
{8}5,4,6,3,(178)7h[4:5],,6,,
{1}5qq2[2:1],
{4}1h[4:5],8,7qq4[2:1],,
{4},,5h[4:5],4,
{1}3qq8[2:1],
{8}2,4,3,5,4,6,5,7,
{8}4,6,3,5,2-5[4:1],,6,6,
{8}6,,7-4[4:1],,3,3,3,,
{8}2<7[4:1],,5,5,5,,6<3[4:1],,
{8}4,4,4,,4h[8:11],,8,8,
{8},,2,2,,,6,6,
{8},7,5,6,4,5,3,4,
{8}2,5,3,6,(185)4h[4:5],,5,,
{4}5,5,5,3h[4:1],
{4}2h[4:3],1,1,7h[4:3],
{8}8,,8,,3h[4:1],,4,4-8[8:5],
{4},1,1,1,
{8}1,8,7,3,2,1,5,4,
{8}3,7,6,5,(192)4h[4:1]/7h[4:1],,,,
{8}3,4,2h[4:1]/5h[4:1],,,,5,4,
(199){8}3h[4:1]/6h[4:1],,,4/5,4>1[16:3]/5<8[16:3],,,,
{8},,2,1,(206)3h[4:1]/8h[4:1],,,,
{8}7,8,1h[4:1]/6h[4:1],,,,1,8,
(213){8}2h[4:1]/7h[4:1],,,1/8,1p8[0.2816901408450718##0.5607476635513962]/8,,(214),,
{2},2h[4:5]/7h[4:5],
{1},
(230){16}1,8,1,8,1,8,1,8,1b,,,,,,,,
{8}5/6,,2/6,,6/8,,6,4,
{8}6,,6/8,,1/3,,5/6,5/6,
{8},3/4,3/4h[1:1],,,,7b,,
{4}8b,1b,2-5[8:1],1,
{4}7-4[8:1],8,2-5[8:1],1,
{8}7-4[8:1],,8,,2,,5/7,5/7,
{8},2/4,2/4,,1/8-4[8:1],,,,
{4}1/2,5/6,3/4,3,
{8}3/4,,3/7,,1/3,,3,5,
{8}3,,1/3,,6/8,,3/4,3/4,
{8},5/6,5h[1:1]/6,,,,2b,,
{4}1b,8b,7-4[8:1],8,
{4}2-5[8:1],1,7-4[8:1],8,
{8}2,1,2,,1/2,1-5[8:1]/2-4[8:1],,,
{8},,6,,7/8,7-5[8:1]/8-4[8:1],,,
{4},,4/5,4h[4:1]/6h[4:1],
{8},3h[4:1]/5h[4:1],,,4h[4:1]/7h[4:1],,,2h[4:1]/5h[4:1],
{8},,1h[4:1]/8h[4:1],,,4/5,4/5,,
{8}2/6,2/6,,4/8,4h[4:1]/8h[4:1],,,,
{8}7,,2,,1-5[8:1]/8,,7,7-4[8:1],
{8},2,2,,3/5,,4/6,,
{4}5/7,7/8,1h[4:1]/6-4[8:1],,
{2}1h[4:1]/2-5[8:1],1h[4:1]/8-4[8:1],
{8}1/2,,3/4,3>6[8:3]/4p5[8:3],,,,,
{4},4,1/3,1/7,
{8}5/7,,3/5,,1-6[8:1]/2,,5,5-2[8:1],
{8},7,7>3[4:1],,,,,,
{8}5/6,,3/4,,1/8-4[8:1],,2,2-5[8:1],
{8},7,7,,4/6,,3/5,,
{4}2/4,1/2,3-5[8:1]/8h[4:1],,
{2}7-4[8:1]/8h[4:1],1-5[8:1]/8h[4:1],
{8}7/8,,5/6,5q4[8:3]/6<3[8:3],,,,,
{4},5,6/8,2/8,
{8}2/4,,4/6,,7/8-3[8:1],,4,4-7[8:1],
{8},2,2<6[4:1],,,,,,
{8}3h[16:1]/4h[16:1],,5h[16:1]/6h[16:1],,1h[16:1]/2h[16:1],,,7h[16:1]/8h[16:1],
{4},1h[16:1]/8h[16:1],1h[16:1]/2h[16:1],2h[16:1]/3h[16:1],
{16}3h[16:1]/4h[16:1],,,,4h[16:1]/5h[16:1],,,,6,5,6,5,6,,,,
{16}3,4,3,4,3,,,,8,1,8,1,8,,,,
{8}4h[16:1]/5h[16:1],,2/3,2-7[4:1]/3-6[4:1],,,,,
{8},,4h[16:1]/5h[16:1],,1h[16:1]/8h[16:1],,6/7,6bz2[8:43]/7bs3[8:43],
{1},
{1},
{1},
{1},
{1},
{1},
{1},
{1},
E
&inote_5=
(230){1},
{4},,4,3,
{8}2h[8:3]/5,,,3h[8:3],,,4,,
{4}5,5,4,4,
{2}4/7h[2:1],6h[2:1],
{1}5h[16:5],
{2},4h[4:9]/5qq6[1:2],
{1},
{1},
{4}4,5,5p4[1:1]/6h[4:5],,
{1},
{1}3h[4:5]/4>5[1:1],
{8},,,,4,4,4,4,
{16}6,5,4,3,2,,,,5,,5,,5,,5,,
{16}3,4,5,6,7,,,,4,,4,,4,,4,,
{16}6,5,4,3,2,,,,5,,5,,5,,5,,
{16}3,4,5,6,7,,,,4,,4,,4,,4,,
{16}7,6,5,4,3,,,,5,,5,,5,,5,,
{16}2,3,4,5,6,,,,7h[4:1]/8h[4:1],,,,,,1h[4:1]/6h[4:1],,
{8},,1h[4:1]/2h[4:1],,,3h[4:1]/8h[4:1],,,
{8}3h[4:1]/4h[4:1],,,2h[16:11]/5-1[16:7],,,,,
{48},,,,,,,,,,,,,1/2,,,,,,,3/8,,,,,,,4/7,,,,,,,7/8,,,,,,,1/6,,,,,,,
{1}2/5<4[1:1]*p4[1:1],
{2},3b/6b,
{8},,4,4,,,4,4,
{4}4h[2:1],,,4,
{8}4,,4,,4,,4,4,
{8},4q4[8:9],,,,,,,
{1},
{8}5,,5,,5,,,5p4[1:1],
{1},
{4},,4/5,4,
{8}4,,4,,4h[8:3],,,6h[8:3],
{4},5,3/6,6,
{8}6,,5,,4,,3,3,
{8},4,,4,5,5,5,5,
{16}2,3,4,5,6,7,8,,4,,4,,4,,4,,
{16}7,6,5,4,3,2,1,,5,,5,,5,,5,,
{16}2,3,4,5,6,7,8,,4,,4,,4,,4,,
{16}7,6,5,4,3,2,1,8,5/7>2[2:3],,,,5,,,,
{4}5,5,5,5,
{4}5,5,3h[4:3]/5,5,
{4}5,5,1h[4:3]/5,5,
{4}5,5,2<7[4:5]/5,5,
{4}5,5,5,5,
{4}5,5,5/6h[4:3],5,
{4}5,5,2h[4:3]/5,5,
{8}5,,5,1,1h[4:1]/5,,5,2,
{8}2h[4:1]/5,,5,3,3h[4:1]/5,,5,4,
{8}4h[4:1]/5,,5,3,3h[4:1]/5,,5h[4:1],,
{4}4h[4:1],5h[4:1],6h[4:1],7h[4:1],
{4}8h[4:1],1w5[4:3],,,
{1},
{8},4,,4,6,6,6h[4:1],,
{8}5,5h[4:1],,4,4h[4:1],,3,3,
{8}3,3,3h[4:1],,4,5,6,5,
{8}4,3,4,5,6h[4:1],,8,1,
{8}2,7,6,5,3,4,6,4,
{8}5,6,4,3,(178)2pp5[1:1]/6b,,7,,
{4}8,1,8,7,
{4}6qq3[1:1],2,1,8,
{4}1,2,3qq8[1:1],7,
{4}6,5,6,7,
{8}8,7,6h[8:3],5,4,3h[8:3],2,1,
{8}8h[8:3],7,6,5,4>1[2:1],,7,,
{4}6,5<8[2:1],2,3,
{8}4,4,,6,5,4,3,4,
{8}5,6,5,4,3/6<3[2:5],,2,2,
{8},,4,4,,,5,5,
{8},7,6,6,5,5,6,6,
{8}7,7,8,8,(185)2b/7b<3[4:3],,1,,
{4}2,3v8[2:1],2,1,
{4}2>6[4:3],8,7,6p1[2:1],
{4}7,8,7<3[4:3],1,
{4}2,3<8[2:1],2,1,
{8}1,2,3h[8:3],4,5,6h[8:3],7,8,
{8}1h[8:3],2,3,4,(192)5<1[4:1],,,,
{8}2,3,4>8[4:1],,,,7,6,
(199){8}5pp8[8:5],,,1,1,2,3,4h[8:3],
{8},,5,4/6,(206)3/7<4[8:1],,,,
{48},1,,,,,,2/8,,,,,,3>8[8:1]/7,,,,,,,,,,,,,,,,,,,,,,,,,6,,,,,,5/7,,,,
(213){24},4h[8:3]/8,,,,,,,,,5,,,3/6,,,2/7,,(214),1>8[24:41]/8<1[24:41],,,,,
{1},
{1},
(230){16}1,8,1,8,1,8,1,,2b-6[8:1]/7b,,,,1,,,,
{8}8-4[8:1],,1,,3qq8[2:1],,6,6,
{8},5,5,,6pp1[2:1],,3,3,
{8},4,4,,1/2,,7/8,,
{4}5/6,3/4,2/5,8-4[8:1],
{8}1-3[8:1],,7-5[8:1],7,1,,3,2/4,
{8},7,6/8,,1/2,,5/6,4/7,
{8},3/4,2>5[8:1]/5<8[8:1],,,,,,
{16}6,5,6,5,6,5,6,,4b/7b-3[8:1],,,,8,,,,
{8}1-5[8:1],,8,,6pp1[2:1],,3,3,
{8},4,4,,3qq8[2:1],,6,6,
{8},5,5,,7/8,7/8,1/6,,
{8}3/4,3/4,2/5,,5,5,5,5,
{16}1,2,3,4,5,6,7,8,4,,4,,4,,4,,
{16}8,7,6,5,4,3,2,1,6,,6-1[8:1]*-8[8:1],,,,,,
{8},2,4,2,3,3-1[8:1]*-8[8:1],,,
{8},,,,4/7h[4:1],,5,4h[4:1]/6,
{8},5,3/6h[4:1],,4,3h[4:1]/5,,4,
{8}2/5h[4:1],,1,1b,,4/6,4/6,,
{8}2/5,2/5,,5/6,5/6,4/7,,1/6,
{8}1/6,,2b/7b,,1/2-8[8:1],,2/7,6-4[8:1],
{8},1/6,2-4[8:1],,1-5[8:1]/2,,1/8-4[8:1],,
{4}7-5[8:1]/8,7,3-1[8:1]*-8[8:1],,
{2}6-1[8:1]*-8[8:1],4-1[8:1]*-7[8:1],
{4}2/6,1/8<4[4:1],4>8[4:1],8<4[4:1],
{4}4,2,1>5[4:1]/8,5<1[4:1],
{8}1>5[4:1],,5,,7-3[8:1],,1,1s5[8:3],
{8},6,6,,,,3b/7b,,
{8}8,8,1,1,7-2[8:1]/8,,2/7,3-5[8:1],
{8},3/8h[1:0],7-5[8:1],,7/8-4[8:1],,1-5[8:1]/8,,
{4}1/2-4[8:1],2h[1:0],6<1[8:1]*q2[8:1],,
{2}3>8[8:1]*p7[8:1],5q2[8:1]*v8[8:1],
{4}3h[32:1]/7,1>5[4:1]/8,5<1[4:1],1>5[4:1],
{4}5,7h[32:1],1/8<4[4:1],4>8[4:1],
{8}8<4[4:1],,4h[32:1],,2-6[8:1],,8h[32:1],8s4[8:3],
{8},3,3h[4:1],,,,2b/6b,,
{16}7,8,7,8,7,8,7,,1h[1:0]/2-7[8:1],,,,2/7h[1:0],,6-3[8:1],,
{8},1/6h[1:0],2-4[8:1],,1-5[8:1]/2h[1:0],,1/8-4[8:1],,
{4}7-5[8:1]/8h[1:0],7,3>8[8:1]/4p7[8:1],,
{2}5v2[8:1]/6<8[8:1],3h[32:1]/4w8[8:1],
{4}2/6h[32:1],1/8<8[2:1],4h[32:1],8<4[4:1],
{4}4h[32:1],2h[16:1],1>5[0.7826086956521863##5.47826086956519]/8h[4:1],,
{1},
{1},
{1},
{1},
{1},
{1},
{1},
{1},
E
