&title=ラブって♡ジュエリー♪えんじぇる☆ブレイク!!
&wholebpm=238
&artist=あべにゅうぷろじぇくと feat.天月めぐる&如月すみれ「ツインエンジェルBREAK」
&des=玉子豆腐
&shortid=717
&genre=POPSアニメ
&cabinet=SD
&version=maimai FiNALE
&chartconverter=Neskol
&lv_2=6
&des_2=-
&lv_3=8
&des_3=-
&lv_4=11+
&des_4=小鳥遊さん
&lv_5=13
&des_5=玉子豆腐
&des_6=
&inote_2=
(238){1},
{1},
{1}1h[1:1],
{1},
{1}8h[1:1],
{1},
{2}1,1,
{1}1,
{2}8,8,
{2}1,1,
{2}1/8,1b/8b,
{2}1,1,
{1}1,
{2}2,2,
{1}2,
{2}3,3,
{2}4,4,
{2}5,5,
{1}3/6,
{1}5h[1:1]/6h[1:1],
{1},
{1}3h[1:1]/4h[1:1],
{1},
{2}5,5,
{2}6,6,
{2}7,7,
{1}1/8,
{2}8,8,
{1}7/8,
{2}6,6,
{1}5/6,
{2}3,3,
{1}3/4,
{2}2,2,
{1}1/2,
{1}8-5[4:3],
{1},
{1}1-4[4:3],
{1},
{1}8-5[4:3],
{1},
{1}1-4[4:3],
{1},
{1}4h[2:1]/5h[2:1],
{1}3h[2:1]/6h[2:1],
{2}2/7,2/7,
{1}1b/8b,
{1}8h[2:1],
{2}8,8,
{1}7h[2:1],
{2}7,7,
{2}6,6,
{2}5,5,
{2}4/5,4/5,
{1}3/6,
{1}3h[1:1]/5h[1:1],
{1},
{1}4h[1:1]/6h[1:1],
{1},
{2}4,4,
{2}3,3,
{1}1h[1:1]/2h[1:1],
{1},
{2}1,1,
{1}1,
{2}2,2,
{1}2,
{2}3,3,
{2}4,4,
{2}4/5,4/5,
{1}3/6,
{1}5h[1:1]/7h[1:1],
{1},
{1}2h[1:1]/4h[1:1],
{1},
{2}5,5,
{2}6,6,
{2}7,7,
{1}1b/8b,
{2}1/2,1/2,
{4}8,8,8,,
{2}7/8,7/8,
{4}1,1,1,,
{2}1/8,1/8,
{4}1,8,1,,
{2}1,1,
{2}8,8,
{2}1/8,1/8,
{1}2b/7b,
{1},
{1},
{1},
E
&inote_3=
(238){1},
{1},
{1}5h[2:1],
{4}5,5,5,,
{1}4h[2:1],
{4}4,4,4,,
{1}5h[2:1],
{4}5,5,5,,
{4}4,4,3,3,
{4}2,2,1,1,
{4}8,8,2/7,,
{4}1,1,2,2,
{4}3,3,2/4,,
{4}5,5,6,6,
{4}7,7,1/8,,
{4}8,8,7,7,
{4}6,6,5/7,,
{4}4,4,3,3,
{4}2,2,2/7,,
{1}3h[1:1],
{2}4,5,
{1}6h[1:1],
{2}5,4,
{4}5,5,4,4,
{4}3,3,2,2,
{4}1,1,1,,
{4}2/7,2/7,2/7,,
{4}6,6,5,,
{4}3,3,4,,
{4}6,6,5,5,
{4}4,4,4/5,,
{4}3,3,4,,
{4}6,6,5,,
{4}3,3,4,4,
{4}5,5,4/5,,
{1}6-3[4:3],
{1},
{1}2-7[4:3],
{1},
{1}7h[1:1],
{1}8h[1:1],
{1}1h[1:1],
{1}2,
{4}4,4,4,,
{4}5,5,5,,
{4}4/5,4/5,4>1[4:3]/5<8[4:3],,
{1},
{4}1,1,2,2,
{4}3,3,4,4,
{4}5,5,6,6,
{4}5/7,5/7,5/7,,
{4}8,8,7,7,
{4}6,6,5,5,
{4}4,4,3,3,
{4}2/4,2/4,2/4,,
{1}1>4[4:3],
{2},4/5,
{1}5<8[4:3],
{2},2/7,
{4}3,3,3/4,,
{4}6,6,5/6,,
{4}2/7,2/7,2/7,,
{4}1b/8b,1b/8b,,,
{4}8,8,7,7,
{4}6,6,4/7,,
{4}4,4,3,3,
{4}2,2,1/8,,
{4}1,1,2,2,
{4}3,3,2/5,,
{4}5,5,6,6,
{4}7,7,1/8,,
{1}7h[1:1],
{2}8,1,
{1}2h[1:1],
{2}1,8,
{4}1,8,7,6,
{4}5,4,3,2,
{4}1,1,1,,
{4}2/7,2/7,2/7,,
{2}3h[2:1],4,
{4}3/4,3/4,2/5,,
{2}6h[2:1],5,
{4}5/6,5/6,4/7,,
{2}3h[2:1],4,
{4}3/4,3/4,2/5,,
{4}4,3,2,1,
{4}8,7,6,5,
{4}4,3,2,1b/8b,
{1}1b/8b,
{1},
{1},
{1},
E
&inote_4=
(238){1},
{1},
{2}5/6,4/5,
{8}3,4,3,,2/5,,,,
{2}5/6,4/5,
{8}3,4,3,,1/2,,,,
{2}5/6,4/5,
{8}3,4,3,,1b/8b,,,,
{8}4,,3,,2,2,,1/8,
{8},7,7,,6,,4qq2[2:1]/5pp7[2:1],,
{1},
{8}2,2,,1/2,,1/2,,1/8,
{8},1/8,,1/2,1/2,,3b/8b,,
{8}7,7,,7/8,,7/8,,1/8,
{8},1/8,,7/8,7/8,,1b/6b,,
{8}3h[4:1],,4,4,,2/5,,6h[4:1],
{8},5,,4/7,4/7,,,,
{2}2-5[4:1],7-4[4:1],
{2}1-5[4:1],6,
{8}5/7,5h[4:1]/7h[4:1],,,,,6/8,,
{8}6/8,6h[8:3]/8h[8:3],,,,,,,
{8}2/4,2h[4:1]/4h[4:1],,,,,1/3,,
{8}1/3,1h[8:7]/3h[8:7],,,,,,,
{4},6,5,4,
{8}3,,2b,,1b,,8b,8b,
{8},7,7-3[4:1],,,,,2,
{8}2-6[4:1],,,,,8b,8b,,
{4}3,3,4,4,
{4}3h[4:1],4h[4:1],5h[4:1],6,
{4}6,6,5,5,
{1}6>3[4:1],
{4}6,6,5,5,
{4}6h[4:1],5h[4:1],4h[4:1],3,
{4}3,3,4,4,
{1}3p5[2:1],
{8}6h[8:3],,,5,5,,4/6,,
{8}3h[8:3],,,4,4,,3/5,,
{8}6h[8:3],,,5,5,,4/7,,
{8}3h[8:3],,,4,4,,2/5,,
{4}6h[1:1],,5,4,
{4}3h[1:1],,4,5,
{4}7h[1:1],,5,4,
{4}2h[1:1],,4,5,
{4}6,6,5,5,
{4}4,4,3,3,
{1}3pp2[1:1]/6,
{4},,1b/8b,1b/8b,
{4}7/8,7/8,5/6,5/6,
{4}4h[4:1],3h[4:1],2h[4:1],1,
{4}3/4,3/4,1/2,1s5[4:3]/2,
{1},
{4}3,2/4,6,5/7,
{4}2,1/3,7,6/8,
{8}3/4,,1/2,1/2,,,4V25[8:5]/8V61[8:5],,
{1},
{8}3/7,3h[8:5]/7h[8:5],,,,,,,
{1}3-5[4:1]/7-5[4:1],
{8}2/6,2h[8:5]/6h[8:5],,,,,,,
{1}2-4[4:1]/6-4[4:1],
{4}3,3,2/4,3,
{8}6,,6,,5/7,,1/8,1h[8:3]/8h[8:3],
{4},,1b,2b,
{8}1,8,1,8h[8:3],,,1,,
{8}7,7,,7/8,,1/8,,7/8,
{8},1/8,,7/8,7/8,,1b/6b,,
{8}2,2,,1/2,,1/8,,1/2,
{8},1/8,,1/2,1/2,,3b/8b,,
{8}6h[4:1],,5,5,,4/7,,3h[4:1],
{8},4,,2/5,2/5,,,,
{2}7-4[4:1],2-5[4:1],
{2}8-4[4:1],3,
{8}2/4,2h[4:1]/4h[4:1],,,,,1/3,,
{8}1/3,1h[8:5]/3h[8:5],,,,,,,
{8}5/7,5h[4:1]/7h[4:1],,,,,6/8,,
{8}6/8,6h[8:7]/8h[8:7],,,,,,,
{4},3,4,5,
{8}6,,7b,,8b,,1b,1b,
{8},2,2-6[4:1],,,,,7,
{8}7-3[4:1],,,,,1b,1b,,
{1}8-6[4:1],
{8}6,5,4,,3b/7b,,,,
{1}8-6[4:1],
{8}6,5,4,,1b/2b,,,,
{1}8-6[4:1],
{8}6,5,4,,1b/8b,,,,
{8}5,,6,,7,7,,1/8,
{8},2,2,,3,,4qq2[2:1]/5pp7[2:1],,
{4},,,1/8,
{1}2b/7b,
{1},
{1},
{1},
E
&inote_5=
(238){1},
{1},
{1}8<6[4:1],
{8}5,4,3,,2/6,,,,
{1}8<6[4:1],
{8}5,4,3,,1/8,,,,
{1}8<6[4:1],
{8}5b,4b,3b,,2/6,,,,
{8}6,,5/7,,8,1,,2/4,
{8},1,8,,2/7,2/7,,3/6,
{8},4qq2[16:5]/5pp7[16:5],,,,,,,
{8}7,7-5[8:1],,8-2[8:1],,7-4[8:1],,8-3[8:1],
{8},7-3[8:1],,8,8,,1/6,,
{8}2,2-4[8:1],,1-7[8:1],,2-5[8:1],,1-6[8:1],
{8},2-6[8:1],,1,1,,3/8,,
{8}5/6,,8,8,,1-4[8:1],,7-4[8:1],
{8},8-4[8:1],,7,7,,1/5,,
{8}3/4,,2,2,,7qq3[16:11]/8q3[16:11],,,
{1},
{8}7,7,5,6,,1,1,7<3[8:3],
{8}8,8,,,,,1/5,,
{8}2,2,4,3,,8,8,2>6[8:3],
{8}1,1,,,,,4/8,,
{4}3,3h[4:1],4h[4:1],5h[4:1],
{8}6h[4:1],,7b,,6b/8b,,1b/5b,1b/5b,
{8},3,4,,2/5,,6,6,
{8}5,,4/7,4/7,,8b,8b,,
{4}2h[4:1]/3b,4b,4b/5h[4:1],3,
{4}2,1/3,2,1/3,
{4}1/2h[4:1],8,7h[4:1]/8,1,
{8}3/4,3/4,,2h[4:1]/5h[4:1],,,2b/5b,,
{4}6/7h[4:1],5,4h[4:1]/5,6,
{8}7b,7b,1b,1b,,7,8,,
{4}7h[4:1]/8,1,1/2h[4:1],8,
{8}5/6,5<1[8:3]*q2[8:3]/6,,,,,,,
{8}2q6[16:5],,,8,8-4[16:3],,8,,
{8}2q6[16:5],,,8,8-4[16:3],,8,,
{8}2q6[16:5],,,8,8-4[16:3],,8,,
{8}2,2,,1/3,,8,8,,
{4}4-1[2:1],8,7,6,
{4}5-8[2:1],1,2,3,
{4}4-2[4:1],6,5-7[4:1],3,
{1}4w8[8:3],
{4}1V36[2:1],5,6,7,
{4}8V63[2:1],4,3,2,
{8}1b,1b,8b,8b,2,7,3,6,
{4}4/5,4-8[8:1]/5-1[8:1],4/5,,
{2}4-8[8:1]/7-4[8:1],2-5[8:1]/5-1[8:1],
{8}7,8,,2/6-1[8:1],,3,3,,
{2}2>5[8:1]/5p1[8:1],4q8[8:1]/7<4[8:1],
{8}2,1,,3-8[8:1]/7,,6,6,,
{4}7>2[8:1],3<6[8:1],8-4[8:1],,
{4}2<7[8:1],6>3[8:1],1-5[8:1],,
{4}8>4[4:1],4<8[4:1],8>4[4:1],4pp6[4:1]*qq2[4:1],
{2},4b/8b,
{4}6-2[4:1],2v4[4:1]*v8[4:1],,,
{8}7,,2/6,2/6,,,,,
{4}3-7[4:1],7v1[4:1]*v5[4:1],,,
{8}2,2v5[8:3]*v7[8:3],,,,,,,
{4}3-8[8:1]/8,7,1/6-1[8:1],2,
{8}3/8,,1/6,,4/8,4V28[8:3]/8V64[8:3],,,
{4},,1b,2b,
{8}5,4,5,4,5,,2b/7b,,
{8}2,2-5[8:1],,8-5[8:1],,1-4[8:1],,7-4[8:1],
{8},8-3[8:1],,7,7,,1/5,,
{8}7,7-4[8:1],,1-4[8:1],,8-5[8:1],,2-5[8:1],
{8},1-6[8:1],,2,2,,4/8,,
{8}1/2,,3,3,,7/8,,1/6>3[8:1],
{8},,,2,2,,4/8,,
{8}5/6,,4/7,4/7,,1p6[16:11]/2pp6[16:11],,,
{1},
{8}7,7,5,6,,8,8,2>6[8:3],
{8}1,1,,,,,4/8,,
{8}7,7,5,6,,8,8,2>6[8:3],
{8}1,1,,,,,4/8,,
{4}6,6h[4:1],5h[4:1],4h[4:1],
{8}3h[4:1],,2b,,1b/3b,,4b/8b,4b/8b,
{8},6,5,,4/7,,3,3,
{8}4,,2/5,2/5,,1b,1b,,
{4}1/8<6[4:1],1,2,2,
{8}5b,4b,3b,,2/6,,1,,
{4}1/8<6[4:1],1,2,3,
{8}5b,4b,3b,,2/6,,1/8,,
{4}1/8<6[4:1],2,3,4,
{8}5b,4b,3b,,2/6,,1/8,,
{8}3b,,2b/4b,,1b,8b,,5/7,
{8},8,1,,7/8,7/8,,1/6,
{8},3/4,,2/6,2-5[8:1]/6-1[8:1],,,,
{1}3b/7b,
{1},
{1},
{1},
E
