&title=フキゲンワルツ
&wholebpm=210
&artist=OSTERproject
&des=小鳥遊さん
&shortid=807
&genre=niconicoボーカロイド
&cabinet=SD
&version=maimai FiNALE
&chartconverter=Neskol
&lv_2=5
&des_2=-
&lv_3=7+
&des_3=-
&lv_4=10
&des_4=玉子豆腐
&lv_5=13
&des_5=小鳥遊さん
&des_6=
&inote_2=
(210){1},
{1},
{4},4,4,,
{4}3,,,2,
{2}2,1,
{4},8,8,,
{4}7,,,6,
{2}6,5,
{4},4,4,,
{4}3/4,,,5,
{2}5,5/6,
{4},3/4,,,
{4}5/6,,,4/5,
{2},3/6,
{4},2,2,,
{4}1,,,8,
{2}8,1/8,
{4},7,,,
{4}6,,,5,
{2}5,5/6,
{4},4,,,
{4}3,,,2,
{2}2,1/2,
{4},2,,,
{4}3,,,4,
{2}4,3/4,
{4},5,,,
{4}6,,,7,
{2}7,7/8,
{4},6,6,,
{4}5/6,,,5,
{2}5,4/5,
{4},4,4,,
{4}3/4,,,2h[4:3],
{1},
{4},3,3,,
{4}3/4,,,4,
{2}4,4/5,
{4},5,5,,
{4}5/6,,,7,
{2},1/8,
{4},2-6[4:3],,,
{4},,,7-3[4:3],
{1},
{4},2,,,
{4}1,1,,8,
{2},1/8,
{4},7-3[4:3],,,
{4},,,2-6[4:3],
{1},
{4},7h[4:3],,,
{4},,,1/8,
{1},
{4}1,1,,2,
{4}2,,3,3,
{4},4,4/5,,
{4}6,6,,7,
{4}7,,8,1/8,
{4},,,8,
{4}8,8,,7,
{4}7,,6,6,
{4},5,4/5,,
{4}3,3,,2,
{4}2,,1,1,
{4}1/8,1/8,1/8,,
{4},2,2,,
{4}3,3,,4,
{4},,4/5,4/5,
{4},6,6,,
{4}7,7,,1/8,
{1},
{4}8,8,,7,
{4}7,,6,6,
{4},5,5,,
{4}4,4,,3,
{4}3,,2,2,
{4},1,1,,
{4}8,8b,,,
{4},,,7-3[4:3],
{1},
{4},2,,,
{4}1,,,2-6[4:3],
{1},
{4},7,,,
{4}8,,,7,
{2},7,
{4},8,8,,
{4}1,1,,8,
{2}8,1b,
{4},2,2,,
{4}3,3,,4,
{4},,4/5,4/5,
{4},6,6,,
{4}7,7,,1/8,
{1},
{4}8,8,,7,
{4}7,,6,6,
{4},4/5,4/5,,
{4}4,4,,3,
{4}3,,2,2,
{4},1,1,,
{4}8,8,,7/8,
{4}7/8,,1,1,
{4},1/2,1/2,,
{4}8,8b,,,
{4},,,7,
{4}7,7,6,,
{4},5,5,5,
{4}4/5,,,3,
{4}3,3,2,,
{4},1,1,1,
{4}1/8,,,2,
{4}2,2,3,,
{4},4,4,4,
{4}4/5,,,6,
{4}6,6,5/6,,
{4},4/5,,,
{4}3/4,,,4/5,
{2},5/6,
{4},4,4,,
{4}3,3,,4,
{4}4,4,5,4/5,
{1},
{1},
{1},
E
&inote_3=
(210){1},
{1},
{4},3,,4,
{4}4,,5,5,
{4},6,6,,
{4}5,5,,4,
{4}4,,3,3,
{4},4,4,,
{4}5,5,,6,
{4}5/6,,4,4,
{4},3,3/4,,
{4}2,2,,1,
{4}1,,8,8,
{4},1/8,1/8,,
{4},8-4[4:3],,,
{1},
{2},4/5,
{4},6,6,,
{4}5/7,,,7,
{2}7,6/8,
{4},2,2,,
{4}1/3,,,3,
{2}3,2/4,
{4},5,5,,
{4}4/6,,,4,
{2}4,3/5,
{4},1>4[4:3],,,
{4},,,5<8[4:3],
{1},
{4},1,1,,
{4}2/8,,,8,
{2}8,1/7,
{4},6,6,,
{4}5/7,,,4,
{2}4,3/5,
{4},5,5,6,
{4}5/6,,,4,
{4}4,3,3/4,,
{4},5<8[4:3],,,
{4},,,1>4[4:3],
{1},
{4},4/5,,,
{4}6h[4:3],,,5,
{2},7h[4:3],
{4},8,,,
{4}2h[4:3],,,1,
{2},3/4,
{4},3h[4:3],,4,
{4}4,,,2h[4:3],
{4},1,1,,
{4},7h[4:3],,8,
{4}8,,,5/6,
{2},4/5,
{4}4,4,,3,
{4}3,,2,1/2,
{4},8,8,,
{4}7,7,,6,
{4}6,,5,4/5,
{4},4/5,4/5,,
{4}6,6,,7,
{4}7,,8,8,
{4},1,1/8,,
{4}7/8,7/8,,1/8,
{4}1/8,,1/2,1/2,
{4},2/7,2b/7b,,
{4},6-3[4:3],,,
{4},,,2,
{4},,1,1,
{4}2,1/2,,,
{4}8,8,7,7/8,
{1},
{4}6,6,,5,
{4}5,,4,4,
{4},3,3,,
{4}2/4,2/4,,4/5,
{4}4/5,,5/7,5/7,
{4},1/8,1/8,,
{4}2/7,2b/7b,,,
{4},,,3h[4:3],
{2},4h[4:3],
{4},5h[4:3],,,
{4}6,,,7h[4:3],
{4},8,8,,
{4},6h[4:3],,,
{4}5h[4:3],,,4h[4:3],
{2},3,
{4},2,2,,
{4}1,1,,1/8,
{2}1/8,2/7,
{4},3-6[4:3],,,
{4},,,7,
{4},,8,8,
{4}7,7/8,,,
{4}1,1,2,1/2,
{1},
{4}3,3,,4,
{4}4,,5,5,
{4},4/6,4/6,,
{4}6,6,,5,
{4}5,,4,4,
{4},3/5,3/5,,
{4}2/4,2/4,,4/5,
{4}4/5,,5/7,5/7,
{4},1/8,1/8,,
{4}2/7,2b/7b,,,
{4},,,8h[4:3],
{2},7h[4:3],
{4},6h[4:3],,,
{4}5,,,4h[4:3],
{2},3h[4:3],
{4},2h[4:3],,,
{4}1,,,1,
{4}1,1,2,2,
{4}2,3,3,3,
{4}4/5,,,6,
{4}6,6,7,7,
{4}7,6-3[4:3],,,
{4},,,2-7[4:3],
{1},
{4},6-3[4:3],,,
{4},,,1,
{4}1,8,1/8,2/7,
{1},
{1},
{1},
E
&inote_4=
(210){1},
{4},,,7,
{4}7,5/6,4,3h[4:1],
{4}4,2/5,,3/4,
{4}5,6h[4:1],5,4/7,
{4},7,8,1/6,
{4}2,1,3/8,1,
{4}8h[4:1],1>4[8:3],,,
{4},5/6,7h[4:1],5>2[8:3],
{4},,,3/4,
{4}2h[4:1],4<7[8:3],,,
{4},5/7,6,4,
{4}2/4,3,5,5/6,
{4}6,4,3/6,4/5,
{4},3h[2:1],4,4,
{4}6h[2:1],5,5,3,
{4}4,5,6,4b/7b,
{4},3h[4:3],,8,
{4}7h[4:3],,1,2h[4:3],
{4},1,8h[2:1],,
{4}1,2/4,3,4,
{4}5/6,,8,5/7,
{4}6,5,3/4,,
{4}1,2h[4:3],,6,
{4}5h[4:3],,3,4qq1[8:7],
{1},
{4}8,7/8,1/6,,
{4}1/2,3/8,,6,
{4}5,4,3/5,,
{4}7/8,6h[4:3],,1,
{4}2h[4:3],,8,7h[4:3],
{4},8,1h[2:1],,
{4}8,5/7,6,5,
{4}2/4,,1,2/4,
{4}3,4,5/7,,
{4}8,7h[4:3],,3,
{4}4h[4:3],,6,5,
{4}4,3,2/5,,
{4}1,8,7,5h[4:1]/6h[4:1],
{4},4,5,6,
{4}5,4,3/5,,
{4}3/7,4h[4:3]/6,,3,
{4}3h[4:3],,2,2h[4:3],
{4},1,1,8,
{4}7,5/6,5/6,,
{4}3,4,5,6q3[4:3],
{1},
{4},5h[4:3],,6,
{4}6h[4:3],,7,7h[4:3],
{4},8,8,,
{4}6,5,4/7,4,
{4}3,2,1,8qq8[4:3],
{1},
{8}1,,2h[8:3]/8,,,3h[8:3],,,
{4}4,5,6>3[8:3],,
{4},,2,1,
{4}8,7-4[16:7],,,
{4}2-5[16:7],,,7<4[2:1],
{4},,,3,
{4}2h[4:1],1,7,6h[4:1],
{4}8,2,3h[4:1],1,
{4}7,4/5,3/6,,
{4}3h[4:1],4,7,6h[4:1],
{4}5,2,3h[4:1],4h[4:1],
{4}5h[4:1],6,7/8,1b/6b,
{8},,1/7h[8:3],,,6h[8:3],,,
{4}5,4,3<6[8:3],,
{4},,8,1,
{4}2,3-8[8:3],,,
{4}6-1[8:3],,,2>7[8:5],
{1},
{4}8,2,1,3/8,
{4}7,8,1/6>2[2:1],,
{2},3/8,
{4}3h[4:1],4h[4:1],5h[4:1],6<2[2:1],
{4},,,2/5,
{4}4,6,4/7,5,
{1}4w8[4:3],
{4},,,6h[4:1],
{4}5,4,3h[4:1],4,
{4}5,5/7,4/6,3,
{4}2/4,3/5,6,5/7-4[8:3],
{2},3-8[8:3],
{4},7h[4:1],5,4,
{4}2h[4:1],4,5,6h[4:1],
{4}8,1,3/8,,
{4}2h[4:1],1,8,7h[4:1],
{4}8,1,2,3/4,
{4}4/5,5/6,4/7,5/6,
{8},,2h[8:3]/8,,,3h[8:3],,,
{4}4,5,6>3[8:3],,
{4},,2,1,
{4}8,7p3[16:7],,,
{4}2q6[16:7],,,7<2[8:5],
{1},
{4}1,7,8,1/6,
{4}2,1,3<6[8:3]/8,,
{2},1/6,
{4}5,3,4,2/5,
{4}6,5,4q1[2:1]/7<4[2:1],,
{2},3/7,
{4}6h[4:1],5h[4:1],4h[4:1],3>7[2:1],
{4},,,3/7,
{4}5,4,2/6,4,
{1}5>2[2:1]*<8[2:1],
{4},1,1,2/4,
{4}5,6h[4:1],5,5/7,
{4}4/8,3h[4:1],4,2/5,
{4}3/4,,1/8,7h[4:1],
{4}8,7/8,2h[4:1],1,
{4}3/8,1h[4:1],8h[4:1],7h[4:1],
{4}6h[4:1],5h[4:1],4,3/4,
{4}2h[4:1],4<7[16:5],,,
{4}8,5/6,7h[4:1],5>2[16:5],
{4},,1,2/4,
{4}3,5,5/7,6,
{4}4,2/5,6,7/8,
{4},2,3/5,,
{4}7,2/8,,4,
{4}5/6,,8,1/3,
{4},4,5/6,7h[4:1],
{4}8h[4:1],1h[4:1],2,3b/8b,
{1},
{1},
{1},
E
&inote_5=
(210){1},
{12},,,,,,,,4,5,,,
{12}3/6,,,4/5,,4/5,,,3,4,,,
{12}2>4[8:1]/5,,,7,,,6,4,5,3h[6:1],,4,
{12},,6,5,,,4/7<5[8:1],,,2,,,
{12}2,,,3,5,4,6h[6:1],,5,6,,4,
{12}5h[4:1],,,6h[4:1],,,7h[4:1],,,8,,7/8,
{12},,6,5>2[4:1],,,7h[4:1],,,,,,
{12}5,3,4,2h[6:1],,4,3h[6:1],,5,4h[6:1],,6,
{12}5>2[3:1],,,8,,,8,,,7h[6:1],,5,
{12}6h[6:1],,4,5h[6:1],,3,4,,,1/6,,,
{12}1,8,2h[3:1],7h[4:1],,,,,,2/7,,,
{4}2/4,4/5,5/7>5[2:1],1h[2:1],
{4},,4/8,2b/6b,
{12},,,4/5,,3h[4:1]/4,,,4,3,,,
{12}4/5,,5/6h[4:1],,,5,6,,,4/5,,3h[4:1]/4,
{12},,4,3,,,1/5,,,3b/7b,,,
{12}1/8,,,1h[4:1]/8h[4:1],,,,,6,5,,,
{4}5/7,4/6,3/5,2/4,
{4}3/5,4/6>3[4:1],2,,
{12}3,,,2/4,,,3/5,,6,5,,,
{4}5/7,4/6,3/5,2/4,
{12}1,,1,8,,,2/7,,,,,,
{4}4qq1[4:3],5,5,5,
{4}6,7,8qq5[4:3],1,
{4}1,1,2,3,
{4}4>1[4:1],5,5,5<8[4:1],
{4}4,4,4>1[4:1],5,
{4}5,4/5,3/6,,
{12}1/8,,,1h[4:1]/8h[4:1],,,,,3,4,,,
{4}2/4,3/5,4/6,5/7,
{4}4/6,3<6[4:1]/5,7,,
{12}6,,,5/7,,,4/6,,3,4,,,
{4}2/4,3/5,4/6,5/7,
{12}8,,8,1,,,2/7,,,,,,
{4}1-5[4:1],5,7,8-4[4:1],
{12}4,,,2,,,1,,1,8,,,
{4}4/5,3/6,2/7,,
{4}1/4,1/4,2-5[4:1]/3-6[4:1],2/3,
{4},5/8,5/8,5/8,
{4}6/7,6/7,6/7,5/7,
{4}5-1[4:1]/7,5/6,,3/4<7[4:1],
{4}1h[4:1],,5>2[4:1]/6,8h[4:1],
{4},1/8,2,3,
{12}4/7,,,4/7,,6,5>2[4:1],,,,,,
{4}8h[4:1],6h[4:1],5p3[8:5],4h[2:1],
{2},2/7,
{4}5>2[4:1]/6,8h[4:1],,3/4<7[4:1],
{4}2,1,2qq7[2:1]/7,6,
{4}5,6,4/6,3/5,
{12}4h[6:1],,5,4,,,2/6,,,8h[6:1],,1,
{12}8qq8[8:3],,,4,,,4,,,3,4,3,
{12}6,5,6,1,8,1,2/7,,,2b/7b,,,
{12}4/5,,,5h[4:1]/7h[4:1],,,,,3/5,,,4/6,
{4}4/6,2/4,4pp8[2:1]/6,3/4,
{4}2,1,3/7h[4:1],6h[4:1],
{4}5h[4:1],4>1[4:1],1<6[4:1],6>3[4:1],
{4}3>8[4:1],8<5[4:1],5>7[8:5]*p6[8:5],,
{4},,,3/5,
{4}1/7,6>3[4:1],1,2,
{4}3<6[4:1],8,7,6>3[4:1],
{4}1,2,3/8,,
{12}1h[6:1]/2,,3,1-5[8:1],,,1b/8,,,7/8h[6:1],,6,
{4}8-4[8:1],1/8b,2-6[8:1],1-5[8:1],
{4}8-4[8:1],7<8[2:1],1b,,
{12},,,2/4,,,4/6,,4/6,,,3/5,
{4}3/5,5/7,3/5qq1[2:1],5/6,
{4}7,8,2h[4:1]/5,3h[4:1],
{4}4h[4:1],5<8[4:1],8>3[4:1],3<6[4:1],
{4}6<1[4:1],1>4[4:1],4pp7[4:3]*qq1[4:3],,
{1},
{4}2/6,7>2[4:1],4,3,
{4}2<7[4:1],5,6,7>2[4:1],
{4}4,3,2/6,,
{4}1/8,5/7,4/5,2>7[4:1]/4,
{12}8h[2:1],,,,,,,,1/7,1/7,,,
{4}5/6,3/5,4/7,2/5,
{4}1<2[1:1]/8,6b,,,
{4},,,6h[4:1],
{4}5h[4:1],4h[4:1],3,4/5,
{12}5/6,,,6,,6,5,,5,4,,4,
{4}3h[4:1],2h[4:1],1p7[2:1],8h[2:1],
{4},,1/6,2/7,
{12}3/8,,,3,,3,4,,4,5,,5,
{4}6h[4:1],7h[4:1],8q2[2:1],1h[2:1],
{2},3h[2:1]/8h[2:1],
{4},5-1[8:1]/6,7,8,
{4}3/4-8[8:1],2,1,5/6,
{4}3/4,1-5[8:1]/8-4[8:1],1/8,2b/7b,
{12},,,5/7,,,2/4,,2/4,,,4/6,
{4}4/6,2/5,4pp8[2:1]/7,3/4,
{4}2,1,4/7h[4:1],6h[4:1],
{4}5h[4:1],4>1[4:1],1<6[4:1],6>3[4:1],
{4}3>8[4:1],8<5[4:1],5pp8[4:3]*qq2[4:3],,
{1},
{4}3/7,2<7[4:1],5,6,
{4}7>2[4:1],4,3,1<6[4:1],
{4}3,4,8>3[4:1],6,
{4}5,3/4q8[4:1],2,1,
{4}5p1[4:1]/6,7,8<3[4:1],2h[2:1],
{4},1,3b/8b,,
{12}1/8,,,2/4,,,4/5,,,5/7<2[4:1],,1,
{12}1h[2:1],,,,,,,,2/8,2-6[8:1]/8,,,
{4}1-5[8:1],8-4[8:1],7-3[8:1],8-4[8:1],
{4}1<2[8:5],2b,,,
{12},,,6,5,6,3,4,3,6,,4/7,
{12},,1,8h[4:1],,,7,,7,6,,6,
{12}5,,5,4,,4h[4:1],,,3,4>1[8:1]*<7[8:1],,,
{12},,,,,7,8,,8,7h[4:1],,,
{12}8,,7/8,,,1/6,1/6,,,3/8,,,
{12}2/7,,,2,4,2,6,4,6,2,4,2,
{12}7,5,7,3,5,3,7,5,7,1,,1,
{12}2,,2,3,,3,4-8[8:1],,,,,,
{12}2b/6b,,,8,,8,7,,7,6,,6,
{12}5h[4:1]/7h[4:1],,,,,2h[4:1]/4h[4:1],,,,1b/8b,,,
{12}2,4,3,5,,,1b/8b,,,7,5,6,
{12}4,,,2/7,,1<6[6:1]*>4[6:1]/8,,,,,,,
{12}2/7,,1/8<5[6:1]*>3[6:1],,,,,,,3/8,,1w5[6:1]/2,
{6},,,1/6,7/8w4[6:1],,
{12},,,2/5,,3/4w8[6:1],,,,,,,
{12}4/7,,5w1[6:1]/6,,,,,,,6,5,6,
{12}3,4,3,8,1,8,2-5[8:1]/7-4[8:1],,,2b/7b,,,
{1},
{1},
{1},
E
