&title=ネ!コ!
&wholebpm=182
&artist=パトリシア・オブ・エンド・黒木未知・夕莉シャチ・明日原ユウキ「ノラと皇女と野良猫ハート」
&des=玉子豆腐
&shortid=789
&genre=POPSアニメ
&cabinet=SD
&version=maimai FiNALE
&chartconverter=Neskol
&lv_2=5
&des_2=-
&lv_3=7+
&des_3=-
&lv_4=10+
&des_4=玉子豆腐
&lv_5=13
&des_5=玉子豆腐
&des_6=
&inote_2=
(182){1},
{1},
{1}1-5[4:3],
{1},
{1}8-4[4:3],
{1},
{2}1b,1,
{4}2,2,2,,
{2}3,3,
{4}4,4,4/5,,
{2}5,5,
{4}6,6,5/6,,
{2}7,7,
{1}1b/8b,
{1}7h[2:1],
{2}6,6,
{1}5h[2:1],
{2}4,4,
{1}3h[2:1],
{2}2,2,
{1}1h[1:1]/8h[1:1],
{1},
{2}1,1,
{4}2,1,2,,
{2}3,3,
{4}4,5,4,,
{2}5,5,
{4}6,5,6,,
{4}7,7,7,,
{4}8,8,8,,
{1}1h[1:1]/8h[1:1],
{1},
{2}1/8,1/8,
{4}1/8,1/8,1/8,,
{4}1b,1,1,,
{4}2,2,2,,
{4}3,3,3,,
{4}4,5,4/5,,
{4}5,5,5,,
{4}6,6,6,,
{4}7,7,7,,
{4}8,1,1/8,,
{1}8-4[4:3],
{1},
{1}1-5[4:3],
{1},
{2}8,8,
{4}7,7,7,,
{2}6,6,
{4}5,5,5,,
{1}4-8[4:3],
{1},
{2}1,1,
{4}2,2,2,,
{2}3,3,
{4}4,4,4,,
{2}5,5,
{1}6b,
{1}7h[1:1],
{1},
{1}8h[1:1],
{1},
{1}1h[1:1],
{1},
{2}2,2,
{4}1/8,1/8,1/8,,
{4}8b,8,8,,
{4}7,7,7/8,,
{4}6,6,6,,
{4}4/5,4/5,4/5,,
{4}4,4,4,,
{4}3,3,3/4,,
{4}2,2,2,,
{4}1/8,1/8,1/8,,
{4}7,7,7,,
{4}1/8,1/8,1/8,,
{1}1-5[4:3],
{1},
{1}8-4[4:3],
{1},
{4}1,1,1,,
{4}1/2,1/2,1/2,,
{4}8,8,8,,
{4}7/8,7/8,7/8,,
{1}1h[8:11]/8h[8:11],
{1},
{1},
{1},
E
&inote_3=
(182){1},
{1},
{2}1h[4:1]/2h[4:1],7h[4:1]/8h[4:1],
{4}1/8,1/8,2/7,1/8,
{1}1>4[2:1]/8<5[2:1],
{4}4/5,4/5,3/6,,
{4}7,7,7/8,,
{4}2,2,1/2,,
{4}3,4,6,5,
{4}4/5,4/5,3/6,,
{4}3,3,3/4,,
{4}6,6,5/6,,
{4}7,8,2,1,
{2}1h[4:1]/8h[4:1],2b/7b,
{4}6,6,5,5,
{4}4,4,4/5,,
{4}3,3,4,4,
{4}5,5,4/5,,
{1}2>5[2:1],
{1}6<1[2:1],
{2}1/2,7/8,
{4}1/8,1/8,2b/7b,,
{2}6h[2:1],5,
{4}6,5,5/6,,
{2}3h[2:1],4,
{4}3,4,3/4,,
{2}2h[2:1],1,
{4}2,1,1/2,,
{4}8,7,6,5,
{4}4,3,2,1,
{4}1h[4:1]/8h[4:1],,1/8,1/8,
{4}2/7,3/6,4/5,,
{4}2,2,1,1,
{4}8,8,1b/8b,,
{4}7/8,7/8,1/2,1/2,
{4}7/8,7/8,1/6,,
{4}7,7/8,2,1/2,
{4}1/8,1/8,2b/7b,,
{1}7-4[2:1]/8-3[2:1],
{1}1-6[2:1]/2-5[2:1],
{4}6,5/6,3,3/4,
{4}4/5,4/5,3b/6b,,
{2}1h[4:1]/2h[4:1],7h[4:1]/8h[4:1],
{4}1/8,1/8,2/7,,
{1}1>4[2:1]/8<5[2:1],
{4}4/5,4/5,3b/6b,,
{4}6,5/6,3,3/4,
{4}4/5,4/5,3/6,,
{1}4>1[2:1]/5<8[2:1],
{4}1/8,1/8,2/7,,
{4}3,3,3/4,,
{4}6,6,5/6,,
{4}7,8,2,1,
{4}1/8,1/8,2/7,,
{4}7,7,7/8,,
{4}2,2,1/2,,
{4}3,4,6,5,
{2}4h[4:1]/5h[4:1],3b/6b,
{1}6h[1:1],
{1}5h[1:1],
{1}4h[1:1],
{2}3h[2:1],4,
{2}2h[2:1],1,
{2}7h[2:1],8,
{4}8,8,1,1,
{4}1/8,1/8,2b/7b,,
{4}7/8,7/8,1/2,1/2,
{4}1/8,1/8,2b/7b,,
{4}3,3/4,6,5/6,
{4}4/5,4/5,3/6,,
{1}7-4[2:1]/8-3[2:1],
{1}1-6[2:1]/2-5[2:1],
{4}6,5/6,6,5/6,
{4}3,3/4,3,3/4,
{4}4/5,4/5,3/6,3/6,
{4}2/7,2/7,1b/8b,,
{2}1h[4:1]/2h[4:1],7h[4:1]/8h[4:1],
{4}1/8,1/8,2/7,,
{1}1>4[2:1]/8<5[2:1],
{4}4/5,4/5,3b/6b,,
{4}6,5/6,3,3/4,
{4}4/5,4/5,3/6,,
{1}4>1[2:1]/5<8[2:1],
{4}2,1/2,7,7/8,
{1}7<2[4:3],
{8},,,1b/8b,,,,,
{1},
{1},
{1},
E
&inote_4=
(182){1},
{1},
{2}5h[4:1]/6h[4:1],3h[4:1]/4h[4:1],
{4}5-1[4:1]/6-1[4:1],,,1,
{4}2b/8b,,3,2/4,
{4}2/4,3/5,4/6,5>2[8:5]/7p1[8:5],
{1},
{2}1h[4:1]/2h[4:1],3/8,
{4}2,3,4/5,6,
{4}7h[4:1],8,1/6,,
{4}3/4,2,5/6,7,
{2}7h[4:1]/8h[4:1],1/6,
{8}7,,6,,4/5,,3,3,
{8},1h[8:3]/2h[8:3],,,,,,,
{4}6,5/6,4,4/5,
{1}6>3[16:5],
{4}3,3/4,5,4/5,
{2}3h[4:1]/4h[4:1],2/5,
{4}1/2,1/2,7/8,7/8,
{4}1/2,7/8,1/8,,
{2}2/7,4>7[4:3]/5,
{1},
{8}4/5,,6,,4,4,7,,
{1}4w8[16:5]/5,
{8}4/5,,3,,5,5,2,,
{8}3,3,4,4,,2/5,2/5,,
{8}5/6,,7,,5,5,2,,
{4}4-1[4:1]/5-8[4:1],,,2/7,
{4}1b,8b,1b/2b,7b/8b,
{8}1b/3b,,6b/8b,,1,8,2V46[2:1],,
{8},,,,,7V53[2:1],,,
{4},,2,1/3,
{4}3h[4:1],4h[4:1],5h[4:1],6h[4:1],
{4}7h[4:1],8h[4:1],1,2b/7b,
{4}3/4h[4:1],2,5h[4:1]/6,7,
{4}2/5,3/4,1b/6b,,
{4}2/8,1p5[16:5]*q5[16:5],,,
{4}4/6,5,3/7,,
{4}2/4h[4:1],3-8[16:3],,,
{4}5h[4:1]/7,6-1[16:3],,,
{4}1h[4:1],2h[4:1],3h[4:1],4h[4:1],
{1}5w1[8:3],
{4}5/6,5/6,3/4,3/4,
{4}5/6,3/4,2,1/8,
{4}2/7,,6h[4:1],5,
{4}3h[4:1],4,1b,1b,
{4}3/4,3/4,5/6,5/6,
{4}3-8[4:1]/4-8[4:1],,,8,
{4}1b/7b,,6,5/7,
{4}5/7,4/6,3/5,2q8[4:3]/4<7[4:3],
{1},
{2}1h[4:1]/8h[4:1],2/7,
{4}7/8,6,4/5,3,
{4}2,1/2,3/8,,
{4}5/6,8,3/4,1,
{2}1h[4:1]/8h[4:1],2/7,
{8}1/2,,3,,4/5,,6,6,
{8},7h[8:3]/8h[8:3],,,,,,,
{2}6h[2:1],5h[2:1],
{2}4h[2:1],3h[2:1],
{2}4h[2:1],5h[2:1],
{2}6,5/6,
{4}6,5,3/4,,
{4}3,4,5/6,,
{4}5,3/4,4,5/6,
{1}3/4w8[8:3],
{4}5h[4:1]/6,8,3/4h[4:1],1,
{4}2/5,3-8[4:1]/4-7[4:1],,,
{4}1/7,8<5[4:1]*>3[4:1],,,
{4}2/5,3/4,1/6,,
{4}5h[4:1]/7,6<1[4:1],,,
{4}2/4h[4:1],3>8[4:1],,,
{4}7h[4:1],5h[4:1],4h[4:1],2h[4:1],
{8}1,1,,2/8,,1,1,,
{4}2h[4:1],4h[4:1],5h[4:1],7h[4:1],
{8}8,8-3[4:1]*-5[4:1],,,,,,,
{4}2/4,2/4,5/7,5/7,
{4}2/4,5/7,8,1/8,
{4}2/7,,3h[4:1],4,
{4}6h[4:1],5,8b,8b,
{4}5/7,5/7,2/4,2/4,
{4}5-2[16:5]*-8[16:5]/7,,,1,
{4}3b/7b,,2,1/4,
{4}1/4,2/5,3/6,4w8[2:1]/7,
{8},,,,,,,1/8,
{8},4/5,,2b/7b,,,,,
{1},
{1},
{1},
E
&inote_5=
(182){1},
{16},,,,,,,,,,3,4,3,,,,
{4}5pp5[4:1],5qq5[16:5],,,
{8}7,6,2/5,3,4/7,,2bpp3[4:1]/8bqq7[4:1],,
{16}2b/8b,,,,,,1,8,1,,,,2/7,,,,
{8}1v4[8:1]*v6[8:1],,,,3/7,,5/6,5p2[8:5]/6pp1[8:5],
{1},
{4}3/4-8[8:1],3>6[4:1]*p6[4:1],,,
{8}5,6,3,2,7-4[8:1],,3-8[8:1],,
{4}7<4[8:1],3>7[4:1]*p7[4:1],,,
{4}6<1[8:1],4-8[8:1],5-8[8:1],3-8[8:1],
{4}4-8[8:1],3>6[4:1]*p6[4:1],,,
{16}6,5,7,,3,4,2,,1/2,,3/8,,4/7,,5/6,,
{8},7b/8b,1b/6b,,1b/2b,3b/8b,,,
{4}5/6h[4:1],7,7h[4:1]/8,6,
{4}4h[4:1],3h[4:1],2-6[8:1],7,
{8}8<5[8:1],,2,1,8>3[8:1],,6,7,
{4}8p4[8:1]*q4[8:1],,2/6,7qq5[8:1],
{4}1pp3[8:1],8qq6[8:1],2pp4[8:1],7qq5[8:1],
{4}1pp3[8:1],8qq6[8:1],2pp4[8:1],7,
{8}1h[4:1]/6h[4:1],,,,3h[4:1]/8h[4:1],,,1/2,
{8},4/7,4/7,,2h[8:1],,7h[8:1],,
{8}5/6h[4:1],,1,,1,2,3/8,,
{8}4/6,5w1[16:3],,,,,3/7,,
{8}3h[4:1]/4,,8,,8,7,1/6,,
{8}6h[8:1],5h[8:1],4h[8:1],3,,1/2,3/8,,
{8}6h[4:1]/8,,4,,4,3,2/5,,
{8}1,1,8,1,2/7,,4qq2[8:1]/5,,
{4}4pp6[8:1],4>1[8:1],4<7[8:1],4v1[8:1],
{8}4v7[8:1],,4,,1,1,2pp5[16:7]/8qq5[16:7],,
{8},,,,,8pp4[2:1]*qq4[2:1],,,
{4},,,3/5,
{16}6,5,6,,3,4,3,,7,5,7,,2,4,2,,
{16}8,1,8,1,8,1,8,1,8,,,,2/7,,,,
{16}3/4,,2,1,,,4,,5/6,,7,8,,,5,,
{8}3-8[8:1]/4,3,4<8[4:1],4,2,,,1,
{16}8-4[8:1],,8,,2-5[8:1],,2,,6h[16:3],,,8h[16:3],,,7,,
{16}3h[16:3],,,1h[16:3],,,2,,3/8,,,,3-7[8:1]/5,,,,
{8}4<7[8:1],,2<8[8:1],,5,6,6-2[8:1],,
{8}5>2[8:1],,7>1[8:1],,4,3,3-8[8:1],,
{4}5-8[8:1],2,4-1[8:1]*-7[8:1],,
{8}8-6[8:1],8-2[8:1],8w4[16:3],,,,,,
{16}6h[16:3],,,5,,,4/7,,6h[16:3],,,5,,,3/8,,
{8}2,3,4/7,6,2/5,,1V38[4:1]/7V58[4:1],,
{16},,,,,,1,8,1,,,,6/8,,,,
{4}3>8[8:1]/8,7<4[8:1],1b-5[8:1],1b,
{4}4qq4[4:1]/8h[1:1],4pp4[4:1],,,
{8}3,2,1/6,7,3/8,,1bqq8[4:1]/2bpp3[4:1],,
{16}1b/2b,,,,,,1,8,1,,,,2/7,,,,
{8}8v3[8:1]*v5[8:1],,,,2/6,,3/4,3qq8[8:5]/4q7[8:5],
{1},
{4}5-2[8:1]/6,6<3[4:1]*q3[4:1],,,
{8}4/7,3,2/6,7,2>5[8:1]/8,,6<1[8:1],,
{4}2q7[16:3],6<3[4:1]*q3[4:1],,,
{4}3>8[8:1],5q1[8:1],4qq2[8:1],6<1[8:1],
{4}5-2[8:1],6<3[4:1]*q3[4:1],,,
{16}3,4,2,,6,5,7,,7/8,,1/6,,2/5,,3/4,,
{8},1b/2b,3b/8b,,7b/8b,1b/6b,,,
{2}3h[2:1],4h[2:1],
{4}5,4,3/6,,
{2}6h[2:1],5h[2:1],
{2}4<6[4:1],3,
{4}3h[4:3],5,4,6,
{4}7h[4:3],4,5,2,
{4}2h[4:1],4h[4:1],5h[4:1],8h[4:1],
{8}5b,8b-5[8:1],5bw1[16:3],8b,,,,,
{16}5/6,,7,8,,,5,,3/4,,2,1,,,4,,
{8}4-2[8:1]/8-6[8:1],,4/8w4[16:3],,8b,,,8,
{16}1-5[8:1],,1,,7-4[8:1],,7,,3h[16:3],,,1h[16:3],,,2,,
{16}6h[16:3],,,8h[16:3],,,7,,1/6,,,,4/6-2[8:1],,,,
{8}5>2[8:1],,7>1[8:1],,4,3,3-7[8:1],,
{8}4<7[8:1],,2<8[8:1],,5,6,6q2[8:1],,
{8}5>3[8:1],5,7>1[8:1],7,6-2[8:1],6,8,8,
{8}1p4[8:1],8<5[8:1],1,8,,2,3p7[8:1],3,
{8}4<6[8:1],4,2<8[8:1],2,3-7[8:1],3,1,1,
{8}8-4[8:1],1<4[8:3],8,1,,,,,
{16}3h[16:3],,,4,,,2/5,,3h[16:3],,,4,,,1/6,,
{8}7,6,1/5,2,3/7,,2V41[4:1]/8V61[4:1],,
{16},,,,,,8,1,8,,,,1/3,,,,
{4}7>2[8:1]/8,3<6[8:1],8b-4[8:1],8b,
{4}1h[1:1]/5pp5[4:1],5qq5[4:1],,,
{8}6,7,4/8,3,2/6,,7bqq6[4:1]/8bpp1[4:1],,
{16}7b/8b,,,,,,8,1,8,,,,2/7,,,,
{8}1v4[8:1]*v6[8:1],,,,3/7,,5/7,5>1[24:5]/7p1[24:5],
{8},5/7,,,2/8,3/7,,1/8,
{8},4qq3[8:3]/5pp6[8:3],4/5,4b/5b,,,,,
{1},
{1},
{1},
E
