&title=ネクロファンタジア~Arr.Demetori
&wholebpm=180
&artist=Demetori
&des=シチミヘルツ
&shortid=839
&genre=東方Project
&cabinet=SD
&version=maimai FiNALE
&chartconverter=Neskol
&lv_2=4
&des_2=-
&lv_3=8
&des_3=-
&lv_4=11+
&des_4=華火職人
&lv_5=13+
&des_5=シチミヘルツ
&des_6=
&inote_2=
(180){1},
{1},
{1},
{1},
{1},
{1}1,
{1}1,
{1}8,
{1}1/8,
{2}1,1,
{2}2,2,
{2}3,3,
{1}4/5,
{2}5,5,
{2}6,6,
{2}7,7,
{1}1/8,
{2}8,8,
{2}7,7,
{2}6,6,
{2}4/5,4/5,
{2}4,4,
{2}3,3,
{1}2h[1:1],
{1},
{1}1-4[1:1],
{1},
{4},8-5[4:3],,,
{1},
{4},1-4[4:3],,,
{1},
{4},8,,8,
{4},1/8,,,
{4},7-4[4:3],,,
{1},
{4},2-5[4:3],,,
{1},
{4},7-4[4:3],,,
{1},
{4},1,,1,
{4},1b/8b,,,
{4},2,,2,
{4},2,,,
{4},3h[1:1]/4h[1:1],,,
{1},
{4},5,,5,
{4},5,,,
{4},6,,6,
{4},6b,,,
{4},7,,7,
{4},7,,,
{4},7h[1:1]/8h[1:1],,,
{1},
{4},1,,1,
{4},1/8,,,
{4},8,,8,
{4},1b/8b,,,
{4},8,8,8,
{4},8,8,8,
{4},7,7,7,
{4},7,7,7,
{4},6,6,6,
{4},6,6,6,
{4},5,4,5,
{4},4/5,,,
{4},4,4,4,
{4},4,4,4,
{4},3,3,3,
{4},3,3,3,
{4},2,2,2,
{4},2,2,2,
{4},1h[1:1]/8h[1:1],,,
{1},
{4},1-4[4:3],,,
{1},
{4},8-5[4:3],,,
{1},
{4},1,,1,
{4},2,,2,
{4},3,,3,
{4},3/4,,,
{4},5h[1:1],,,
{1},
{4},4h[1:1],,,
{1},
{4},5,,5,
{4},6,,6,
{4},7-3[4:3],,,
{1},
{4},2,2,2,
{4},1,1,1,
{4},8,8,8,
{4},7,7,7,
{4},6,6,6,
{4},5,5,5,
{4},4h[1:1]/5h[1:1],,,
{1},
{4},6,6,6,
{4},7,7,7,
{4},8,8,8,
{4},1,1,1,
{4},2,2,2,
{4},3,3,3,
{4},4h[1:1]/5h[1:1],,,
{1},
{4},4/5,,4/5,
{4},4,4,5,
{4}5,4h[12:23],,,
{1},
{1},
{1},
{1},
E
&inote_3=
(180){1},
{1}2>6[4:3],
{1},
{1}7<3[4:3],
{1},
{1}2pp6[4:5],
{1},
{1}7qq3[4:5],
{1},
{4}3,3,3/4,,
{4}6,6,5/6,,
{4}3,3,4,4,
{4}5,5,4/5,,
{4}3,3,3/4,,
{4}6,6,5/6,,
{4}3,3,4,4,
{4}5,4,3b/6b,,
{4}2,2,1,1,
{4}8,8,1/8,,
{4}7,7,8,8,
{4}1,1,1/8,,
{4}2,2,1,1,
{4}8,1,2/7,,
{4}8,7,6,6-3[2:1],
{1},
{4}3,3h[2:1],,4h[2:1],
{4},5h[2:1],,6,
{4},5,6,4/7,
{4},3,4,2/5,
{4},3,2,1,
{4}8,7,8,1/8,
{4},6,7,8,
{4}1,8,1,2/7,
{4},6h[2:1],,5h[2:1],
{4},4h[2:1],,3,
{4},4,3,2/5,
{4},6,5,4/7,
{4},6,7,8,
{4}1,2,1,1/8,
{4},3,2,1,
{4}8,1,8,2/7,
{4},7-4[2:1]/8-3[2:1],,,
{4},1-6[2:1]/2-5[2:1],,,
{4},4,3,2,
{1}2<7[2:1],
{4},6,6,5/7,
{4},3,3,2/4,
{4},4,5,6,
{4}7,8,1,1/8,
{4},1-6[2:1]/2-5[2:1],,,
{4},7-4[2:1]/8-3[2:1],,,
{4},5,6,7,
{1}7>2[2:1],
{4},3,3,2/4,
{4},6,6,5/7,
{4},4,4,5,
{4}5,4,5,3b/6b,
{4},7,7,7/8,
{4}7/8,2,2,1/2,
{4}1/2,8,7,1/7,
{4},1,2,2/8,
{4},1,8,7,
{4}6,5,4,3/5,
{4},3,2,1,
{1}1-4[2:1]/8-5[2:1],
{4},3,3,3/4,
{4}3/4,6,6,5/6,
{4}5/6,4,3,3/5,
{4},5,6,4/6,
{4},5,4,3,
{4}2,1,8,1/7,
{4},1bpp4[4:5]/8bqq5[4:5],,,
{1},
{4},4h[2:1],,5,
{4},6h[2:1],,5,
{4},4h[2:1],,5,
{4},3h[2:1],,4,
{4},3h[2:1],,4h[2:1],
{4},5h[2:1],,6,
{4},5,6,7-3[2:1],
{1},
{4},4h[2:1],,5,
{4},3h[2:1],,4,
{4},5h[2:1],,4,
{4},6h[2:1],,5,
{4},5h[2:1]/6h[2:1],,,
{4},4h[2:1]/5h[2:1],,,
{4},3b<1[4:5],,,
{1},
{4},1/2,1/2,7/8,
{4}7/8,1/2,1/2,3/8,
{4},7/8,7/8,1/2,
{4}1/2,7/8,7/8,1/6,
{4},5/6,5/6,3/4,
{4}3/4,5/6,5/6,4/7,
{4},3,2,1,
{1}1-4[2:1]/8-5[2:1],
{4},3/4,3/4,5/6,
{4}5/6,3/4,3/4,2/5,
{4},5/6,5/6,3/4,
{4}3/4,5/6,5/6,4/7,
{4},1/2,1/2,7/8,
{4}7/8,1/2,1/2,3/8,
{4},8b>5[4:5],,,
{1},
{4},4,4,5,
{4}5,6,7,8,
{4}1,1pp4[2:3]/8qq5[2:3],,,
{1},
{1},
{1},
{1},
E
&inote_4=
(180){1},
{4}5h[8:3]/6h[4:7],,,5,
{4}5,3,4,3,
{4}3h[4:7]/4h[8:3],,,4,
{4}4,6,5,6,
{4}5h[8:3]/7h[4:7],,,6,
{4}8,1,2,3,
{2}2-4[8:1]/4,5/7-5[8:1],
{8}3,3,8,8,1,,3b/6b,,
{2}2-5[8:1],7-4[8:1],
{4}2h[4:1],4h[4:1],5h[4:1],7,
{4}6,5/7,3,2qq5[2:1]/4,
{4},,,4b/6b,
{2}7-4[8:1],2-5[8:1],
{4}7h[4:1],5h[4:1],4h[4:1],2,
{4}3,1/2,6,7/8z4[16:9],
{4},,,2b/7b,
{8}4/5,,7,7h[4:1],,5,5,5h[8:3],
{8},6,6,,1/8,,2/4,,
{8}4/5,,2,2h[4:1],,4,4,4h[8:3],
{8},3,3,,1/8,,5/7,,
{8}4/5,,7,7h[4:1],,5,5,5h[8:3],
{8},6,6,,1/8,,2/4,,
{8}5/6,,3/8,3h[8:3]/8,,5,5<4[8:5],,
{4},,,1b,
{4}1/8,1h[2:1],,2h[2:1],
{8},,3h[8:3],,,4-7[16:3],,,
{8},,1,1,6,,3/5,,
{8}4/6,,8,8,3,,4/6,,
{4}3/5,4-7[8:1],,6-1[8:1],
{4},2-5[8:1],,7-4[8:1],
{8},,3,3,1,,2/8,,
{8}1/7,,6,6,8,,2b/7b,,
{8},,5h[8:3],,,6h[8:5],,,
{8},,7h[8:3],,,8-3[16:3],,,
{8},,5,5,2,,1/7,,
{8}2/8,,4,4,7,,2/8,,
{4}1/7,8-3[8:1],,2-5[8:1],
{4},6-1[8:1],,3-8[8:1],
{8},,7,7,5,,4/6,,
{8}1/2,,2,2,4,,3b/6b,,
{4},1h[4:3]/2q6[8:3],,,
{4},5h[4:3]/6q2[8:3],,,
{8},,2h[8:3]/7,,,3h[8:3],,,
{1}4q5[2:1],
{8}4b/6b,,5,5,3,,2/4,,
{8}2/8,,4,4,6,,5/7,,
{8}1/7,,2,2,8,,1/7,,
{8}3/5,,5/6,,,3/4,,,
{4}2b/7b,7p2[8:3]/8h[4:3],,,
{4},3p6[8:3]/4h[4:3],,,
{8},,2/7h[8:3],,,6h[8:3],,,
{1}5z1[2:1],
{8}2b/8b,,7,7,5,,2,2,
{8}4,,8,8,5,,1,1,
{4}4,1/8,2/7,3/6,
{8}4/5,,3b/4b,,,5b/6b,,,
{4}2b/7b,1/8,5-1[8:1]/6-8[8:1],,
{8}2,2h[4:1],,4,4,,5/6,,
{8}3b/8b,3/8,,4/5,4-8[8:1]/5-7[8:1],,,,
{8}7,7h[4:1],,5,5,,3/4,,
{8}2b,2h[4:1],,4,4-8[8:1],,,,
{8}3,3h[4:1],,1,1-5[8:1],,,,
{8}3b/6b,3/6,,4/5,4/5,,1/8,1>8[8:5]/8,
{1},
{4}2b/7b,1/8,3-1[8:1]/4-8[8:1],,
{8}7,7h[4:1],,5,5,,3/4,,
{8}1b/6b,1/6,,4/5,4-2[8:1]/5-1[8:1],,,,
{8}2,2h[4:1],,4,4,,5/6,,
{8}7b,7h[4:1],,5,5-1[8:1],,,,
{8}6,6h[4:1],,8,8-4[8:1],,,,
{8}3b>6[2:1]/6b,3/6,,,,,,,
{8}1/8,,3/6,3/6,4/5,4/5,4/5,,
{4}2b/6b,3/4h[2:1],,5h[2:1],
{4},6>3[8:3],,,
{4},3/4h[2:1],,5h[2:1],
{4},6-3[8:3],,,
{4},3/4h[2:1],,5h[2:1],
{4},6h[2:1],,5h[2:1],
{4},4p5[2:1],,,
{4},4q5[2:1],,,
{4},5,5/6,4/5h[4:1],
{4}3,4,3/4,4h[4:1]/5,
{8}6,6,,4/5,4/5,,3h[4:1]/4,,
{8}5,5,,4/6,4/6,,4/5h[4:1],,
{8}3,3,,3/4,3/4,,3/5h[4:1],,
{8}2,2,,4,4,,2/4,,
{8}1,1>8[8:9],,,,,,,
{1},
{4}2b/7b,1/8,5-2[8:1]/6-1[8:1],,
{8}2,2h[4:1],,4,4,,5/6,,
{8}1b/8b,1/8,,3/4,3-8[8:1]/4-7[8:1],,,,
{8}7,7h[4:1],,5,5,,3/4,,
{8}1/2,1/2h[4:1],,4,4-8[8:1],,,,
{8}3,3h[4:1],,1,1-5[8:1],,,,
{8}3/6,3b/6b,,7/8,7/8,,3/4,3/4>5[8:5],
{1},
{4}1b,1/8,3-8[8:1]/4-7[8:1],,
{8}7,7h[4:1],,5,5,,3/4,,
{8}1b/8b,1/8,,5/6,5-2[8:1]/6-1[8:1],,,,
{8}2,2h[4:1],,4,4,,5/6,,
{8}7/8,7h[4:1]/8,,5,5-1[8:1],,,,
{8}6,6h[4:1],,8,8-5[8:1],,,,
{8}4b>5[16:9]/7b,4b/7b,,,,,,,
{16}3/6,,,,4,5,4,5,4,5,4,5,4,,,,
{8}2b/7b,,3,3,2/4,,6,6,
{4}5/7,6h[4:1],8h[4:1],1h[4:1],
{4}3h[4:1],6<3[2:1],,,
{4},4/5,3/6,2/7,
{12}1/8,1/8,1b/8b,,,,,,,,,,
{1},
{1},
{1},
E
&inote_5=
(180){1},
{16}6,5,6,5,6,5,4/7h[8:11],,,,,,,,,,
{4}5,5,4,3,
{16}3,4,3,4,3,4,2h[8:7]/5,,,,,,,,,,
{16}4,,,,4,,,,5,3,5,,4,6,4,,
{16}5,4,5,4,5,4,5,,,,3/6,,,,4,,
{4}3/5,4/6,2/5,4/7,
{16}6,4,6,,3,5,3,,7,4,7,,2,5,2,,
{16}8,7,6,5,4,3,2,1,8,7,6,5,3/4,,,,
{8}1-4[8:1],,1/7,7-3[8:1],,2,2-6[8:1],,
{4}2/5-8[8:1],3-7[8:1]/5,3/8-5[8:1],8,
{4}4-2[16:1],4/5,5-7[16:1],4/5,
{4}4>1[4:1],1<6[4:1],6>3[4:1],3,
{8}8-5[8:1],,2/8,2-5[8:1],,7,7-3[8:1],,
{4}4-1[8:1]/7,4/6-2[8:1],1-4[8:1]/6,1,
{4}5-7[16:1],4/5,4-2[16:1],4/5,
{16}2/5,,,4/7,,,1/8,,2b-6[8:1]/7b,,,,2,,,,
{8}7/8,1,8,1/2,,3,3/4,2-5[8:1]/5,
{8},6,7,8h[4:1],,5,4/7,3/6,
{8}2/5,3,4,2/5,,7,7/8,1/6-1[8:1],
{16},,2,,3,,3,,4,8,3,7,2,,3/6,,
{8}4/5,4,5,2-5[8:1]/7,,6,7,8h[4:1],
{8},2,3/7,4,2-5[8:1]/7-4[8:1],,2/7,,
{8}2-7[8:1],6-3[8:1],,,,1,8,2/7,
{16}3,4,2,,6,5,7,,1,,1,,2/7,,,,
{4}3-1[8:1]/5,3/4,4/6-8[8:1],5/6,
{8}1-5[8:1]/5,,1/6,,7,7-3[8:1],,2,
{8}2,,1-3[8:1]/7h[4:1],,1,8h[8:3],,4,
{8}4,,4-2[8:1]/6h[4:1],,4,5h[8:3],,1,
{4}1,2-5[8:1]/7,2/7-4[8:1],1-5[8:1]/7,
{4}1/8,7>2[4:1],2>5[4:1],5<8[4:1],
{8}8,,1,,2,2>4[8:1]/8h[8:3],,,
{8},,8,,1,1<6[8:1]/7h[8:3],,,
{8},,4/8-4[8:1],,2/8,2-5[8:1],,6,
{8}6-1[8:1],,2/6,,4,4-1[8:1],,7,
{8}7,,2h[4:1]/8-6[8:1],,8,1h[8:3],,5,
{8}5,,3h[4:1]/5-7[8:1],,5,4h[8:3],,8,
{4}8,2/7-4[8:1],2-5[8:1]/7,2/8-4[8:1],
{4}1/8,2<7[4:1],7<4[4:1],4>1[4:1],
{8}1,,8,,7,1h[8:3]/7<5[8:1],,,
{8},,1,,8,2h[8:3]/8>3[8:1],,,
{8},,1-4[8:1],8,7,6-1[8:1],5,4,
{8}3,,8-5[8:1],1,2,3-8[8:1],4,5,
{8}6,,1-6[8:1],,1,8-3[8:1],,8,
{16}4>1[8:1],,,,4,,,,8,7,6,5,3/4-8[8:1],,,,
{8}1,,1>4[8:1],8,7,6<1[8:1],5,4,
{8}3,,8<5[8:1],1,2,3>8[8:1],4,5,
{8}6,,1/5h[4:1],2,3,4/5,3/6,2/7,
{8}1/8,,1/7,,4,2/8,,5,
{8}2/7,,8-5[8:1],1,2,3-8[8:1],4,5,
{8}6,,1-4[8:1],8,7,6-1[8:1],5,4,
{8}3,,8-3[8:1],,8,1-6[8:1],,1,
{16}5<8[8:1],,,,5,,,,1,2,3,4,5-1[8:1]/6,,,,
{8}8,,8<5[8:1],1,2,3>8[8:1],4,5,
{8}6,,1>4[8:1],8,7,6<1[8:1],5,4,
{8}3,,4h[4:1]/8,7,6,4/5,3/6,2/7,
{8}1/8,,2/8,,5,1/7,,4,
{8}1b>4[8:1]/5b<8[8:1],,1v6[8:1]/5v2[8:1],,1/5,,2,1>8[2:1],
{8}8,7h[2:1],,,,,,2-5[8:1],
{8},8,8-5[8:1],,1/8,,2,6,
{8}1,1-5[8:1]/5,,7,7-3[8:1],,1/7,,
{8}3/4,3-8[8:1]/5,,7,7-4[8:1],,1/7,,
{8}3/6,4/6-1[8:1],,2,2-5[8:1],,2/8,,
{8}4/7,2/7-4[8:1],,2,2-5[8:1],,2/8,,
{16}1/8,,2/7,,,,3,4,2,,6,5,7,,4/5,,
{8}4b>1[8:1]/8b<5[8:1],,4v7[8:1]/8v3[8:1],,4/8,,7,8<1[2:1],
{8}1,2h[2:1],,,,,,7-4[8:1],
{8},1,1-4[8:1],,1/8,,7,3,
{8}8,4/8-4[8:1],,2,2-6[8:1],,2/8,,
{8}5/6,4/6-1[8:1],,2,2-5[8:1],,2/8,,
{8}3/6,3-8[8:1]/5,,7,7-4[8:1],,1/7,,
{16}4/5,,2b/7b,,,,1b,,1b,,,,7,8,7,,
{16}3,4,3,,7,8,6,1,5,2,4,,3/4,,2/5,,
{4}3b/7bv5[8:3],4,4,4,
{4}4/5v8[8:3],4,3,2,
{4}2/7v5[8:3],3,4,4,
{4}4h[2:1]/5,5,5,3/6,
{4}5<8[8:3],3,2,3,
{4}4>1[8:3],6,7,6,
{4}5<8[8:3],3,2,3V58[2:1]/6V41[2:1],
{8},,,,,,1/8,1/8,
{4}2-4[8:1]/7,7,1-3[8:1]/7,6,
{4}2-4[8:1]/5,5,1-3[8:1]/6,7,
{4}2-4[8:1]/7,6,1-3[8:1]/5,5,
{8}2-4[8:1]/6,,7-5[8:1],,1,,3/7,3-8[8:1]/7-4[8:1],
{8},3/7,,1,1/5,,2/6,2-5[8:1]/6-1[8:1],
{8},2/6,,8,4/8,,1/5,1/5<4[8:5],
{8},1/5,,,,,,,
{32}2/6,,,,,,,,3,,8,,3,,8,,2,,7,,2,,7,,2,1,8,7,6,5,4,3,
{8}2b>5[8:1]/6b<1[8:1],,2v7[8:1]/6v3[8:1],,2/6,,2,1>8[2:1],
{8}8,7h[2:1],,,,,,1/2-5[8:1],
{8},8,8-3[8:1]*-5[8:1],,8,,3,6,
{8}1,1/8-4[8:1],,2,2<7[8:1]*>5[8:1],,2,,
{8}5/6,4/6-1[8:1],,2,2-5[8:1]*-7[8:1],,2,,
{8}3/6,3-8[8:1]/5,,7,7-2[8:1]*-4[8:1],,7,,
{8}3/5,3-8[8:1]/7,,6,6-1[8:1],,6/8,,
{16}1/8,,2/7,,,,6,5,8,,3,4,1,,2/6,,
{8}3b>8[8:1]/7b<4[8:1],,3v6[8:1]/7v2[8:1],,3/7,,7,8<1[2:1],
{8}1,2h[2:1],,,,,,7-4[16:1]/8,
{8},1,1-4[8:1]*-6[8:1],,1,,6,3,
{8}8,1-5[8:1]/8,,7,7<4[8:1]*>2[8:1],,7,,
{8}3/4,3-8[8:1]/5,,7,7-2[8:1]*-4[8:1],,7,,
{8}3/6,4/6-1[8:1],,2,2-5[8:1]*-7[8:1],,2,,
{16}4/8,,2b/6b,,,,1,8,1,8,1,,6,5,6,,
{16}3,4,3,,7,5,6,4,5,3,4,,7b/8b,,4b/5b,,
{16}2b/7b,,,,3/6,,4,5,4,,3/6,,2/7,,1/8,,
{8}2/7,3/6,2-4[8:1],5,2-5[8:1],6,2-6[8:1],7,
{24}2,,,8,,,2,,4,,3,,7,,5,,6,,1,,3,,2,,
{12}8,6,7,1,5,3,7,4,8,2,6,1-5[12:1],
{12}7,7,1b,,,,,,,,,,
{1},
{1},
{1},
E
