&title=サウンド
&wholebpm=160
&artist=baker
&des=Jack
&shortid=810
&genre=niconicoボーカロイド
&cabinet=SD
&version=maimai FiNALE
&chartconverter=Neskol
&lv_2=5
&des_2=-
&lv_3=7
&des_3=-
&lv_4=9
&des_4=はっぴー
&lv_5=12
&des_5=Jack
&des_6=
&inote_2=
(160){1},
{1},
{1},
{1},
{1},
{4}1,1,1,,
{4}2,2,2,,
{4}3,3,3,,
{4}4,5,4,,
{4}5,5,5,,
{4}6,6,6,,
{4}7,7,7,,
{2}1/8,1b/8b,
{2}2,2,
{4}3,3,3,,
{2}4,4,
{4}5,5,5,,
{2}6,6,
{4}7,7,7,,
{2}8,1,
{2}1/8,1b/8b,
{2}7,7,
{4}6,6,6,,
{2}5,5,
{4}4,4,4,,
{2}3,3,
{4}2,2,2,,
{2}1,1,
{2}8,8b,
{1}1-5[4:3],
{1},
{1}5-8[4:3],
{1},
{1}8-4[4:3],
{1},
{1}4h[1:1],
{1},
{4}3,3,3/4,,
{2}4,4/5,
{4}6,6,5/6,,
{2}4/5,4/5,
{4}3,3,3/4,,
{2}4,4/5,
{4}5,5,4/5,,
{1}3/6,
{4}7,7,7/8,,
{2}8,1/8,
{4}2,2,1/2,,
{2}1/8,2/7,
{4}8,8,7-3[4:3],,
{1},
{4}2,1,1/2,,
{4}1,8,1/8,,
{4}7,8,7/8,,
{2}1/8,1/8,
{4}2,2,1,,
{4}8,8,7,,
{4}8,1,1/8,,
{1}2/7,
{4}6,5,5/6,,
{4}5,4,4/5,,
{4}3,4,3/4,,
{2}2,1/8,
{4}2,2,1-4[4:3],,
{1},
{2}5,5/6,
{4}6,6,6,,
{2}7,7/8,
{4}8,8,8,,
{2}1,1/2,
{4}2,2,2,,
{2}3,3/4,
{4}4/5,4/5,4b/5b,,
{4}5,5,5,,
{4}6,6,6,,
{4}7,7,7,,
{4}8,1,8,,
{4}1,1,1,,
{4}2,2,2,,
{4}3,3,3,,
{4}4/5,4/5,4/5,,
{1}3/6,
{1},
{1},
{1},
E
&inote_3=
(160){1},
{1},
{1},
{1},
{1},
{4}3,3,3/4,,
{4}6,6,5/6,,
{4}3,3,4,4,
{4}5,4,4/5,,
{4}6,6,5/6,,
{4}3,3,3/4,,
{4}6,6,5,5,
{4}4,5,3b/6b,,
{2}3h[2:1],4,
{4}3,4,3/4,,
{2}6h[2:1],5,
{4}6,5,5/6,,
{2}3h[2:1],4,
{4}3,4,3/4,,
{2}6h[2:1],5,
{4}4/5,4/5,3/6,,
{2}7h[2:1],8,
{4}7,8,7/8,,
{2}2h[2:1],1,
{4}2,1,1/2,,
{2}7h[2:1],8,
{4}7,8,7/8,,
{2}2h[2:1],1,
{4}1/8,1/8,2/7,,
{1}2-5[2:1],
{4}6,5,5/6,,
{4}7,7,8,8,
{4}1,1,7/8,,
{1}6-1[2:1],
{4}2,1,1/2,,
{4}3,3,4,4,
{1}4b/5b,
{4}6,5,5/6,4/5,
{4}3,4,3/4,,
{4}3,4,5,6,
{4}5/6,4/7,3/8,,
{1}1-6[2:1]/2-5[2:1],
{1}7-4[2:1]/8-3[2:1],
{2}5h[2:1],4h[2:1],
{4}5,4,3b/6b,,
{4}2,1,1/2,1/8,
{4}7,8,7/8,,
{4}7,8,1,2,
{4}1/2,1/2,3/8,,
{2}1h[2:1],8h[2:1],
{4}1,8,2b/7b,,
{4}3,4,3/4,2/5,
{4}6,5,4/7,,
{4}6,5/6,3,3/4,
{4}3/4,2/5,1/6,,
{1}7-4[2:1]/8-3[2:1],
{1}1-6[2:1]/2-5[2:1],
{2}4h[2:1],5h[2:1],
{4}4,5,3b/6b,,
{4}7,8,7/8,1/6,
{4}2,1,3/8,,
{4}2,1/2,7,7/8,
{4}1/8,1/8,2/7,,
{1}1pp4[4:5]/8qq5[4:5],
{1},
{4}7,7,7/8,,
{4}2,2,1/2,,
{4}7,7,8,8,
{4}1,8,1/8,,
{4}2,2,1/2,,
{4}7,7,7/8,,
{4}2,2,1,1,
{4}8,1,2/7,,
{4}3,3,3/4,,
{4}6,6,5/6,,
{4}3,4,5,6,
{4}5,4,3/6,,
{4}6,6,5/6,,
{4}3,3,3/4,,
{4}6,5,4,3,
{4}4,5,3/6,,
{1}3h[1:2]/6h[1:2],
{1},
{1},
{1},
{1},
E
&inote_4=
(160){1},
{1},
{1},
{1},
{4},,,4/5,
{4}5/6h[4:1],4,3h[4:1]/4,5,
{4}5/6h[4:1],4,3,2/5,
{4}3h[4:1]/4,5,5/6h[4:1],4,
{4}3h[4:1]/4,5,6,4/7,
{4}5/6h[4:1],4,3h[4:1]/4,5,
{4}5/6h[4:1],4,3,2/5,
{8}5/7,,,1/8,,,2/4,,
{8},1/8,1/8,,2/7,,,,
{4}1,8,7,4/6,
{4}8,1,2,3/5,
{4}1,8,7,4/6,
{4}8,1,2,3/5,
{4}3,5,6,5/7,
{4}6,4,3,2/4,
{4}3,5,6,5p4[8:5]/7,
{1},
{4}8,1,2,3/5,
{4}1,8,7,4/6,
{4}8,1,2,3/5,
{4}1,8,7,4/6,
{4}6,4,3,2/4,
{4}3,5,6,5/7,
{4}6,4,3,2/4,
{8}1h[2:1],,,8,8,,2/7,,
{2}6-1[4:1],2-5[4:1],
{4}7h[4:1],5h[4:1],4h[4:1],2,
{2}3-8[4:1],7-4[4:1],
{4}3h[4:1],1h[4:1],8h[4:1],6,
{2}7-4[4:1],3-8[4:1],
{4}7h[4:1],5h[4:1],4h[4:1],2,
{4}1,3,5,6<3[2:1],
{8},,,,,,,3,
{8}3h[4:1],,2h[4:1],,1,1,,3/6,
{8},,7h[4:1],,6,6pp3[8:5],,,
{8},,,,,,2,2h[8:3],
{8},,1,,8,8,,3/6,
{8},4/5,4/5,,3h[4:1],,4,4,
{8},5,5,,4/5,,3/6,,
{8}5/7,,2,2/4,,1,1,8h[4:1],
{8},,2/7,,,,,6,
{8}6h[4:1],,7h[4:1],,8,8,,3/6,
{8},,2h[4:1],,3,3qq6[8:5],,,
{8},,,,,,7,7h[8:3],
{8},,8,,1,1,,,
{8}2/4,,7,5/7,,1>7[8:5]/8,,,
{8},,,,,,,6,
{8}6h[4:1],,7h[4:1],,8,8,,3/6,
{8},,2h[4:1],,3,3qq6[8:5],,,
{8},,,,,,7,7h[8:3],
{8},,8,,1,1,,3/6,
{8},4/5,4/5,,6h[4:1],,5,5,
{8},4,4,,4/5,,3/6,,
{8}2/4,,7,5/7,,8,8,1h[4:1],
{8},,2/7,,,,,3,
{8}3h[4:1],,2h[4:1],,1,1,,3/6,
{8},,7h[4:1],,6,6pp3[8:5],,,
{8},,,,,,2,2h[8:3],
{8},,1,,8,8,,,
{8}5/7,,2,2/4,,1>7[8:5]/8,,,
{1},
{4}3h[4:1]/4,5,5/6h[4:1],4,
{8}3h[4:1]/4,,5,,8,8,4/7,,
{4}5/6h[4:1],4,3h[4:1]/4,5,
{8}5/6h[4:1],,4,,1,1,2/5,,
{4}3h[4:1]/4,5,5/6h[4:1],4,
{8}3h[4:1]/4,,5,,8,8,4/7,,
{8}2/4,,,1/8,,,5/7,,
{8},1/8,1/8,,2/7,,,,
{4}7h[4:1]/8,1,3h[4:1]/4,5,
{8}7h[4:1]/8,,1,,2,2,3/8,,
{4}1/2h[4:1],8,5/6h[4:1],4,
{8}1/2h[4:1],,8,,7,7,1/6,,
{4}7h[4:1]/8,1,3h[4:1]/4,5,
{8}7h[4:1]/8,,1,,2,2,3/8,,
{8}2,2/4,,8,1/8,,7,5/7,
{8},1,1/8,,2/7,,4/5,,
{1}1b,
{1},
{1},
{1},
E
&inote_5=
(160){1},
{8}4h[8:3],,,5,,6,,5,
{8},4,,3,,4h[8:3],,,
{8}5h[8:3],,,4,,3,,4,
{16},,5,,,,6,,3/6,,4,5,4,5,4,5,
{8}4b,,2-5[8:1]/7,,6-1[8:1],,3,3,
{8},2/4,,6,,5/7,,1,
{8}1/8,,2/7-4[8:1],,3-8[8:1],,6,6,
{8},5/7,,3,2,1,8,7,
{8}2-5[8:1]/6-1[8:1],,,,4,3,1/2,,
{8}5,6,7/8,,1/8,1/8,2/7,,
{8}4,3/5,,4/7,,2/6,2/6,3/7,
{8},1/5,1>4[8:1]/5<8[8:1],,,,2b/6b,,
{8}1/7-4[8:1],,,3,2-6[8:1]/4,,,7,
{8}4/8<5[8:1],,,4,3>8[8:1]/5,,,7,
{8}6-1[8:1]/8,,,2,1/3-7[8:1],,,6,
{8}1/5<8[8:1],,,1,2>5[8:1]/8,,,6,
{8}5/7-4[8:1],,,3,2/4-8[8:1],,,2,
{8}1-5[8:1]/7,,,6,5-2[8:1]/7,,,1,
{8}2/8<5[8:1],,,4,3-8[8:1]/5,,,6,
{8}5/7,,2,1-6[8:1]/3-8[8:1],,,,1/7,
{8}2-5[8:1]/8,,,6,5/7-3[8:1],,,2,
{8}1>4[8:1]/5,,,5,4/6<1[8:1],,,2,
{8}1/3-8[8:1],,,7,6-2[8:1]/8,,,3,
{8}4>1[8:1]/8,,,8,1/7<4[8:1],,,3,
{8}2-5[8:1]/4,,,6,5-1[8:1]/7,,,7,
{8}2/8-4[8:1],,,3,2/4-7[8:1],,,8,
{8}1>4[8:1]/7,,,5,4/6-1[8:1],,,4,
{8}3<6[8:1]/7,,,8-5[8:1],1-4[8:1],8,1,,
{8}5h[4:1],,6h[4:1],,7qq4[4:3],,3,3,
{8},1,1,1,,3,4,5,
{8}6,,3/8,3/8<5[8:1],,1>4[8:1],,6,
{8},7,7,6/8,,2,2,1/3,
{8}4h[4:1],,3h[4:1],,2pp5[4:3],,6,6,
{8},8,8,8,,,5,4,
{8}3/6,2,1,8,7,6,1/5,1>4[8:1]/5<8[8:1],
{16},,,,,,,,4/5,,3,4,2,,6,5,
{8}7b-3[8:1],,2b-6[8:1],,7,8<5[8:1],1,2h[8:3],
{8},,4,3,2,1>4[8:1],8,7h[8:3],
{8},,5,6,7,8qq4[2:1],1,2h[4:1],
{8},,2,3,4,5,6,7,
{8}2/8,1,3/7,,5,4,3,2,
{8}1/7,8,2/6,,2/8,1,3/7,,
{8}2,2-5[8:1],1,2,,7-4[8:1],8,7,
{8},1/8,2/7,3/6,4-1[8:1]/5-8[8:1],,,,
{8}2-6[8:1]/7,,7-3[8:1],,2,1>4[8:1],8,7h[8:3],
{8},,5,6,7,8<5[8:1],1,2h[8:3],
{8},,4,3,2,1>4[8:1],8,7h[8:3],
{8},,5-1[8:1],,8,8,2/7,,
{8}7,8-4[8:1],1,2,,3>6[8:3],4,5,
{16},,,,,,,,4,5,4,5,3/6,,2/7,,
{8}1-5[8:1]/8-4[8:1],,1b/8b,,3/6,3qq5[2:1]/6,,6h[4:1],
{8},,6,,5/6,5/6pp4[2:1],,3h[4:1],
{8},,3,,2,1pp5[2:1],8,7h[4:1],
{8},,7,6,5,4,3,2,
{8}1/7,8,2/6,,4,5,6,7,
{8}2/8,1,3/7,,1/7,8,2/6,,
{8}7,7-4[8:1],8,7,,2-5[8:1],1,2,
{8},4/8,3/7,2/6,1>4[8:1]/5<8[8:1],,,,
{8}4-1[8:1]/8-5[8:1],,4/8,,2/6,2qq5[2:1]/6,,6h[4:1],
{8},,6,,4/7,4/7pp4[2:1],,3h[4:1],
{8},,3,,2q7[4:1]/5,,8,8h[8:3],
{8},,1-5[8:1],,8,8,2/7,,
{8}2,1-5[8:1],8,7,,4qq1[8:5]/5pp8[8:5],4/5,,
{48},,,,,,,,,,,,,,,,,,,,,,,,,,,,,,2/7,,,,,,4b,5b,,,,,,,,,,,
{8}2-6[8:1]/8,,7-4[8:1],,3-8[8:1],,6,6,
{8},5/7,,3,,2/4,,1/7,
{8}1/7-3[8:1],,2-5[8:1],,6-1[8:1],,3,3,
{8},2/4,,6,7,8,1,2,
{8}3-8[8:1]/7-4[8:1],3/7,,,6,5,4/7,,
{8}2,1,3/8,,2-5[8:1]/6-1[8:1],2/6,,,
{8}5,4/6,,2/5,,3/7,3/7,2/6,
{8},4/8,4>1[8:1]/8<5[8:1],,,,3b/7b,,
{8}1>4[8:1]/5<8[8:1],,,,2/6,2q5[2:1],7,8,
{16},,,,6,,,,7h[16:3],,,6h[16:3],,,5,,
{4}5<8[4:1],8>3[4:1],3<6[4:1],6<1[4:1],
{8}1,2,3,4,5,6,7,1/8,
{8}2,2,3,3,4,4,5,5,
{8}6,6,7,7,8,8,1,1,
{8}2,2-4[8:1],,8-6[8:1],,1-5[8:1],,8-4[8:1],
{8},1-3[8:1],,7-5[8:1],,8-4[8:1],,5,
{1}5b,
{1},
{1},
{1},
E
