&title=Xevel
&wholebpm=176
&artist=Tatsh
&des=すきやき奉行
&shortid=757
&genre=オンゲキCHUNITHM
&cabinet=SD
&version=maimai MiLK PLUS
&chartconverter=Neskol
&lv_2=5
&des_2=-
&lv_3=8+
&des_3=-
&lv_4=12+
&des_4=サファ太
&lv_5=14
&des_5=すきやき奉行
&des_6=
&inote_2=
(176){1},
{1},
{1},
{1}1,
{1}1,
{1}8,
{1}8h[1:2],
{1},
{1},
(185){1},
{4}1,1,1,,
{4}2,2,2,,
{4}3,3,3,,
{4}4/5,4/5,4/5,,
{4}5,5,5,,
{4}6,6,6,,
{4}7,7,7,,
{4}8,8,8,,
{4}1/8,1/8,1/8,,
{4}7,7,7,,
{4}6,6,6,,
{4}4/5,4/5,4b/5b,,
{4}4,4,4,,
{4}3,3,3,,
{4}2,2,2,,
{4}1/8,1/8,1/8,,
{2}1,8,
{1}1/7,
{2}8,1,
{1}2/8,
{1}1-5[4:3],
{1},
{1}8-4[4:3],
{1},
{4}1,1,2,2,
{4}3,3,4,4,
{1}5h[2:1],
{1}4h[2:1],
{4}5,5,6,6,
{4}7,7,8,8,
{1}1h[2:1],
{1}8h[2:1],
{4}8,8,7,7,
{4}6,6,5,5,
{1}4h[2:1],
{1}5h[2:1],
{4}4,4,3,3,
{4}2,2,1,1,
{4}8,8,7,7,
{4}6,6,5,5,
{1}4-1[4:3],
{1},
{1}5-8[4:3],
{1},
{4}1h[8:3],,,1h[8:3],
{2},1,
{4}8h[8:3],,,8h[8:3],
{2},8,
{4}1h[8:3]/8h[8:3],,,1h[8:3]/8h[8:3],
{2},1/8,
{2}1,1,
{2}1,1/8,
{2}8,8,
{2}8,1/8,
{4}1,1,8,8,
{1}2b/7b,
{1}1b/8b,
{1}1/8,
{4}1,1,2,2,
{4}3,3,4,4,
{4}5/6,5/6,5/6,,
{4}3/4,3/4,3/4,,
{4}5,5,6,6,
{4}7,7,8,8,
{1}1h[2:1],
{1}1b/8b,
{4}8,8,7,7,
{4}6,6,5,5,
{4}3/4,3/4,3/4,,
{4}5/6,5/6,5/6,,
{1}4h[2:1],
{1}3h[2:1],
{1}2h[2:1],
{1}1h[2:1],
{1}8-4[4:3],
{1},
{1}1-5[4:3],
{1},
{4}8b,8,8,,
{4}7,7,7/8,,
{4}6,6,6,,
{4}5,5,4/5,,
{4}4,4,4,,
{4}3,3,3/4,,
{4}2,2,2,,
{4}1,1,1,,
{4}8,8,7,7,
{4}6,6,5,5,
{4}4,4,3,3,
{4}2,2,1,1/8,
{1}1-5[4:3]/8-4[4:3],
{1},
{1},
{1},
E
&inote_3=
(176){1},
{1},
{1},
{1}6h[1:1],
{1}5h[1:1],
{1}4h[1:1],
{1}3h[1:3],
{1},
{1},
(185){1}4b,
{4}6,5,4/5,,
{4}3,4,4/5,,
{4}6,5,4/5,,
{1}3h[2:1]/6h[2:1],
{4}2,2,1,1,
{4}8,8,7/8,7/8,
{4}6,6,5,5,
{4}4,4,3/4,3/4,
{4}2,2,1,1,
{4}8,8,1/7,1/7,
{4}6,6,5,5,
{4}4/5,4/5,3/6,3/6,
{4}7,8,1,2,
{4}3,4,4/5,3/6,
{4}7,8,1,2,
{4}3/4,3/4,5/6,5/6,
{1}7h[1:1],
{1}6h[1:1],
{1}5h[1:1],
{1}4-1[2:1],
{4}8,8,1,1,
{4}7,7,2,2,
{4}6,6,3,3,
{4}4h[2:1]/5h[2:1],,,3b/6b,
{8}1,1,1,,8,,1/7,,
{8}8,8,8,,1,,2/8,,
{1}1-4[2:1]/8-5[2:1],
{4}3/6,3/6,4b/5b,,
{8}5,5,5,,4,,3/5,,
{8}4,4,4,,5,,4/6,,
{2}5h[4:1]/6h[4:1],3h[4:1]/4h[4:1],
{4}4h[4:1]/5h[4:1],,3/6,3b/6b,
{8}2,2,2,,1,,2/8,,
{8}7,7,7,,8,,1/7,,
{1}1-4[2:1]/8-5[2:1],
{4}3/6,3/6,4b/5b,,
{8}6,6,6,,5,,4/6,,
{8}3,3,3,,4,,3/5,,
{8}2,2,2,,1,,2/8,,
{8}7,7,7,,8,,1/7,,
{1}6h[1:1],
{1}5h[1:1],
{1}4h[1:1],
{1}3b,
{4}4,3,2,1,
{4}8,7,5/6,5/6,
{4}5,6,7,8,
{4}1,2,3b/4b,,
{4}1,2,3,4,
{4}5,6,7/8,1/6,
{1}2-5[2:1],
{1}7-4[2:1],
{1}3-8[2:1],
{1}6-1[2:1],
{1}1-4[2:1]/8-5[2:1],
{1}4h[2:1]/5h[2:1],
{1}3h[2:1]/6h[2:1],
{1}1b/8b,
{8}1,1,1,,2/8,,3/7,,
{8}8,8,8,,1/7,,2/6,,
{1}1-4[2:1]/8-5[2:1],
{4}3/6,3/6,4b/5b,,
{8}5,5,5,,4/6,,3/7,,
{8}4,4,4,,3/5,,2/6,,
{2}5h[4:1]/6h[4:1],3h[4:1]/4h[4:1],
{4}4h[4:1]/5h[4:1],,3/6,2b/7b,
{8}2,2,2,,1/3,,4/8,,
{8}7,7,7,,6/8,,1/5,,
{1}1-4[2:1]/8-5[2:1],
{4}3/6,3/6,4b/5b,,
{8}3,3,3,,2/4,,1/5,,
{8}6,6,6,,5/7,,4/8,,
{8}2,2,2,,1/3,,4/8,,
{8}7,7,7,,6/8,,1/5,,
{1}5<4[2:3],
{1},
{4}3,2/4,1/5,6/8,
{8}7,7,7,,2,2,2,,
{4}7,7,8,8,
{4}1,1,1/2,3/8,
{4}3,3,4,4,
{4}5,5,5/6,4/7,
{4}7,7,8,8,
{4}1,1,2/8,3/7,
{4}3,3,4,4,
{4}5,5,4/6,3/7,
{4}7,8,1,2,
{4}3,4,5,6,
{4}5/6,4/7,3/4,2/5,
{4}1/2,3/8,7/8,1/6,
{8},,1/8,1-5[8:19]/8-4[8:19],,,,,
{1},
{1},
{1},
{1},
{1},
E
&inote_4=
(176){1},
{1},
{1},
{4}3b/5h[1:1],3,2,2,
{4}1h[1:1],,7,7,
{2}8h[2:1],5h[2:1],
{1}4>6[4:9]*q6[4:9],
{1},
{1},
(185){8}1b-5[8:1]/8b-4[8:1],,,,3/6,3/6,3/6,,
{4}5,5,5,4/6,
{4}3,3,2/4,3/5,
{4}7,7,6/8,1-5[8:1]/7-4[8:1],
{8},,,,1/8,1/8,2/7,,
{4}5/6h[4:1],5,2h[4:1]/4,3,
{4}5/7h[4:1],5,2h[4:1]/4,3,
{4}7h[4:1]/8,8,1/2h[4:1],3,
{8}1-5[8:1]/8-4[8:1],,,,3b/6b,3b/6b,3b/6b,,
{4}7h[4:1]/8,8,1/2h[4:1],3,
{4}5/7h[4:1],5,2h[4:1]/4,3,
{4}5/6h[4:1],5,2h[4:1]/4,3,
{8}5b/7b,,2b/4b,,7/8,7/8,1/6,,
{8}3,,2h[4:1]/4,,1,1,2/8,,
{8}6,,5/7h[4:1],,8,8,1/7,,
{8}2,2,1/3,,6,6,5/7,,
{16}3b/6b,,3b/6b,,3b/6b,,,,4,5,4,5,4,5,4,5,
{1}4h[1:1],
{1}6h[1:1],
{1}5h[1:1],
{8}4,,,,4,4,5,5,
{2}3>8[4:1],7<4[4:1],
{2}2-5[4:1],6-1[4:1],
{2}3<6[4:1],7>2[4:1],
{16}3,,,,2/4,,,,4/5,,,1/7,,,2/8,,
{4}2h[4:1]/8,4,1/7h[4:1],5,
{4}4-1[8:1]/5-8[8:1],,2/7,4/5,
{8}3,4,2/5,,6,5,4/7,,
{8}1-4[8:1]*-6[8:1]/8,,,,3b/7b,3b/7b,3b/7b,,
{4}2h[4:1]/4,8,5/7h[4:1],1,
{4}4-8[8:1]/5-1[8:1],,2/7,4/5,
{8}7,8,1/6,,2,1,3/8,,
{8}1,1,8,8,1b/7b,1b/7b,2b/6b,,
{2}5-1[8:1]/7h[4:1],2h[4:1]/4-8[8:1],
{4}1-5[8:1]/8-4[8:1],,3/6,1/8,
{8}5,6,7/8,,4,3,1/2,,
{8}8v3[8:1]*v5[8:1],,,,2b/6b,2b/6b,2b/6b<3[2:1],,
{4},,,3>6[2:1]/5,
{4},,,4/5,
{8}3b/6b,3b/6b,3b/6b,3b/6b,3b/6b,,1b/8b,,
{2}2b-6[8:1]/8b-4[8:1],3b/7b,
{8}6h[8:3],,,5h[8:3],,,4h[8:3],,
{8},3,,,2/3,,2/3,,
{8}3h[8:3],,,4h[8:3],,,5,,
{1}3h[4:3]/6h[4:3],
{8}3,4,3,6,5,6,3,4,
{8}3,6,5,6,4-1[8:1],,,,
{8}6,5,7,3,4,2,6,5,
{8}7,3,4,2,5-8[8:1],,,,
{8}3,4,2,6,5,7,3,4,
{8}2,6,5,7,1-5[8:1],,,,
{8}4/7h[8:3],,8,8,,1/2,1/2,,
{8}3h[8:3]/8,,4,4,,5/6,5/6,,
{8}3,3,4,4,3/4,3/4,2/5,,
{8}6,6,5,5,5/6,5/6,4/7,,
{8}4/5,4/5,3/6,3/6,2/7,2/7,1>7[4:3]/8,,
{4},,,8<2[4:3],
{4},,,1pp5[4:3]*qq5[4:3],
{1},
{8}2,2,4,4,5,5,7,7,
{8}2-5[8:1],2,7-4[8:1],7,1,1,1-4[8:1]*-6[8:1],,
{4},8-3[8:1]*-5[8:1],,2/6,
{8}3/8,7,1/6,2,3b/4b,3b/4b,2b/5b,,
{8}7,7,5,5,4,4,2,2,
{8}7-4[8:1],7,2-5[8:1],2,8,8,8-3[8:1]*-5[8:1],,
{4},1-4[8:1]*-6[8:1],,3/7,
{8}1/6,2,3/8,7,5b/6b,5b/6b,4b/7b,,
{8}2,2,4,5,7,7,5,4,
{8}2-5[8:1],2,7-4[8:1],7,1,1,2-5[8:1]/8-4[8:1],,
{4},1-5[8:1]/7-4[8:1],,1/8,
{8}2/7,2/7,3/6,3/6,4b/5b,4b/5b,4b>6[2:1]/5b,,
{4}5h[2:1],,,5<3[2:1],
{4}4h[2:1],,,2/5,
{8}3/4,3/4,2/5,,5/6,5/6,4/7,,
{8}1/2,1/2,3/8,,7/8,7/8,1/6,,
{8}3,3,4,2,3/4,3/4,2/5,,
{8}6,6,5,7,5/6,5/6,4/7,,
{8}2,2,7,7,1,1,8,8,
{16}1,8,1,8,1,8,1,8,1,8,1,8,1,8,1,8,
{8}1,,2/7,2b/7b,,4/5,4/5,,
{8}2/8,1,1,2/8-4[8:1],,3,3,,
{8}1/7,8,8,1-5[8:1]/7,,6,6,,
{8}7,7,8,8,1b/7b,2b/6b,3b/5b,,
{8}4b/7b,,1/8,1/8,,2/5,2/5,,
{8}5/7,6,6,5-1[8:1]/7,,8,8,,
{8}2/4,3,3,2/4-8[8:1],,1,1,,
{8}5/7,5/7,6,5,2/4,2/4,2/4,,
{8}5/7,5/7,8,1,2/4,2/4,2/4,,
{8}4/5,4/5,3/6,3/6,2/7,2/7,1/8,1/8,
{8}8,7,6,5,4,3,2,2,
{16}2,3,4,5,6,7,8,1,2,3,4,5,6,7,8,1,
{8},,2b/8b-4[8:31],2b-6[4:15]/8b,,,,,
{1},
{1},
{1},
{1},
{1},
{1},
E
&inote_5=
(176){1},
{1},
{1},
{1}1b-5[4:5]/7b-3[4:5],
{1},
{1}2b-6[4:5]/8b-4[4:5],
{1},
{1}4b-8[4:5]/5b-1[4:5],
{1},
(185){16}2b-5[8:1]/7b-4[8:1],,,,,,,,3,6,3,6,2/7,,,,
{8}8-4[8:1],,2,2>5[8:1],,6,6,,
{8}7-3[8:1],,1,1>4[8:1],,5,5,,
{8}6-2[8:1],,8,8>3[8:1],,4,4,,
{16}2/7,,,,,,,,4,5,4,5,3/6,,,,
{16}8,,1/7,,2/6,,3/5,,4,,7,5,7,,8,,
{16}1,,2/8,,3/7,,4/6,,5,,2,4,2,,1,,
{16}8,,1/7,,2/6,,3/5,,4,,7,5,7,,1/8,,
{16}3,4,3,4,2,5,2,5,1b/6b,,2b/7b,,3b/8b,,,,
{16}4,,3/5,,2/6,,1/7,,8,,2,1,2,,4,,
{16}5,,4/6,,3/7,,2/8,,1,,7,8,7,,5,,
{16}4,,3/5,,2/6,,1/7,,8,,3,6,3,,2/7,,
{16}1b-4[8:1]/8b-5[8:1],,,,1b/8b,,,,7,2,7,,3/6,,4,,
{8}5/7,6,2/4,3,7h[8:1],5h[8:1],4h[8:1],2,
{16}2/8,,3,,1/7,,6,,3,4,3,,6,5,6,,
{16}2,4,2,,7,5,7,,2,5,2,,7,4,7,,
{48}4,,,5,,,3,,,6,,,2,,,7,,,1,,,8,,,2b,,3,,4,,7,,6,,5,,1,,2,,3,,8,,7,,6,,
{2}1h[1:1],3,
{1}3h[1:1],
{2}5h[1:1],7,
{16}7h[4:1],,,,5,,,,4,5,4,5,4,5,4,5,
{16}3,4,3,4,2,5,2,5,1,6,1,6,7/8,,1/6,,
{16}6,5,6,5,7,4,7,4,8,3,8,3,1/2,,3/8,,
{16}4,5,4,5,3,6,3,6,2,7,2,7,1/8,,2/7,,
{16}8,1,7,2,6,3,5,4,3b/6b,,,2b/4b,,,5b/7b,,
{8}8-3[8:1],8,2-5[8:1],2,6-1[8:1],6,4-8[8:1],4,
{8}7-3[8:1],7,2-6[8:1],2,8-4[8:1],8,4b/8b>3[8:1],,
{4}5/8<5[8:1],3/8>3[8:1],5/8<5[8:1],3/8,
{8}1/2,3,7/8,6,1b/8b,4/5,2b/7b,,
{8}1-6[8:1],1,7-4[8:1],7,3-8[8:1],3,5-1[8:1],5,
{8}2-6[8:1],2,7-3[8:1],7,1-5[8:1],1,1b<6[8:1]/5b,,
{4}1>4[8:1]/4,1<6[8:1]/6,1>4[8:1]/4,1/6,
{16}7/8,,6,,1/2,,3,,8,1,8,1,7,2,7,2,
{8}8<5[8:1],8,2>5[8:1],2,6<1[8:1],6,4>1[8:1],4,
{8}7p3[8:1],7,2q6[8:1],2,8-4[8:1],8,4b/8b>3[8:1],,
{4}5/8<5[8:1],3/8>3[8:1],5/8<5[8:1],3/8,
{16}1/2,,4,,7/8,,5,,1,8,1,8,2/7,,,,
{16}4/5,,3,4,2,5,1,6,7/8,,6,,1/2,,3,,
{16}4/5,,6,5,7,4,8,3,1/2,,3,,7/8,,6,,
{16}4/5,,5,4,6,3,7,2,1/8,,3/4,,1/8,,5/6,,
{32}1,,2,,3,,4,,8,,7,,6,,5,,1,2,3,4,5,6,7,8,1b/5b,,,,,,,,
{8}5h[8:3],,,4h[8:3],,,5,,
{8},6h[8:3],,,5,,4/5,,
{8}3h[8:3],,,4h[8:3],,,5,,
{16}2/7,,,,,,,,,,,,1,8,1,8,
{8}1<6[8:1],2,3,4>1[8:1],5,6,7<4[8:1],8,
{16}1,,2>5[8:1],,1,,8,,7,4,6,3,5,2,4,,
{8}8>3[8:1],7,6,5<8[8:1],4,3,2>5[8:1],1,
{16}8,,7<4[8:1],,8,,1,,2,5,3,6,4,7,5,,
{8}1bp5[8:1],2,3,4p8[8:1],5,6,7p3[8:1],8,
{16}1,,2q6[32:3],,1,,8,,7,8,6,1,5,2,4,,
{8}2h[8:3],5,5,7h[8:3],4,4,2h[4:1],5,
{8}6h[8:3],4,4,3h[8:3],5,5,6h[4:1],4,
{8}2>5[8:1],5,6,7,8,1/7,2/6,,
{8}7<4[8:1],4,3,2,1,2/8,3/7,,
{8}5/6,2,3/4,7,4-1[8:1]/5-8[8:1],3/6,4/5,,
{16}2,1,2,1,3,8,3,8,4,7,4,7,5,6,5,6,
{16}8,7,8,7,1,6,1,6,2,5,2,5,3,4,3,4,
{16}1,8,2,7,3,6,4,5,4,,,1b/8b,,2b/7b,2b/7b,,
{8}8-3[8:1],8,2-5[8:1]/8,2,2/6-1[8:1],6,4-8[8:1]/6,4,
{8}4/7-3[8:1],7,2-6[8:1]/7,2,2/8-4[8:1],8,3b/8b,,
{24}1/6h[8:1],2,3,4,,,1/4h[8:1],8,7,6,,,1/6h[8:1],2,3,4,,,1/4h[8:1],8,7,6,,,
{16}2/4,,7,8,6,1,5,2,3b/4b,,7/8,,2b/6b,,,,
{8}1-6[8:1],1,1/7-4[8:1],7,3-8[8:1]/7,3,3/5-1[8:1],5,
{8}2-6[8:1]/5,2,2/7-3[8:1],7,1-5[8:1]/7,1,1b/6b,,
{24}3h[8:1]/8,7,6,5,,,5h[8:1]/8,1,2,3,,,3h[8:1]/8,7,6,5,,,5h[8:1]/8,1,2,3,,,
{24}5/7,,,8,,,2/4,,,1,,,8b,7,6,1,2,3,7,6,5,2,3,4,
{8}8-4[8:1],8,7-3[8:1],7,6-2[8:1],6,5-1[8:1],5,
{8}4-8[8:1],4,3-7[8:1],3,2-6[8:1],2,1b,,
{24}2/7h[8:1],3,4,5,,,2h[8:1]/7,6,5,4,,,1/6h[8:1],2,3,4,,,3h[8:1]/8,7,6,5,,,
{16}1b/2b,,4/5,,7b/8b,,4/5,,1,8,1,8,2/7,,,,
{16}4b/5b,,3,5,3,6,3,7,4/8,,6,,1/5,,3,,
{16}4b/5b,,6,4,6,3,6,2,1/5,,3,,4/8,,6,,
{16}4b/5b,,2,6,3,7,4,8,5,1,4,8,3,7,2,6,
{32}1,,2,,3,,4,,8,,7,,6,,5,,1b,2,3,4,5,6,7,8,1,2,3,4,5,6,7,8,
{4}1b-4[8:1]*>4[8:1]/5b,1,1b-6[8:1]*<6[8:1],1,
{4}1b-5[8:1],1b<6[8:1]*>4[8:1],1bw5[8:1],1b,
{16}8,1,7,2,6,3,5,4,5,4,6,3,7,2,8,1,
{32}8,,7,,6,,5,,1,,2,,3,,4,,8b,7,6,5,4,3,2,1,8,7,6,5,4,3,2,1,
{8}4b/8b,,4/5,2b/7b,,8,1/7,2/6,
{16}3/5,,6,5,7-5[16:1],,7,,8-4[16:1],,8,,5-1[16:1],,5,,
{16}3,,3,4,2-4[16:1],,2,,1-5[16:1],,1,,4-8[16:1],,4,,
{16}6,,7,8,6,1,5,2,3/4,,7/8,,2/6,,,,
{16}2-5[8:1],1,3,8,2,,7-4[8:1],8,6,1,7,,1,,2,,
{16}6,4,6,4,7,3,7,3,8-4[16:1],,2-6[16:1],,8,,2,,
{16}7,8,7,1,7,2,7,3,4/8,,3/7,,2/6,,1/5,,
{16}2,1,2,8,2,7,2,6,1/5,,2/6,,3/7,,4/8,,
{16}4,8,3,7,2,6,1,5,1b-5[16:1],,7b-3[16:1],,1b,,7b,,
{16}1,5,2,6,3,7,4,8,4b-8[16:1],,6b-2[16:1],,4b,,6b,,
{16}1,8,2,7,3,6,4,5,4,5,3,6,2,7,1,8,
{96}1b,,,,2,,,,3,,,,8,,,,7,,,,6,,,,2,,,,3,,,,4,,,,7,,,,6,,,,5,,,,1b,,,2,,,3,,,4,,,5,,,6,,,7,,,8,,,1,,,2,,,3,,,4,,,5,,,6,,,7,,,8,,,
{8}1/5,,1b-5[8:31]/2b,7b-3[4:15]/8b,,,,,
{1},
{1},
{1},
{1},
{1},
{1},
E
