&title=World Vanquisher
&wholebpm=170
&artist=void (Mournfinale)
&des=小鳥遊さん
&shortid=736
&genre=オンゲキCHUNITHM
&cabinet=SD
&version=maimai MiLK PLUS
&chartconverter=Neskol
&lv_2=6
&des_2=-
&lv_3=9+
&des_3=-
&lv_4=12+
&des_4=Jack
&lv_5=14
&des_5=小鳥遊さん
&des_6=
&inote_2=
(170){1},
{1},
{1}3,
{1}3,
{1}4,
{1}4,
{1}5,
{1}5,
{1}6,
{1}6,
{2}7,7,
{1}7,
{2}8,8,
{1}8,
{4}1,1,1,,
{4}8,8,8,,
{4}7,7,7,,
{4}6,6,5/6,,
{4}4,4,4,,
{4}3,3,3,,
{4}2,2,2,,
{4}1,1,1/8,,
{4}2,2,2,,
{4}3,3,3,,
{4}4,4,4,,
{4}5,5,4/5,,
{4}6,6,6,,
{4}7,7,7,,
{4}8,8,8,,
{4}1,1,1/8,,
{1}7h[2:1],
{1}6h[2:1],
{1}5h[2:1],
{1}4h[2:1],
{1}3h[2:1],
{1}2h[2:1],
{1}1h[2:1],
{1}8b,
{1}8-3[4:3],
{1},
{1}2-5[4:3],
{1},
{1}4-7[4:3],
{1},
{1}6-1[4:3],
{1},
{2}1,2,
{2}3,4,
{2}5,6,
{2}7,8,
{2}8,7,
{2}6,5,
{2}4,3,
{2}2,1,
{4}8,8,7,7,
{4}6,6,5,,
{4}4,4,3,3,
{4}2,2,1,,
{4}1,1,2,2,
{4}3,3,4,,
{4}5,5,6,6,
{4}7,7,8,,
{1}1h[2:1]/2h[2:1],
{2}1/2,1/2,
{1}7h[2:1]/8h[2:1],
{2}7/8,7/8,
{1}5h[2:1]/6h[2:1],
{2}5/6,5/6,
{1}3h[2:1]/4h[2:1],
{2}3/4,3/4,
{1}4-1[4:3]/5-8[4:3],
{1},
{4}1b,1,2,2,
{4}3/4,3/4,3/4,,
{4}5,5,6,6,
{4}7/8,7/8,7/8,,
{4}8,8,7,7,
{4}5/6,5/6,5/6,,
{4}4,4,3,3,
{4}1/2,1/2,1/2,,
{4}1b,1,2,2,
{4}3,3,4,4,
{4}5,5,6,6,
{4}7,7,1/8,,
{4}8,8,7,7,
{4}6,6,5,5,
{4}4,4,3,3,
{4}2,2,1/8,,
{8}1,,1,,2,2,2,,
{4}3,3,3/4,,
{8}5,,5,,6,6,6,,
{4}7,7,7/8,,
{8}8,,8,,7,7,7,,
{4}6,6,5/6,,
{8}4,,4,,3,3,3,,
{4}2,2,1/2,,
{4}3/4,3/4,5/6,5/6,
{4}4/5,3/6,2/7,1/8,
{4}1/8,2/7,3/6,4/5,
{8}4/5,,4/5,,4/5,4/5,4/5,,
{1}3h[4:3]/6h[4:3],
{1}3b/6b,
{1},
{1},
{1},
E
&inote_3=
(170){1},
{1},
{1}6h[1:1],
{1}5h[1:1],
{1}4h[1:1],
{2}3,3/4,
{1}3h[1:1],
{1}4h[1:1],
{1}5h[1:1],
{2}6,4/7,
{8}3,3,,2/4,,1/5,,6/8,
{8},7,,1/8,1/8,,2/7,,
{8}6,6,,5/7,,4/8,,1/3,
{8},2,,1/8,1b/8b,,,,
{8}6,,5/7,,8,8,8,,
{8}2,2,1,,2/8,,,,
{8}3,,2/4,,1,1,1,,
{8}7,7,8,,1/7,,,,
{8}7,,6/8,,5,5,5,,
{8}3,3,3/4,,4/5,,3/6,,
{1}1b-4[8:3]/8b-5[8:3],
{8}4/5,,3/6,3h[8:3]/6h[8:3],,,,,
{8}4,,3/5,,4,4,4/5,,
{4}6h[4:1],7h[4:1],8,1/6,
{8}5,,4/6,,5,5,4/5,,
{4}3h[4:1],2h[4:1],1,,
{1}7<4[8:3]/8,
{1}1/2>5[8:3],
{8}6,6,5,,3,3,4<2[8:5],,
{1},
{4}3h[4:1],4,6h[4:1],5,
{4}2h[4:1],3,7h[4:1],6,
{4}2h[4:1],1,7h[4:1],8,
{4}1/2,3/8,4/7,,
{4}6h[4:1],5h[4:1],6,7/8,
{4}2h[4:1],1h[4:1],2,3/4,
{4}6,5b/6b,3,3b/4b,
{4}6,5b/7b,3,2b/4b,
{2}6h[2:1],8h[2:1],
{2}7h[2:1],5h[2:1],
{1}4b-7[8:3],
{1}8-5[8:3],
{2}3h[2:1],1h[2:1],
{2}2h[2:1],4h[2:1],
{1}5b-2[8:3],
{1}1-5[8:3],
{2}7h[2:1],5h[2:1],
{2}3h[2:1],1h[2:1],
{1}7b>2[8:3],
{1}4-1[8:3],
{2}2h[2:1],4h[2:1],
{2}5h[2:1],7h[2:1],
{2}6h[2:1],8h[2:1],
{2}2h[2:1],1,
{8}7h[8:3],,8,8,,5/6,,3/4,
{8},1/2,,8,8,,1/7,,
{8}2h[8:3],,1,1,,3/4,,5/6,
{8},7/8,,1,1,,2/8,,
{8}3h[8:3],,4,4,,5/6,,2/4,
{8},5/7,,8,8,,1/7,,
{8}6h[8:3],,5,5,,3/4,,4/5,
{4}4/5,3/6,2b/7b,,
{2}6h[2:1],8h[1:1],
{1}7h[2:1],
{2}3h[2:1],1h[1:1],
{1}2h[2:1],
{2}3h[2:1],4h[2:1],
{2}5h[2:1],6h[2:1],
{2}7h[2:1],8h[2:1],
{2}1h[2:1],8,
{1}2V41[1:1]/7V58[1:1],
{1},
{8}3b,,1/2,,7,7,8,,
{8}6,6,5,,4/7,,,,
{8}6,,7/8,,2,2,1,,
{8}3,3,4,,2/5,,,,
{8}5,,4/6,,7,7,8,,
{8}2,2,1,,1/8,,2/7,,
{1}3b-8[8:3]/6b-1[8:3],
{8}1/8,,2/7,2h[8:3]/7h[8:3],,,,,
{8}3/4,,1/2,,8,7,6,,
{4}2/4,1/3,2/7,,
{8}5/6,,7/8,,1,2,3,,
{4}5/7,6/8,2/7,,
{1}3>8[8:3]/4,
{1}5/6<1[8:3],
{1}4qq1[4:5]/5pp8[4:5],
{1},
{8}6,5,4/7,,3,4,2/5,,
{8}7,8,1/6,,2/7,,,,
{8}3,4,2/5,,6,5,4/7,,
{8}2,1,3/8,,2b/7b,,,,
{8}6,6,5,5,4/5,,3/6,,
{8}2,2,1,1,1/8,,2/7,,
{8}3/4,3/4,3/4,,5/6,5/6,5/6,,
{8}2/4,2/4,2/4,,1/7,1/7,1/7,,
{4}2h[4:1],3h[4:1],4h[4:1],5h[4:1],
{4}6h[4:1],7h[4:1],8h[4:1],1,
{8},,4/5,,1/2,1/2,3/8,,
{8}7/8,7/8,1/6,,1/8,1/8,2/7,2/7,
{1}3h[4:3]/6h[4:3],
{1}4b/5b,
{1},
{1},
{1},
E
&inote_4=
(170){1},
{1},
{1}3h[1:1],
{1}4h[1:1],
{1}5h[1:1],
{4}6h[4:3],,,5>6[4:3],
{4},,,4<3[4:3],
{4},,,5,
{2}5-1[8:1],4-8[8:1],
{1}2qq5[2:1]/7pp4[2:1],
{8}1/8,2/7-3[8:1],,8-4[8:1],,1-5[8:1],,2-6[8:1],
{8},3-7[8:1],,1,1w5[8:1],,,,
{8}3/7,3/7,4/8,4/8,3/7,3/7,2/6,2/6,
{16}1,7,1,7,1,7,1,7,8b,,,,,,,,
{16}2/7,,3,4,3,,6,5,6,,2,4,3,,7,5,
{16}6h[16:3],,,1,,,3/4,,2<7[8:1]/5,,,,,,,,
{16}2/7,,6,5,6,,3,4,3,,7,5,6,,2,4,
{16}3h[16:3],,,8,,,5/6,,4/7>2[8:1],,,,,,,,
{16}2/7,,3,4,3,,6,5,6,,2,4,3,,7,5,
{16}6,,1,4,3,,8,5,6,,1,4,3,,8,5,
{4}6-2[8:1],1,3-7[8:1],8,
{8}1h[4:1]/2h[4:1],,,7<4[8:1]/8>3[8:1],,,,,
{16}1/6,,5,4,5,,3,4,3,,6,5,6,,2,3,
{16}2h[16:3],,,1,,,7/8,,1/6<1[8:1],,,,,,,,
{16}3/8,,4,5,4,,6,5,6,,3,4,3,,7,6,
{16}7h[16:3],,,8,,,1/2,,3>8[8:1]/8,,,,,,,,
{8}1/6h[8:3],,5,5,,8,7,6,
{8}3h[8:3]/5,,4,4,,1,2,3,
{16}4/5,,6,5,6,,3,4,3,,7,5,6,,2,4,
{16}3,,8,5,6,,1,8,1,8,1,8,1,8,1,8,
{8}1h[8:1],,1h[8:1],,1h[8:1],,1/5,2/6,
{8}7h[8:1],,7h[8:1],,7h[8:1],,5/7,4/6,
{8}3h[8:1],,3h[8:1],,3h[8:1],,3/7,4/6,
{8}5,5,5,5,4,3,2,1,
{8}8h[8:1],,8h[8:1],,8h[8:1],,4/8,3/7,
{8}2h[8:1],,2h[8:1],,2h[8:1],,2/4,3/5,
{8}4v1[8:1]/6v1[8:1],4/6,,,2v5[8:1]/8v5[8:1],2/8,,,
{8}4>1[8:1]/6<1[8:1],4/6,,,1,1,2/8,,
{2}1pp4[1:2],5,
{2}6,7,
{2}8h[1:1],6,
{2}1h[1:1],3,
{2}5pp8[1:2],1,
{2}2,3,
{2}4h[1:1],2,
{2}5h[1:1],7,
{8}1h[8:3],,,3h[8:3],,,5h[8:3],,
{8},7h[2:1],,,6,6,5/8,,
{8}8h[8:3],,,6h[8:3],,,4h[8:3],,
{8},2h[2:1],,,3,3,1/4,,
{8}1h[8:3],,,7h[8:3],,,3h[8:3],,
{8},5h[2:1],,,4,4,2/7,,
{8}4h[4:1]/5h[4:1],,,3h[4:1]/6h[4:1],,,2h[4:1]/7h[4:1],,
{8},1h[4:1]/8h[4:1],,,3/6,,,,
{8}1b/8b,2-6[8:1]/7,,1-5[8:1],,8-4[8:1],,7-3[8:1],
{8},6-2[8:1],,8,8w4[8:1],,,,
{8}1/8,2/7-3[8:1],,8-4[8:1],,1-5[8:1],,2-6[8:1],
{8},3-7[8:1],,1,1w5[8:1],,,,
{8}1h[4:1]/8h[4:1],,,1-5[8:1]/8,,8-6[8:1],,2-4[8:1],
{8},1-5[8:1],,4,4w8[8:1],,,,
{8}2/6,2-7[8:1]/6,,6-3[8:1],,2-6[8:1],,8z4[4:1],
{2},2b/7b,
{16}5h[2:1],,,,,,,,4,,,3,,,2,,
{16}2,,,1,,,8,,8<5[4:1],,,,,,,,
{16}4h[2:1],,,,,,,,5,,,6,,,7,,
{16}7,,,8,,,1,,1>4[4:1],,,,,,,,
{16}5h[2:1],,,,,,,,4,,,4,,,4,,
{16}6,,,6,,,6,,2,,,2,,,2,,
{16}8h[2:1],,,,,,1,,1,,,2/7,,,3/6,,
{8}3pp8[4:3]/6,,,7,,,,,
{8}6qq1[4:3],,,2,,,,,
{1},
{16}4b/5b,,2,1,2,,7,8,7,,2,1,2,,7,8,
{16}7,,3,4,,4,2,,2>5[8:1]/8<5[8:1],,,,,,,,
{16}1/5,,7,8,7,,2,1,2,,7,8,7,,2,1,
{16}2,,6,5,,5,7,,1>4[8:1]/7<4[8:1],,,,,,,,
{16}4/8,,2,1,2,,7,8,7,,2,1,2,,7,8,
{16}7,,3,4,,4,2,,1/8,,6,5,,5,7,,
{16}1h[4:1]/8h[4:1],,,,,,1,8,2/7,,,1/2,,,4/5,,
{8}7h[4:1]/8h[4:1],,,1b<6[8:1]/2b>5[8:1],,,,,
{16}3/8,,4,5,4,,6,5,6,,3,4,3,,7,6,
{16}7,,2,1,,1,3,,3>8[8:1]/8<5[8:1],,,,,,,,
{16}1/6,,5,4,5,,3,4,3,,6,5,6,,2,3,
{16}2,,7,8,,8,6,,1>4[8:1]/6<1[8:1],,,,,,,,
{8}3h[8:3]/8,,4,4,,1,2,3,
{8}4/6h[8:3],,5,5,,8,7,6,
{8}4/5,4/5,,1/3,,6/8,,4/5,
{16}3,6,3,6,2,7,2,7,1,8,1,8,1b,,,,
{8}7b-4[8:1],1,1,3b-8[8:1],5,5,7b,,
{8}2b-5[8:1],8,8,6b-1[8:1],4,4,2b,,
{8}7b<4[8:1],1,2,3b>8[8:1],5,6,7b,,
{8}2b>5[8:1],8,7,6b<1[8:1],4,3,2b,,
{16}6b,,5/7h[16:3],,,8h[16:3],,,1h[16:3],,,2h[16:3],,,4,,
{16}3b,5,3,5,2,6,2,6,1,7,1,7,8b,,,,
{16}3b,,2h[16:3]/4,,,1h[16:3],,,8h[16:3],,,7h[16:3],,,5,,
{16}4b,6,4,6,3,7,3,7,2,8,2,8,1b,,,,
{12}7,7,7,6/8,,,2,2,2,1/3,,,
{2}2-5[8:1]/7-4[8:1],2V48[4:1]/7V51[4:1],
{12},,,2b/7b,,,1/2,1/2,1/2,1/2,,,
{48}7/8,,,,7/8,,,,7/8,,,,7/8,,,,,,,,,,,,4,,,5,,,3,,,6,,,2,,,7,,,1,,,8,,,
{1}1b>8[4:3],
{1}1b,
{1},
{1},
{1},
E
&inote_5=
(170){1},
{16},,,,,,,,,,,,6,4,5,3,
{16}6,,,,,,3,4,3h[16:3],,,4h[16:3],,,5,,
{16}6h[16:3],,,5h[16:3],,,4,,3,,,,3,5,4,6,
{16}3,,,,,,6,5,6h[16:3],,,5h[16:3],,,4,,
{16}3h[16:3],,,4h[16:3],,,5,,6,,,,6,4,5,3,
{16}6,,,,,,3,4,3h[16:3],,,4h[16:3],,,5,,
{16}7h[16:3],,,6h[16:3],,,5,,2h[16:3],,,3h[16:3],,,4,,
{16}3h[4:1]/6h[4:1],,,,,,5,4,5h[16:3],,,4h[16:3],,,3,,
{8}3,4-8[8:3],5,6,,,,,
{8}1/8,2-5[8:1]/7,,2/6-1[8:1],,3-7[8:1]/6,,3/8-4[8:1],
{24},,,1-5[8:1]/8,,,,,,1/5,,,8,7,6,1,2,3,7,6,5,2,3,4,
{8}8,1/7-4[8:1],,3-8[8:1]/7,,3/6-2[8:1],,1/6,
{32}3,4,5,6,7,8,1,2,3,4,5,6,7,8,1,2,3b/7b,,,,,,,,,,,,,,,,
{16}2/7,,6,5,7,,3,4,2,,7,8,6,,2,1,
{16}3,,6,5,8<5[8:1]*p4[8:1],1,8,,,,,,3,4,1,,
{16}2/7,,3,4,2,,6,5,7,,2,1,3,,7,8,
{16}6,,3,4,1>4[8:1]*q5[8:1],8,1,,,,,,6,5,8,,
{16}2/7,,6,5,7,,3,4,2,,7,8,6,,2,1,
{16}3-1[16:1],,,1-5[8:1],,,5,,6-8[16:1],,,8-4[8:1],,,4,,
{16}1b,,,,,,2/6,3/7,4/8,,,1/3,,,6/8,,
{16}3,,4-8[8:1],,5,,4/6,,,,,,3,4,2,,
{16}1/7h[16:3],,,5,5/6,,4/7,,2h[16:3]/8,,,4,3/4,,2/5,,
{16}1/7h[16:3],,,5,5/6,,4/7,,3>8[8:1]/8<5[8:1],,,,,,,,
{16}2h[16:3]/8,,,4,3/4,,2/5,,1/7h[16:3],,,5,5/6,,4/7,,
{16}2h[16:3]/8,,,4,3/4,,2/5,,1>4[8:1]/6<1[8:1],,,,,,,,
{16}3h[4:1]/5-1[4:1],,,,,,7h[8:3],,,,,,8,1,2,3,
{16}4-8[4:1]/6h[4:1],,,,,,2h[8:3],,,,,,1,8,7,6,
{16}4/5,,3,4,2,,6,5,7,,4,5,3,6,2,7,
{16}1,1,8,8,7,7,6,6,5,5,4,4,3,3,2,2,
{4}1b-5[8:1],1/8-4[8:1],2-5[8:1]/8,1/2,
{4}1/8-4[8:1],1-5[8:1]/8,1/7-4[8:1],7/8,
{4}2-5[8:1]/8,2/6-1[8:1],3-8[8:1]/6,3/7,
{16}1/2h[8:1],,4,,7h[8:1]/8,,5,,2,5,3,6,4,7,5,,
{8}7-3[8:1]/8,6,7/8-4[8:1],1,7-3[8:1]/8,6,7/8,,
{8}1/2-6[8:1],3,1-5[8:1]/2,8,1/2-6[8:1],3,1/2,,
{16}5h[4:1]/6,,,,8,7,6,5,3/4h[4:1],,,,1,2,3,4,
{48}5/6,,,,6,,,,6,,,,3/4,,,,3,,,,3,,,,8,,,1,,,7,,,2,,,6,,,3,,,5,,,4,,,
{2}3b/6h[2:1],8h[2:1],
{2}2h[2:1],4h[4:9],
{1}3b<7[2:1],
{1}7<3[2:1],
{2}1b/8h[2:1],6h[2:1],
{2}4h[2:1],2h[4:9],
{1}3b>7[2:1],
{1}7>3[2:1],
{8}1b>4[8:1]/8,,6,7p3[8:1],,3,2p6[8:1],,
{8}6,5<8[8:1],,1,2,,4/6,,
{8}8<5[8:1],,3,2q6[8:1],,6,7q3[8:1],,
{8}3,4>1[8:1],,8,7,,3/5,,
{8}2>5[8:1],1,8,7>2[8:1],6,5,4<7[8:1],3,
{8}2,1>4[8:1],8,7,6,,2/4,,
{8}7<4[8:1],8,1,2<7[8:1],3,4,5>2[8:1],6,
{8}7,8<5[8:1],1,2,3b,1b/6b,,,
{16}3V51[8:1]/5,,3/5h[4:1],,,,,,3/7,,2-6[8:1],1,2,,6,,
{16}7-3[8:1],8,7,,3,,1,8,1-5[8:1],,5,,1/8,,7,,
{16}4/6V48[8:1],,4h[4:1]/6,,,,,,2/6,,7-3[8:1],8,7,,3,,
{16}2-6[8:1],1,2,,6,,8,1,8-4[8:1],,4,,1/8,,,,
{16}1/3V15[8:1],,1h[4:1]/3,,,,,,2/6,,3-7[8:1],4,3,,8,,
{16}6-2[8:1],5,6,,2,,4,5,4-8[8:1],,8,,4/5,,7,,
{16}6V84[8:1]/8,,6/8h[4:1],,,,,,3/6,,5-1[8:1],4,5,,1,,
{24}2,3,4,7,6,5,8w4[8:1],,,2/6,,,8b,,,,,,,,,,,,
{1}3p6[2:1]/7h[4:3],
{1}2h[4:3]/6q3[2:1],
{1}4v5[2:1]/6h[4:3],
{1}3h[4:3]/5v4[2:1],
{8}5,4<7[4:1],3,2,,,,,
{8}4,5>2[4:1],6,7,,,,,
{8}5,4<8[4:1],3,2,,,,,
{8}4,5>1[4:1],6,7,,,,,
{8}7,5,4,2/7,,,3V58[2:1]/6V41[2:1],,
{16},,,,,,,,,,,,1,8,2,7,
{16}1>4[8:1]/8,,5,5,1-6[8:1],,7,7,1-4[8:1],,5,5,1<6[8:1],,8,8,
{16}1-5[8:1],,5,5,1,,8,,2/6,,,,8,1,7,2,
{16}1/8<5[8:1],,4,4,8-3[8:1],,2,2,8-5[8:1],,4,4,8>3[8:1],,1,1,
{16}8-4[8:1],,4,4,8,,1,,3/7,,,,1,8,2,7,
{16}1>4[8:1]/8,,5,5,1<6[8:1],,7,7,1-4[8:1],,5,5,1-6[8:1],,8,8,
{16}1>4[8:1],,5,5,1<6[8:1],,7,7,1-5[8:1],,5,5,1,,8,,
{16}2b/6b,,,,,,4/8,3/7,2/6,,,5/7,,,2/4,,
{16}5,,4-8[8:1],,3,,2h[16:9]/4,,,,,,3,4,5,6,
{16}2,1,4,5,8,7,1,6,8,7,4,5,2,1,3,8,
{16}2,1,5,6,8,7,3,4,2h[4:1]/5,,,,1,2,8,1,
{16}7,8,5,4,1,2,8,3,1,2,5,4,7,8,6,1,
{16}7,8,4,3,1,2,6,5,4/7h[4:1],,,,8,1,2,3,
{16}4-8[4:1]/6h[4:1],,,,,,2h[8:3],,,,,,1,8,7,6,
{16}3h[4:1]/5-1[4:1],,,,,,7h[8:3],,,,,,8,1,2,3,
{16}4/5,,7,8,6,,2,1,3,,8,1,7,2,6,3,
{32}5,6,7,8,1,2,3,4,5,6,7,8,1,2,3,4,5,6,7,8,1,2,3,4,1b/5b,,,,,,,,
{16}2/4,,1,8,1h[8:1],,7,7,5,6,4,5,3,4,2,,
{16}5/7,,8,1,8h[8:1],,2,2,4,3,5,4,6,5,7,,
{16}1/3,,4,5,4h[8:1],,6,6,8,7,1,8,2,1,3,,
{16}6/8,,5,4,5h[8:1],,3,3,1,2,8,1,7,8,6,,
{16}1,2,3,1,8,7,1,2,3,1,8,7,1,2,3,4,
{16}8,8,6,6,4,4,2,2,8p3[8:1]*q5[8:1],,,,8b,,,,
{16}8,7,6,8,1,2,8,7,6,8,1,2,8,7,6,5,
{16}2/4,3,4,5/7,6,5,1/4,2,3,4/8,7,6,4/5,3,2,1,
{12}7/8w4[8:1],7/8,7/8,8b,,,1w5[8:1]/2,1/2,1/2,1b,,,
{24}3/7,,3/7,,3/7,,1/5,,1/5,,1/5,,2,3,4,8,7,6,1,2,3,7,6,5,
{12},,,1/8,,,2-5[8:1]/6-1[8:1],2/6,2/6,2b/6b,,,
{96}3-8[8:1]/7-4[8:1],,,,,,,,3/7,,,,,,,,3/7,,,,,,,,3b/7b,,,,,,,,,,,,,,,,,,,,,,,,1,,,2,,,3,,,4,,,5,,,6,,,7,,,8,,,1,,,2,,,3,,,4,,,5,,,6,,,7,,,8,,,
{32}1h[4:3]/5,,,,,,,,,,,,,,,,,,,,,,,,8w4[8:1],7,6,5,4,3,2,1,
{1}8b,
{1},
{1},
{1},
E
