&title=ULTRA B+K
&wholebpm=175
&artist=nora2r
&des=ぴちネコ
&shortid=740
&genre=ゲームバラエティ
&cabinet=SD
&version=maimai MiLK PLUS
&chartconverter=Neskol
&lv_2=6
&des_2=-
&lv_3=8+
&des_3=-
&lv_4=11+
&des_4=LabiLabi
&lv_5=13+
&des_5=ぴちネコ
&des_6=
&inote_2=
(175){1},
{1},
{1},
{1},
{1},
{2}4,4,
{2}3,3,
{2}2,2,
{1}1b,
{4}1,1,,8,
{4}8,,1/8,1/8,
{4}8,8,,1,
{4}1,,1/8,1/8,
{2}2,3,
{2}4,5,
{4}6,6,7,7,
{1}1b/8b,
{1}1h[2:1],
{4}1,1,1,,
{1}2h[2:1],
{4}2,2,1/2,,
{1}3h[2:1],
{4}3,3,3,,
{1}4h[2:1],
{4}4,4,4b/5b,,
{4}5,5,5,,
{4}6,6,6,,
{4}7,7,7,,
{4}8,8,1/8,,
{4}1,1,1/8,,
{4}8,8,1/8,,
{4}1,1,2,2,
{4}3,3,4b/5b,,
{1}5-8[4:7],
{1},
{1},
{1},
{1}4-1[4:7],
{1},
{1},
{1},
{2}8,8,
{2}8,8,
{2}7,7,
{2}7,7,
{2}6,6,
{2}6,6,
{2}5,5,
{2}5,5,
{4}4,4,4,,
{4}4,4,4/5,,
{4}3,3,3,,
{4}3,3,3/4,,
{4}2,2,2,,
{4}2,2,1/2,,
{4}1,1,8,8,
{1}1b/8b,
{1}8h[2:1],
{4}8,8,7,7,
{1}7h[2:1],
{4}7,7,7/8,,
{1}6h[2:1],
{4}6,6,5,5,
{1}5h[2:1],
{4}5,5,4,4,
{4}5,5,5,,
{4}4,4,4,4,
{4}3,3,3,,
{4}2,2,1/8,,
{4}1,1,8,8,
{4}7,7,6,6,
{4}5,5,4,4,
{2}4/5,4b/5b,
{4}5,5,4/5,4/5,
{4}6,6,5/6,5/6,
{4}7,7,8,8,
{4}1,8,1,,
{4}1,1,1/8,1/8,
{4}2,2,1/2,1/2,
{4}3,3,4,4,
{2}4/5,4/5,
{4}4,4,3,3,
{4}2,2,1/8,,
{4}8,8,7,7,
{4}6,6,4/5,,
{4}3/4,3/4,2/5,,
{4}5/6,5/6,4/7,,
{4}4,5,4,5,
{1}4/5,
{1}4b/5b,
{1},
{1},
{1},
E
&inote_3=
(175){1},
{1}1pp4[4:13]/8qq5[4:13],
{1},
{1},
{1},
{4}5,5,4,4,
{4}5,4,4,,
{4}5,5,4,4,
{1}5-8[2:1],
{4}1,1,2,8,
{4}8,7,3/6,3/6,
{4}4,4,3,5,
{4}5,6,2/7,2/7,
{4}1,2,3,4,
{4}5,6,7,8,
{4}1/8,2/7,3/6,4>1[2:1]/5<8[2:1],
{4},,,1b/8b,
{4}6h[2:1],5,5,,
{4}3h[2:1],4,4,,
{4}6,5,3,4,
{4}4/5,4/5,3b/6b,,
{4}7h[2:1],8,8,,
{4}2h[2:1],1,1,,
{4}7,8,2,1,
{4}1h[4:1]/8h[4:1],,2b/7b,2b/7b,
{4}6,5,5/6,5/6,
{4}3,4,3/4,3/4,
{4}6,5,3,4,
{4}4/5,4/5,3b/6b,,
{4}7h[4:1]/8h[4:1],,7b/8b,7b/8b,
{4}1h[4:1]/2h[4:1],,1b/2b,1b/2b,
{4}1/8,2/7,3/6,4/5,
{2}4h[4:1]/5h[4:1],3b/6b,
{1}2h[1:1],
{1}1h[1:1],
{1}8h[1:1],
{1}7,
{1}6h[1:1],
{1}5h[1:1],
{1}4h[1:1],
{1}3,
{2}3h[2:3],4,
{2}5,4,
{2}6h[2:3],5,
{2}4,5,
{2}2h[2:3],1,
{2}8,1,
{2}7h[2:3],8,
{2}1,8,
{4}8,8,1,1,
{4}8,1,1,,
{4}4,4,5,5,
{4}4,4,5,5,
{4}4,3,2,1,
{4}5,6,7,8,
{4}1/8,1/8,2/7,2/7,
{4}3h[2:1]/6h[2:1],,,3b/6b,
{4}7h[2:1],6,6,,
{4}2h[2:1],3,3,,
{4}6,5,3,4,
{4}4/5,3/6,2b/7b,,
{4}7h[2:1],6,6,,
{4}2h[2:1],3,3,,
{4}7,8,2,1,
{4}1/8,2/7,3/6,4/5,
{4}6h[4:1],5,4/7,,
{4}3h[4:1],4,2/5,,
{4}6,5,3,4,
{4}4/5,3/6,2b/7b,,
{4}2h[4:1],1,3/8,,
{4}7h[4:1],8,1/6,,
{4}2,1,7,8,
{4}1h[2:1]/8h[2:1],,,2b/7b,
{4}1/2,1/2,3/8,3/8,
{4}7/8,7/8,1/6,1/6,
{4}1/2,1/2,3/8,4/7,
{8}6,6,6,,4h[4:1]/5h[4:1],,,,
{4}5/6,5/6,4/7,4/7,
{4}3/4,3/4,2/5,2/5,
{4}5/6,5/6,4/7,3/8,
{8}2,2,2,,1h[4:1]/8h[4:1],,,,
{4}7/8,1/6,1/2,3/8,
{8}8,8,8,,2h[4:1]/7h[4:1],,,,
{4}5/6,4/7,3/4,2/5,
{8}4,4,4,,3h[4:1]/6h[4:1],,,,
{8}8,8,8,,1b,,8b,,
{8}1,1,1,,8b,,1b,,
{4}1/8,2/7,3/6,4/5,
{1}4-8[2:1]/5-1[2:1],
{1}2b/7b,
{1},
{1},
{1},
E
&inote_4=
(175){1},
{1}1b-4[4:11]/8b-5[4:11],
{1},
{1},
{1},
{4}4,4,6,6,
{4}4,6,6,,
{4}4,4,6,6,
{2}5h[2:1],2b,
{8}4/6,4/6,4/6,4/6,4/6,,6/8,6/8,
{8}6/8,6/8,6/8,,3/7,3/7,3/7,,
{8}2/4,2/4,2/4,2/4,2/4,,2/8,2/8,
{8}2/8,2/8,2/8,,1/5,1/5,1/5,,
{4}1/2,3/4,5/6,7/8,
{4}7/8,5/6,3/4,1/2,
{8}7,7,8,8,1,1,2,2,
{4}8<3[4:1],,,1/8,
{16}3h[8:1]/5h[8:1],,,3h[8:1]/5h[8:1],,,3h[8:1]/5h[8:1],,,3h[8:1]/5h[8:1],,,3/5,,,,
{16}4h[8:1]/6h[8:1],,,4h[8:1]/6h[8:1],,,4h[8:1]/6h[8:1],,,4h[8:1]/6h[8:1],,,4/6,,,,
{16}2h[8:1]/5h[8:1],,,2h[8:1]/5h[8:1],,,2h[8:1]/5h[8:1],,,2h[8:1]/5h[8:1],,,2/5,,,,
{16}1h[8:1]/8h[8:1],,,1h[8:1]/8h[8:1],,,1/8,,1b/8b,,,,2b/7b,,,,
{16}6h[8:1]/7h[8:1],,,6h[8:1]/7h[8:1],,,5h[8:1]/8h[8:1],,,5h[8:1]/8h[8:1],,,5/8,,,,
{16}2h[8:1]/3h[8:1],,,2h[8:1]/3h[8:1],,,1h[8:1]/4h[8:1],,,1h[8:1]/4h[8:1],,,1/4,,,,
{16}2h[8:1]/7h[8:1],,,2h[8:1]/7h[8:1],,,3h[8:1]/6h[8:1],,,3h[8:1]/6h[8:1],,,3/6,,,,
{4}1V35[4:1]/8V64[4:1],,,2/7,
{8}6,6,5/7,,3,3,2/4,,
{8}7,7,6/8,,2,2,1/3,,
{8}8,8,1/7,,1,1,2/8,,
{8}5,5,4,4,5-1[8:1],,3,,
{16}2/8,,,3/7,,,6,,6-2[8:1],,,,3,,,,
{16}1/7,,,2/6,,,3,,3-7[8:1],,,,6,,,,
{8}2,2,1,1,8,8,7,7,
{4}1>4[4:1],,8b,2b/6b,
{1}3pp6[4:5]/7h[4:7],
{1},
{1}3h[4:7]/7qq4[4:5],
{1},
{1}2qq7[4:5]/6h[4:7],
{1},
{1}4h[4:7]/8pp3[4:5],
{1},
{4}5h[1:2],3,1,1,
{4}4,4,1,1,
{4}4h[1:2],6,8,8,
{4}5,5,8,8,
{4}6h[1:2],8,1,2,
{4}3,4,5,4,
{4}3h[1:1],1,8,7,
{1}6-3[4:1],
{4}3/5h[2:3],3,8,8,
{4}3,8,8,,
{4}4h[4:7]/6,6,1,1,
{4}6,6,1,1,
{4}4/5h[4:1],7,4h[4:1]/5,2,
{4}3/5h[4:1],8,4h[4:1]/6,1,
{8}7,7,8,8,1,1,2,2,
{4}8p3[4:1],,,2/7,
{2}1p4[4:1],8q5[4:1],
{2}2p5[4:1],7q4[4:1],
{2}3p6[4:1],5p8[4:1],
{4}1p4[4:1],,5b,2b/7b,
{2}8q6[4:1],1p3[4:1],
{2}6q4[4:1],3p5[4:1],
{2}7q5[4:1],2p4[4:1],
{1}7q1[2:1],
{8}8-5[8:1],1,2-6[8:1],,,,5/7,,
{8}1-4[8:1],8,7-3[8:1],,,,2/4,,
{8}6-3[8:1],1,2-5[8:1],,,,4/6,,
{4}1-5[8:1],8-4[8:1],2-6[8:1],7,
{8}3-6[8:1],8,7-4[8:1],,,,3/5,,
{8}6-3[8:1],2,1-5[8:1],,,,4/6,,
{8}3-6[8:1],7,8-4[8:1],,,,3/5,,
{4}2/7,1-5[8:1],8-4[8:1],1b,
{8}3/7,7,1/7,,2/6,2,2/8,,
{8}5/7,7,7/8,,2/4,2,1/2,,
{8}4/6,6,6/8,,3/5,3,1/3,,
{8}1-4[8:1]/8-5[8:1],,,,3/6,3/6,3/6,,
{8}2/5,2,2/8,2,3/4,3,1/3,,
{8}4/7,7,1/7,7,5/6,6,6/8,,
{8}3/5,3,3/8,3,2/4,2,1/2,,
{2}1b>4[8:1]/8b<5[8:1],4b-1[8:1]/5b-8[8:1],
{8}2,2,4,4,5,5,7,7,
{16}1/2,,,3/8,,,4,,5-8[8:1],,,,2b,,,,
{8}7,7,5,5,4,4,2,2,
{16}7/8,,,1/6,,,5,,4-1[8:1],,,,7b,,,,
{16}1/2,,,3/8,,,4,,5-1[8:1],,,,2b,,,,
{16}7/8,,,1/6,,,5,,4-8[8:1],,,,7b,,,,
{16}4/6,,,3/7,,,8,,1/7,,,2/6,,,3,,
{4}2/7<2[4:1],,,1/8,
{1}4/5,
{1},
{1},
{1},
E
&inote_5=
(175){1},
{2}4/5<4[4:5],1,
{4}5,5,5,,
{2}8<1[4:5],4,
{4}8,8,8,,
{4}5h[8:1],5h[8:1],2h[8:1]/8h[8:1],2h[8:1]/8h[8:1],
{4}5h[8:1],2h[8:1]/8h[8:1],2h[8:1]/8h[8:1],,
{4}4h[8:1],4h[8:1],1h[8:1]/7h[8:1],1h[8:1]/7h[8:1],
{2}4bz8[8:1]/5b-8[8:1],4V62[8:1]/7>2[8:1],
{8}3/4,5/6,3/4,5/6,1/3,,1/2,7/8,
{8}1/2,7/8,2/4,,2/5,3/6,4/7,,
{8}7/8,1/2,7/8,1/2,5/7,,5/6,3/4,
{8}5/6,3/4,6/8,,1/6,2/7,3/8,,
{8}4-8[8:1],4,5-1[8:1],5,3-7[8:1],3,6-2[8:1],6,
{8}1-5[8:1],1,8-4[8:1],8,2-6[8:1],2,7-3[8:1],7,
{8}4,5,6,7,8,1/5,2/6,3/7,
{4}4/8bp1[4:1],1<5[4:1]*p4[4:1],,,
{16}1/6,,7,7,8,,7-4[16:1],,,1-5[16:1],,,6,,,,
{16}2h[8:1]/4h[8:1],,,2h[8:1]/8h[8:1],,,7-4[8:1]/8-3[8:1],,7/8,,,,,,,,
{16}2/5,,3,3,4,,2-5[16:1],,,8-4[16:1],,,3,,,,
{16}5h[8:1]/7h[8:1],,,1h[8:1]/7h[8:1],,,8,8,1bp5[8:1]*q5[8:1],,,,,,,,
{16}4/7,,3,3,4,,3-8[16:1],,,5-1[16:1],,,2,,,,
{16}6h[8:1]/8h[8:1],,,4h[8:1]/6h[8:1],,,3-8[8:1]/4-7[8:1],,3/4,,,,,,,,
{16}1/6,,7,7,8,,6-1[16:1],,,4-8[16:1],,,7,,,,
{4}2/6,,,4b/5b,
{8}2-7[32:3],6-3[32:3],2,6,2-7[32:3],6-3[32:3],2,6,
{8}2-7[32:3],6-3[32:3],2,6,2-7[32:3],6-3[32:3],2,6,
{8}1-4[32:3],5-8[32:3],1,5,1-4[32:3],5-8[32:3],1,5,
{16}1h[8:1],,,6h[8:1]/8h[8:1],,,2v3[8:1]/4q1[8:1],,2/4,,,,,,,,
{16}5/6,,1,8,1,,2-5[8:1]/3-8[8:1],,2/3,,,,,,,,
{16}6/7,,3,4,3,,1-4[8:1]/8-5[8:1],,1/8,,,,,,,,
{16}1,5,1,5,6,2,6,2,7,3,7,3,4/8,3/7,2/6,1h[16:7]/5,
{8}4,5,6,7,1b-5[32:3]/8b-4[32:3],,,,
{8}3/6<3[2:3],,,4,,5,5,,
{8}7,7,8q4[4:1],8,,,,,
{8}3>6[2:3]/6,,,5,,4,4,,
{8}2,2,1p5[4:1],1,,,,,
{8}2/7<1[2:3],,,1,,8,8,,
{8}6,6,5p8[4:1],5,,,,,
{8}2>8[2:3]/7,,,8,,1,1,,
{8}3,3,4q1[4:1],4,,,,,
{8}5/6,,6,5,6,5,4/7,5,
{8}6h[8:3],7,8q5[4:1],1>4[8:1],,,,,
{8}3/4,,3,4,3,4,2/5,4,
{8}3h[8:3],2,1p4[4:1],8<5[8:1],,,,,
{8}2/4,,4/6,3,2/4,5,4/6,3,
{8}1/2h[8:3],8,7>2[4:1],6q3[8:1],,,,,
{8}5/7,,3/5,6,5/7,4,3/5,6,
{8}7h[8:3]/8,1,2<7[4:1],3p6[8:1],,,,,
{8}6/8,6,3/5,5,6/8,6,3/5,5,
{8}6/8,6,3/5,5,3b>7[8:1]/5bv7[8:1],,,,
{8}1/3,3,4/6,4,1/3,3,4/6,4,
{8}1/3,3,1/3,3,4/6,4,4/6,4,
{4}3v8[8:1]/6<8[8:1],3>1[8:1]/6v1[8:1],3v8[8:1]/6<8[8:1],3>1[8:1]/6v1[8:1],
{4}3v8[8:1]/6<8[8:1],3>1[8:1]/6v1[8:1],3v8[8:1]/6<8[8:1],3/6,
{16}2,5,4,7,3,8,1,6,3,8,4,7,2,6,1,5,
{4}8bp1[4:1],1<5[4:1]*p4[4:1],,,
{16}3/8,,6,6,5,,8-4[16:1],,,3-7[16:1],,,5,,,,
{16}2h[8:1]/4h[8:1],,,4h[8:1]/6h[8:1],,,6-2[8:1]/8-4[8:1],,6/8,,,,,,,,
{16}1/6,,3,3,4,,1-5[16:1],,,6-2[16:1],,,4,,,,
{16}5h[8:1]/7h[8:1],,,1h[8:1]/7h[8:1],,,8,8,1bp5[8:1]*q5[8:1],,,,,,,,
{16}4/7,,2,2,1,,4-8[16:1],,,7-3[16:1],,,1,,,,
{16}6h[8:1]/8h[8:1],,,4h[8:1]/6h[8:1],,,2-6[8:1]/4-8[8:1],,2/4,,,,,,,,
{16}2/5,,7,7,8,,5-1[16:1],,,2-6[16:1],,,8,,,,
{16}1h[8:1]/3h[8:1],,,3h[8:1]/5h[8:1],,,5/7,,5h[4:1]/7,,,,1b,,1b,,
{16}3h[8:1]/4h[8:1],,,2h[8:1]/3h[8:1],,,1-5[8:1]/2,,,,1/8,,,,6,,
{16}5h[8:1]/6h[8:1],,,6h[8:1]/7h[8:1],,,7<4[8:1]/8,,,,1,,1,,,,
{16}2h[8:1]/4h[8:1],,,1h[8:1]/3h[8:1],,,2/8-4[8:1],,,,7/8,,,,6,,
{16}5h[8:1]/7h[8:1],,,6h[8:1]/8h[8:1],,,1/7,,1bq6[8:1]/8bp3[8:1],,,,,,,,
{16}5h[8:1]/7h[8:1],,,3h[8:1]/5h[8:1],,,1-5[8:1]/3,,,,1/8,,,,6,,
{16}2h[8:1]/4h[8:1],,,4h[8:1]/6h[8:1],,,6/8<4[8:1],,,,1,,1,,,,
{16}3h[8:1]/7h[8:1],,,2h[8:1]/6h[8:1],,,4-1[8:1]/8-5[8:1],,,,4/8,,,,,,
{8}2/6,,7-3[16:1],7,2-6[16:1],,2b/7,,
{16}4/5,,4,2,,2,4,,5,7,,7,5,,1/8,,
{16}3/7h[16:3],,,5h[8:1],,6,4,5,3h[16:3],,,1h[8:1],,2,8,1,
{16}7,,1,3,,3,1,,8,6,,6,8,,4/5,,
{16}3/6,,2,1,,7,8,,2-5[32:3]/7-4[32:3],,1/8,,2b/7b,,,,
{16}1/8,,1,3,,3,1,,8,6,,6,8,,4/5,,
{16}2/6h[16:3],,,8h[8:1],,7,1,8,2h[16:3],,,4h[8:1],,3,5,4,
{16}6,,4,2,,2,4,,5,7,,7,5,,1/8,,
{8}1b-5[8:1]/3,2,1/7,,6/8b-4[8:1],7,2/8,,
{8}1-5[8:1],7,5-1[8:1],6,1-5[8:1],7,5,8,
{16}1h[8:1]/2h[8:1],,,3h[8:1]/4h[8:1],,,5V31[16:3]/6V42[16:3],,5b/6b,,,,,,,,
{8}8-4[8:1],2,4-8[8:1],3,8-4[8:1],2,4,1,
{16}7h[8:1]/8h[8:1],,,5h[8:1]/6h[8:1],,,3V57[16:3]/4V68[16:3],,3b/4b,,,,,,,,
{16}1/3,,5,4/6,,2,1/3w7[8:1],,3b,,,,,,,,
{16}2/4,,8,1/7,,3,2w6[8:1]/4,,2b,,,,,,,,
{16}1,5,1,5,6,2,6,2,7,3,7,3,4/8,3/7,2/6,1/5,
{4}4/8bp1[4:1],1w5[32:7],,,
{1}4/5,
{1},
{1},
{1},
E
