&title=Seyana. ~何でも言うことを聞いてくれるアカネチャン~
&wholebpm=144
&artist=GYARI
&des=玉子豆腐
&shortid=781
&genre=niconicoボーカロイド
&cabinet=SD
&version=maimai MiLK PLUS
&chartconverter=Neskol
&lv_2=4
&des_2=-
&lv_3=7+
&des_3=-
&lv_4=10+
&des_4=Moon Strix
&lv_5=13
&des_5=玉子豆腐
&des_6=
&inote_2=
(144){1},
{1},
{1},
{1},
{1},
{1}1-4[4:3],
{1},
{1}8-5[4:3],
{1},
{2}1,1,
{1}1,
{2}2,2,
{1}2,
{2}3/4,3/4,
{1}3/4,
{2}5/6,5/6,
{1}5/6,
{2}8,8,
{2}7,7,
{2}6,6,
{4}5,5,4/5,,
{2}4,4,
{2}3,3,
{2}2,2,
{4}1,1,1/8,,
{1}2h[2:1],
{1}3h[2:1],
{1}4h[2:1],
{4}5,5,4/5,,
{1}6h[2:1],
{1}7h[2:1],
{1}8h[2:1],
{4}1,1,1/8,,
{1}8-5[4:3],
{1},
{1}1-4[4:3],
{1},
{1}4/5,
{1}6h[2:3],
{1}5h[2:1],
{1}3h[2:3],
{1}4h[2:1],
{1}2h[2:3],
{1}1h[2:1],
{1}7h[2:3],
{1}8h[2:1],
{4}1b,1,1,,
{4}2,2,2,,
{4}3,3,3,,
{4}4,4,4/5,,
{4}5,5,5,,
{4}6,6,6,,
{4}7,7,7,,
{4}8,8,1/8,,
{4}7,7,6,6,
{4}5,5,4/5,,
{4}3,3,2,2,
{4}1,1,1/8,,
{4}2,2,3,3,
{4}4,4,4/5,,
{4}5,5,6,6,
{4}7,7,7/8,,
{4}2,2,1/2,,
{1}1b/8b,
{4}2,2,1/2,,
{4}3,3,3/4,,
{4}6,6,5/6,,
{4}7,7,7/8,,
{4}1/2,1/2,1/2,,
{4}7/8,7/8,7/8,,
{4}1/2,1/2,1/2,,
{1}1h[1:2]/8h[1:2],
{1},
{1},
{1},
{1},
E
&inote_3=
(144){1},
{2}3,3/4,
{2}6,5/6,
{2}3,3/4,
{2}5,3/6,
{1}2>5[8:3],
{1}7<4[8:3],
{4}3,3,4,4/5,
{4}4h[2:1]/5h[2:1],,,4/5<3[2:3],
{1},
{1},
{4}2,3,4,5/6,
{4}7,6,4/5,,
{4}4,4,3,3,
{4}2,2,1/2,,
{4}6,6,7,7,
{2}1b/8b,2/7,
{4}6h[2:1],5,5,,
{4}3h[2:1],4,4,,
{4}5h[2:1],4,4,,
{4}4/5,4/5,4/5,,
{4}3h[2:1],4,4,,
{4}6h[2:1],5,5,,
{4}4h[2:1],5,5,,
{4}4/5,4/5,3/6,,
{4}2h[2:1],1,1,,
{4}7h[2:1],8,8,,
{4}1h[2:1],8,8,,
{4}1/8,1/8,2/7,,
{4}7h[2:1],8,8,,
{4}2h[2:1],1,1,,
{4}4h[2:1],5,5,,
{4}4/5,3/6,2/7,1/8<5[4:1],
{4},,,4>1[4:1],
{4},,,8<5[4:1],
{4},,,4>1[4:1],
{4},,,1/8,
{1}2b/7b,
{4}6,6,5,5,
{4}4,3,2/5,,
{4}3,3,4,4,
{4}5,6,4/7,,
{4}3,3,2/4,,
{4}6,6,5/7,,
{4}4,4,5,5,
{4}4,5,4,3/6,
{4}2b,1/2,7,7/8,
{4}2,1/2,3/8,,
{4}6,5/6,3,3-8[8:3]/4-7[8:3],
{4},,,1/6,
{4}7,7/8,2,1/2,
{4}7,7/8,1/6,,
{4}3,3/4,6,5-2[8:3]/6-1[8:3],
{4},,,3/8,
{4}4,3/5,6,5/7,
{4}3,2/4,1/5,,
{4}5,4/6,3,2<5[2:1]/4,
{4},,,3/4,
{4}5,4/6,3,2/4,
{4}6,5/7,4/8,,
{4}4,3/5,6,5/7,
{4}4,3/5,2/6,1-4[2:1]*-6[2:1]/7,
{1},
{4}4h[4:1]/5h[4:1],,4/5,4>6[2:3]/5,
{1},
{1},
{4}7,7/8,2,1/2,
{4}8,1,2/7,,
{4}4/5,6,4/5,3,
{4}5/6,7,3/4,2,
{4}1,2/8,3/7,4/6,
{4}5,4,3,2/5,
{4}3,4,4/5,4h[16:3]/5h[16:3],
{1},
{1},
{1},
E
&inote_4=
(144){1},
{8},,,,,3b,,,
{4},,,4b,
{4}6h[4:1],5,3h[4:1],4,
{8}5h[4:1]/6,,4h[4:1],,3h[4:1],6,6,,
{16}2/7,,,,2h[16:3],,,4,,,,,7h[16:3],,,5,
{16},,,,3h[16:3],,,1,,,,,6h[16:3],,,8h[16:13],
{4},5,6,7,
{8}1/6,,2,3,4,,3/6,2/7,
{1}1p8[2:3]/8<1[2:3],
{1},
{4}1/2h[4:1],5,7h[4:1]/8,4,
{24}1/2h[4:1],,,,,,5,,,,,,8,,,8,,,1/8,,,,2-4[8:1],,
{12},,,,,1-5[8:1]/3,,,,,,2-4[8:1]/8,
{12},,,,,1-5[8:1]/3,,,,,,2-4[8:1]/8,
{12},,,,,1-5[8:1]/3,,,,,,2b/7b,
{8},2,1/3,,6,5/7,,,
{8}1/7,,2/4,,3,4,3,,
{4}2h[4:1],8h[4:1],1b,4/5,
{8}2/8,,5/7,,6,5,6,,
{8}7h[4:1],,1h[4:1],,8,8,1,1b,
{4}7h[4:1],5,2h[4:1],4,
{4}2v4[4:1]/6<2[4:1],,,4b,
{8}4/5h[4:1],,7,,4h[4:1]/5,,8,1,
{16},,2/8,,,5/7,,,2b/4b,,,,4/5,,,,
{8}1/2,,2>4[8:1]/7,,8,,2,2b,
{8}1,,2>5[8:1]/7,,8,,2,2b,
{8}8,,1>4[8:1]/6,,7,,1,1b,
{8}7,,5/8>3[8:1],,6,,1,1b,
{8}7,,6h[4:1]/8,,4h[4:1],,2,2b,
{8}3,,4/5h[4:1],,7h[4:1],,1,1b,
{8}2,,6,5,4,,2,1b,
{16}8,,2/8,,,2/4,,,5/7,,,,6/7-2[8:1],,,,
{4},2/3-6[8:1],,4/5-8[8:1],
{4},1-4[8:1]/8,,2/8<5[8:1],
{16},,,,4>1[8:1]/7,,,,,,,,1/8,,,2h[16:17]/7h[16:17],
{1},
{8},,1b/8b,2b/7b,3b/6b,4b/5b,,,
{1}1>7[2:1]/8h[4:3],
{1}4h[4:3]/5<3[2:1],
{1}1h[4:3]/8<2[2:1],
{1}4>6[2:1]/5h[4:3],
{2}2/4-1[8:1],2/4-8[8:1],
{2}2/4-7[8:1],2/4-6[8:1],
{8}2h[4:1]/4h[4:1],,,,8b,7b,6b,5b,
{8}4b,3b,2b,1b,8b,,6,7,
{4}1/8,1/2-4[8:1],1,2-5[8:1]/8,
{8}8,,2-6[8:1]/7,,7,,3,2,
{4}1h[4:3]/7,8<3[4:1],,,
{16}2/4,,,5/7,,,1/8,,,,,,3,,2,,
{4}1/8,7-5[8:1]/8,8,1/7-4[8:1],
{8}1,,2/7-3[8:1],,2,,6,7,
{4}2/8h[4:3],1>6[4:1],,,
{16}2/4,,,5/7,,,4h[4:1]/5h[4:1],,,,,,2-5[8:1]/6,,,,
{4}8,3/7-4[8:1],1,2-5[8:1]/6,
{8}8,,3/7-4[8:1],,1,,2,3,
{4}4/8,3>8[8:1]/7<4[8:1],,,
{16}1/3,,,6/8,,,2/7,,,,,,5/6<1[8:1],,,,
{4}2,3>8[8:1]/4,7,5/6<1[8:1],
{8}2,,3>8[8:1]/4,,7,,7,6,
{4}1/5,2>5[8:1]/6<1[8:1],,,
{16}2/4,,,5/7,,,2/5,,,4h[4:1]/7h[4:1],,,,,,,
{16},5/7,,,2/4,,,4/7,,,2h[4:1]/5h[4:1],,,,,,
{8}1b/8b,,,1,8,1,2/7,,
{4}4>8[4:3]/5,5,5,5,
{8}5,,3/6,4,5,4,3/6,,
{4}4/5<1[4:3],4,4,4,
{24}4,,,,,,3/5,,,,,,8,,,8,,,1/8,,,,2-4[12:1],,
{12},,,,,1-5[8:1]/3,,,,,,2-4[12:1]/8,
{12},,,,,1-5[8:1]/3,,,,,,2-4[8:1]/8,
{12},,,,,1-5[8:1]/3,,,,,,2b/7b,
{8},2,1/3,,7,6/8,,3/6,
{16}4/5,,,,2/7,,1/8,,1h[16:5]/8h[16:5],,,,,,,2/7,
{1},
{1},
{1},
E
&inote_5=
(144){1},
{16}6b,,4,4,6,5,6,5,,,,,,,,,
{16}6b,,4,4,6,5,6,5,7,4,7,,,,,,
{24}6b,,6,,6,,,,,,,,5h[8:1],,,3h[8:1],,,6h[8:1],,,4,,,
{16}6,5,6,5,7,4,,,,,6b,,6b,,,,
{16}1/8,,,,4,5,,2h[16:3]/7h[16:3],,,,,4,5,,3h[16:3]/6h[16:3],
{16},,,,4,5,,2h[16:3]/7h[16:3],,,,,4,5,,1>8[16:9]/8,
{1},
{8}1b>4[4:1]/8b<5[4:1],,,,,,4/5,3/6,
{1}4qq1[2:3]/5pp8[2:3],
{1},
{16}1/2,,3,,4,,5/7,,6,,6,5,,5,6,,
{16}7/8,,6,,5,,2/4,,3,,3,4,,4,3,4-7[16:1],
{16},,,,,,,5-2[16:1]/6,,,,,,,,3/4-8[16:1],
{16},,,,,,,5-1[16:1]/6,,,,,,,,3-8[16:1]/4-8[16:1],
{16},,,,,,,5-1[16:1]/6-1[16:1],,,,,,,,3/7,
{16},,1/6,,7,8,,,3/8,,2,1,,,,,
{8}1/8,2,3h[4:1],4,6h[4:1],5,3h[4:1],4,
{16}1,2,1,,3/8,,,,6,,7/8,,3,,1/2,,
{16}3,4,3,,6,5,6,,4/7,,,,1/2,,,,
{16}7,5,7,,2,4,2,,2/5,,7/8,,2/5,,,,
{8}4/6,3,1/2,8,1-5[8:1]/7-3[8:1],,1/7,,
{4}1-4[8:1]/7-2[8:1],1v6[8:1]/7,1,1b,
{16}7,8,7,,1-7[8:1]/2-6[8:1],,,,1-5[8:1]/2-4[8:1],,,,1/2,,,,
{16}5/6,,3/4,,4,5,4,,2b/7b,,,,2,1,2,,
{16}3/4,,2/5,,3/4,,3,4,3,5,2,5,,,7/8,,
{16}5/6,,3/8,,5/6,,6,5,6,4,7,4,,,1/2,,
{16}3/4,,1/2,,2,1,2,8,3,7,4,6,5,,1/7,,
{16}4/6,,1/7,,7,8,7,8,6,1,5,2,4,3,,,
{16}6,5,6,5,6<1[8:1],,4,,2,,,,3>8[8:1],,5,,
{4}7,1s5[4:1]/8s4[4:1],,,
{16}1/8,1/8,,5,4,6,3,7,2-5[8:1]*-6[8:1],,,,,,,,
{16}7,8,6,1,5,2,4,3,,6,5,6,2b,,,,
{16}2/5,,2/5,,6,5,,4h[8:1]/7h[8:1],,,4/7,,3,4,,2h[8:1]/5h[8:1],
{16},,2/5,,7,8,,1h[8:1]/6h[8:1],,,1/6,,2,1,,3h[8:1]/8h[8:1],
{16},,3/8,,8,1,,2h[8:1]/7h[8:1],,,2/7,,4,5,,2bqq5[16:9]/7bpp4[16:9],
{1},
{1}2b/7b,
{1}1/8<1[2:5],
{1},
{1}8<1[8:13],
{1},
{2}8<1[32:17],8<1[8:3],
{8}8,7,6,5,4,3,2,1,
{32}8,,7,,6,,5,,4,,3,,2,,1,,8,7,6,5,4,3,2,1,8,7,6,5,4,3,2,1,
{8}4b/8b,,,,,,6-1[8:1],5/7,
{16},,,,3-8[8:1]/4,3h[8:1]/4,,5,,,,,5/6-1[8:1],5/6h[8:1],,4,
{16},,,,3-8[8:1]/4,3h[8:1]/4,,5,,,,,6-1[8:1],,5/7,,
{16},,,,3/4,3/4,,1/6,,,7,8,7,,1/6,,
{16}7b/8b,,,3b/4b,,,1b/6b,,,,,,3-7[8:1],,2/4,,
{16},,,,5-1[8:1]/6,5h[8:1]/6,,8,,,,,3/4-8[8:1],3/4h[8:1],,1,
{16},,,,5-1[8:1]/6,5h[8:1]/6,,8,,,,,3-7[8:1],,2/4,,
{16},,,,5/6,5/6,,3/8,,,2,1,2,,4/7,,
{16}4/7,,,3/6,,,2h[8:3]/5h[8:3],,,,,,,,,,
{16}2b/5b,,,,7q4[8:1]/8,7h[8:1]/8,,3,,,,,1/2V84[8:1],1/2h[8:1],,5,
{16},,,,7V53[8:1]/8,7h[8:1]/8,,2,,,,,1-6[8:1]/2-6[8:1],,3/8,,
{16},,,,5/6,5/6,,3/8,,,2,1,3,,5/7,,
{16}1b/2b,,,5b/6b,,,3b/8b,,,,,,7-3[8:1]/8-3[8:1],,1/6,,
{16},,,,1/2p5[8:1],1/2h[8:1],,6,,,,,7V15[8:1]/8,7h[8:1]/8,,4,
{16},,,,1/2V46[8:1],1/2h[8:1],,7,,,,,7-3[8:1]/8-3[8:1],,1/6,,
{16},,,,3/4,3/4,,1/6,,,7,8,6,,2/4,,
{16}4/7,,,2/5,,,4/8,,,1/5,,,5,4,5,4,
{16},2/6,,,4/8,,,3/7,,,1/5,,1,8,1,,
{1}2b/7b,
{16}1/8,,7,,5,,3,4,,6,5,,3,,2/4,,
{16}1/8,,2,,4,,6,5,,3,4,,6,,5/7,,
{16}1/8,,7,,5,,3,4,,6,5,,3,,2/4,,
{16}1/8,,2,,4,,6,5,,3,4,,6,,5/6,5-1[16:1]/6-1[16:1],
{16},,,,,,,3-8[16:1]/4-8[16:1],,,,,,,,4-1[16:1]/6-1[16:1],
{16},,,,,,,3-8[16:1]/5-8[16:1],,,,,,,,5w1[32:3],
{16},,,,,,,4w8[32:3],,,,,,,,2b/6b,
{16},,1/6,,7,8,,,3/8,,2,1,,,4/7,,
{16}6,5,,,2/5,,3,4,,,4/7,,1,8,1,2b/7b,
{1},
{1},
{1},
E
