&title=Session High⤴
&wholebpm=200
&artist=イロドリミドリ「CHUNITHM」
&des=すきやき奉行
&shortid=735
&genre=オンゲキCHUNITHM
&cabinet=SD
&version=maimai MiLK PLUS
&chartconverter=Neskol
&lv_2=6
&des_2=-
&lv_3=7+
&des_3=-
&lv_4=10+
&des_4=サファ太
&lv_5=12+
&des_5=すきやき奉行
&des_6=
&inote_2=
(200){1},
{1},
{1},
{1},
{2}1,1,
{2}8,8,
{2}1,1,
{1}1/8,
{4}2,2,2,,
{4}1,1,1,,
{4}8,8,8,,
{4}7,7,7,,
{1}1b/8b,
{1},
{4}1,1,1,,
{4}2,2,2,,
{4}3,3,3,,
{4}4,4,4/5,,
{4}5,5,5,,
{4}6,6,6,,
{4}7,7,7,,
{4}8,8,1/8,,
{1}7h[1:1],
{1},
{1}8h[1:1],
{1},
{1}1h[1:1],
{1},
{1}2h[1:1],
{1},
{2}1,1,
{4}1,1,1,,
{2}8,8,
{4}8,8,8,,
{2}7,7,
{4}7,7,7,,
{2}6,6,
{2}5/6,4/5,
{1}4-1[4:3],
{1},
{1}5-8[4:3],
{1},
{1}1h[1:1],
{1},
{2}8,8,
{2}1,1,
{1}1h[1:1]/8h[1:1],
{1},
{2}2/7,2/7,
{1}2/7,
{4}1b,1,1,,
{4}2,2,1/2,,
{4}3,3,3,,
{4}4/5,4/5,4/5,,
{4}5,5,5,,
{4}6,6,5/6,,
{4}7,7,7,,
{1}1/8,
{4}8b,8,8,,
{4}7,7,7/8,,
{4}6,6,6,,
{4}4/5,4/5,4/5,,
{4}4,4,4,,
{4}3,3,3/4,,
{4}2,2,2,,
{1}1/8,
{4}8b,8,7,7,
{4}6,6,5,,
{4}4,4,3,3,
{4}2,2,1,,
{4}1/8,1/8,2/7,2/7,
{4}3/6,3/6,4/5,,
{1}4h[1:3]/5h[1:3],
{1},
{1},
{2},4-1[4:3]/5-8[4:3],
{1},
{1},
{1}1/8,
{1},
{1},
{1},
E
&inote_3=
(200){1},
{1},
{4}6,5,4,3>6[8:5],
{1},
{2}5,4/6,
{2}3,2/4,
{2}6,5/7,
{1}4h[2:1]/5h[2:1],
{2}6h[2:1],5,
{2}3h[2:1],4,
{1}4h[2:1]/5h[2:1],
{4}4,4,4/5,4-1[8:5]/5-8[8:5],
{1},
{4}8,1,2b/7b,,
{4}2,2,1/2,,
{4}7,7,7/8,,
{4}1,1,1/8,,
{4}1/8,1/8,2/7,,
{4}6,6,5/6,,
{4}3,3,3/4,,
{1}4-1[8:5]/5-8[8:5],
{2},2b/7b,
{2}6h[2:1],5,
{2}3h[2:1],4,
{2}6h[2:1],5,
{4}4,4,4/5,,
{2}2h[2:1],1,
{2}7h[2:1],8,
{1}1-4[4:3]/8-5[4:3],
{2},3/6,
{4}6,6,6,,
{4}4,4,4/5,,
{4}3,3,3,,
{4}5,5,4/5,,
{4}2,2,2,,
{4}8,8,1/8,,
{4}1/8,1/8,2q6[4:3]/7,,
{1},
{2}1/8,3/6,
{1}2-4[8:3]/7-5[8:3],
{4}6,6,7,7,
{4}8,8,1/7,,
{2}3h[2:1],4,
{2}6h[2:1],5,
{2}3/4,5/6,
{2}2/4,5/7,
{1}3V14[4:5]/6V85[4:5],
{1},
{1}4h[2:1]/5h[2:1],
{1}3/6,
{4}2b,1,3/8,,
{4}7,8,1/6,,
{4}1,2,3,4,
{4}5/6,5/6,4/7,,
{4}3,3,2/4,,
{4}6,6,5/7,,
{2}3h[4:1]/4h[4:1],5>2[4:3]/6p1[4:3],
{1},
{4}7b,8,1/6,,
{4}2,1,3/8,,
{4}8,7,6,5,
{4}3/4,3/4,2/5,,
{4}2,2,1/3,,
{4}7,7,6/8,,
{4}1/8,1/8,2/7,2/7,
{4}3b/6b,,4/5,4/5,
{2}4/5,3/6,
{4}2,1,8,7,
{2}5/6,4/7,
{4}7,8,1,2,
{2}3/4,2/5,
{4}4/5,4/5,3/6,3/6,
{4}4h[8:3]/5h[8:3],,,2h[2:7]/7h[2:7],
{1},
{1},
{1},
{1},
{1},
{1},
E
&inote_4=
(200){1},
{4},,,4/5,
{4}2,1/8,7,5/6,
{4}2b/7b,8,1,2,
{1}3>8[8:3]/4,
{1}5/6<1[8:3],
{1}3/4<7[8:3],
{1}5>2[8:3]/6,
{4}3h[4:1],2h[4:1],1h[4:1],8h[4:1],
{4}7h[4:1],6h[4:1],5h[4:1],4<2[8:5],
{1},
{4}1/2,3/8,4/7,5>2[4:3]/6p1[4:3],
{1},
{4}8,8,1b/7b,,
{4}6,5,3/4,2/5,
{4}3,4,5/6,4/7,
{4}6,5,3/4,2/5,
{4}3/4,4/5,5/7,,
{4}7,8,1/2,3/8,
{4}2,1,7/8,1/6,
{8}8h[4:1],,,1h[4:1]/7h[4:1],,,2/6,,
{8}3/4,,5/6,,2b/7b,2b/7b,,,
{4}5h[4:7],4,4,4p7[8:3],
{4},,,6,
{4}4h[4:7],5,5,5q2[8:3],
{4},,,3,
{4}5h[4:3],2,3,4,
{4}5/7,6,2/5,3,
{8}5h[4:1]/7h[4:1],,,,3/4,3>6[2:1]/4,,,
{4},,,1/8,
{4}7,7/8,2,1/2,
{4}3,2/4,6,5/7,
{8}1h[4:1]/8h[4:1],,,,2/7,2v4[8:3]/7v5[8:3],,,
{4},,3/6,2/7,
{4}3,2/4,1,2/8,
{4}7,6/8,4h[4:1]/5h[4:1],,
{8}6,6,5,,2/4,2q6[8:3]/4,,,
{4},,7/8,1/6,
{1}2>4[4:1]/7<5[4:1],
{1}1>4[4:1]/8<5[4:1],
{4}2h[4:1],4h[4:1],5h[4:1],7,
{8}1h[4:1]/8h[4:1],,,2/7,2b/7b,,,,
{2}3h[2:1],4h[2:1],
{2}5h[2:1],6,
{4}6h[4:1],5,3h[4:1],4,
{4}7h[4:1],5,2h[4:1],4>6[1:1],
{1},
{2},2/7,
{2}2h[4:1]/4h[4:1],5h[4:1]/7h[4:1],
{4}2/6,3,4/5,3/6,
{4}2b/7b,5/6,7/8,1/2,
{8}3h[8:3],,4,4,,2/5,2/5,,
{4}5/6h[2:3],1b,5,1b,
{4}5,1b,5,1b/8b,
{8}5/6,,3/4,,1/7,1v4[8:3]/7v4[8:3],,,
{4},,3/5,6,
{4}2/7,3-8[4:1]/4-7[4:1],,,
{4}1/6,2,3,4/5,
{4}2b/7b,3/4,1/2,7/8,
{8}6h[4:1],,5,5,,4/7,4/7,,
{4}3h[2:3]/4,8b,4,8b,
{4}4,8b,4,1b/8b<5[2:1],
{4}1,1,1,1>4[2:1]/8,
{4}8,8,7,6,
{8}3/4,3/4,2/5,,5/6,5/6,4/7,,
{4}3b/6b,,3/6,4/5-8[8:1],
{4}1,1,2,3/8,
{4}4/7,6,4/5,3-8[8:1]/4,
{4}7,7,6,2/5,
{4}1/8,5/7,2/4,5/6-1[8:1],
{4}2,3,5/6,4/7,
{4}1/2,2/4,5/7,1/2,
{8}3h[4:1]/8h[4:1],,,4h[4:1]/7h[4:1],,,5/6,5>2[8:19]/6p1[8:19],
{1},
{1},
{1},
{4},2b/7b,,,
{1},
{1},
{1},
E
&inote_5=
(200){1},
{1},
{8}4/5,3,2,4/5,6,7,4/5,3,
{2}2p6[8:1]/4,5-8[8:1],
{1}1bw5[8:3],
{1}7bV15[2:1],
{1}3bpp4[4:3]*V14[4:3],
{4},,5/6,4/5,
{4}3/4,2/4,5/6,5/7,
{4}2/4,1/4,5/7,5/8,
{8}5/6,4,3/5,,3/4,5,4/6,,
{8}2/7,2/7,4/5,,3/4,,5>2[8:3]/6p1[8:3],,
{4}5b/6b,,,3/6,
{4}4/5h[2:1],6<3[4:1],,,
{4}4,7/8,5,1/2,
{4}3-1[8:1]/4,6,3-1[8:1]/4,6,
{4}5,1/2,4,7/8,
{4}5/6-8[8:1],3,5/6-8[8:1],3,
{4}4,6/8,5,1/3,
{4}3-8[8:1]/4,5,3-8[8:1]/4,5,
{8}5-1[8:1],,3,3-7[8:1],,6,6<3[4:1],,
{8},,,,2b/7b,2b/7b,,,
{4}4h[1:1],3,5,3,
{4}5h[2:1],6,4,3/4,
{8}2h[4:1],,4h[4:1],,5,5,,5v3[8:3]/6q3[8:3],
{4},,,3/6,
{4}5h[1:1],6,4,6,
{4}4h[2:1],3,5,5/6,
{8}3,4,2/5,,4/7,4/7,,4/5,
{8},8,1,2/7,,3/6,3/6,,
{8}6h[2:1],,7,,4h[2:1],5,5,,
{4}5h[2:1],6,3,3/4,
{8}5/7,,2/4,,2/8,2/8,,4v2[4:1]/6v8[4:1],
{4},,1/7,3/5,
{8}3h[2:1],,2,,5h[2:1],4,4,,
{4}4h[2:1],3,6,5/6,
{8}3/4-7[8:1],,2-5[8:1],,6,6-1[8:1],,2,
{8},2,2,1,1,,3/8,,
{4}1b>4[4:1]/7b<4[4:1],,,3/5,
{4}2b>5[4:1]/8b<5[4:1],,,4/6,
{4}3h[4:1],5h[4:1],7h[4:1],1h[4:1],
{8}3>6[4:1],,,5,5,,2/7,,
{8}6h[8:3],,,5h[8:3],,,4h[4:1],,
{1}3s7[2:1],
{4}5,1/3,4,6/8,
{4}5/6,1/3,3/4,6/8,
{8}4/6,3,2/5,,3/5,6,4/7,,
{8}3/5,2,1/4,,4/6,7,5/8,,
{2}1-5[8:1]/2-4[8:1],7-5[8:1]/8-4[8:1],
{4}2b/7b,3/4,1/2,5>2[4:1]/6p1[4:1],
{4}5b/6b,,5/7,2/4,
{8}7/8-3[8:1],,6,6-1[8:1],,4,4,,
{4}3-8[8:1]/6,4b,3-8[8:1]/6,4b,
{4}3-8[8:1]/7,4b,3-8[8:1]/7,4b,
{8}5/6<1[8:1],,5>2[8:1],,7,7<4[8:1],,3,
{8},1/2,1/2,,3/4,,5-2[8:1]/6-1[8:1],,
{8}5b/6b,,,7b/8b,7b<4[4:1]/8b>3[4:1],,,,
{4},1/2,3/4,5>2[4:1]/6p1[4:1],
{4}5b/6b,,2/4,5/7,
{8}1-6[8:1]/2,,3,3-8[8:1],,5,5,,
{4}3/6-1[8:1],5b,3/6-1[8:1],5b,
{4}2/6-1[8:1],5b,2/6-1[8:1],5b,
{8}4/7,6,2/5,3,4/7,6,2/5,,
{8}4/8,7,1/5,2,4/8,7,1/5,,
{8}3/4,3/4,2/5,2/5,1/6,1/6,7-4[8:1]/8-3[8:1],,
{4}7b/8b,2/5,4/7,5>2[8:1]/6p1[8:1],
{8}5b/6b,,3/8,,7-4[8:1]/8,7/8,,3-8[8:1],
{8},5,5,,2/7,,5>2[8:1]/6p1[8:1],,
{8}5b/6b,,3/8,,7/8-3[8:1],7/8,,6-1[8:1],
{8},4,4,,2/5,,4/7,,
{4}6-3[8:1],2-7[8:1],5-8[8:1],1-4[8:1],
{4}6-1[8:1],3-8[8:1],7-4[8:1],3,
{8}1b/6b,,4,3b/8b,,5,1b/6b,1b-5[8:1]/6b,
{16},,,,8,,,,5/6,,,3/4,,,1/2,,
{12}8,7,6,1,2,3,7,6,5,2,3,4,
{1}6<3[4:3],
{4},5>2[1:1]/6p1[1:1],,,
{1},
{16}4,5,4,,,,,,,,,,,,,,
{1},
{1},
{1},
E
