&title=SILENT BLUE
&wholebpm=210
&artist=かねこちはる
&des=サファ太
&shortid=773
&genre=maimai
&cabinet=SD
&version=maimai MiLK PLUS
&chartconverter=Neskol
&lv_2=6
&des_2=-
&lv_3=8+
&des_3=-
&lv_4=12+
&des_4=小鳥遊さん
&lv_5=14+
&des_5=サファ太
&des_6=
&inote_2=
(210){1},
{1},
{1}1h[1:1],
{1},
{1}8h[1:1],
{1},
{1}1h[1:1]/8h[1:1],
{1},
{1}1-4[4:3]/8-5[4:3],
{1},
{2}4,4,
{2}4,4/5,
{2}3,3,
{2}3,3/4,
{2}2,2,
{2}2,1/2,
{2}1,1,
{2}1,1/8,
{1}8-5[4:3],
{1},
{1}1-4[4:3],
{1},
{1}7-4[4:3],
{1},
{1}2-5[4:3],
{1},
{1}8h[1:1],
{1},
{1}7h[1:1],
{1},
{1}6h[1:1],
{1},
{1}5h[1:1],
{1},
{4}4,4,4,,
{4}3,3,3,,
{4}2,2,2,,
{4}1,1,1/8,,
{1}7h[1:1]/8h[1:1],
{1},
{1}1h[1:1]/2h[1:1],
{1},
{4}8,8,8,,
{4}7,7,7,,
{4}6,6,6,,
{4}5,5,4/5,,
{1}3h[1:1]/4h[1:1],
{1},
{1}5h[1:1]/6h[1:1],
{1},
{2}4/6,4/6,
{2}3/5,3/5,
{1}4-1[4:3]/5-8[4:3],
{1},
{1},
{1}2h[2:1],
{1}3h[2:1],
{1}4h[2:1],
{1}5h[2:1],
{1}6h[2:1],
{1}7h[2:1],
{1}8-3[4:3],
{1},
{1}1h[1:1],
{1},
{1}1-6[4:3],
{1},
{1}8h[1:1],
{1},
{1}8b,
{1},
{4}1,1,1,,
{4}2,2,2,,
{4}3,3,3,,
{4}4,4,4/5,,
{1}5h[2:1],
{4}5,5,4/6,,
{1}4h[2:1],
{4}4,4,3/5,,
{4}5,5,5,,
{4}6,6,6,,
{4}7,7,7,,
{4}8,8,1/8,,
{1}1h[2:1],
{4}1,1,2/8,,
{1}8h[2:1],
{4}8,8,1/7,,
{1}2h[4:3]/7h[4:3],
{1},
{4}3,3,3,3,
{4}4,4,4,4,
{1}5h[2:1],
{4}5,5,4/6,,
{1}4h[2:1],
{4}4,4,3/5,,
{4}6,6,6,6,
{4}7,7,7,7,
{4}8,8,8,8,
{1}1b,
{4}1,1,1,1,
{4}2,2,2,2,
{4}3,3,3,3,
{4}4,4,4/5,,
{4}5,5,5,5,
{4}6,6,6,6,
{4}7,7,7,7,
{4}8,8,1/8,,
{1}1-4[4:3],
{1},
{1}5-8[4:3],
{1},
{1}2b/7b,
{1},
{1},
{1},
E
&inote_3=
(210){1},
{1},
{1}6h[1:1],
{1}5h[1:1],
{1}4h[1:1],
{1}3h[1:1],
{1}2h[1:1],
{1}1h[1:1],
{2}8,7,
{1}6-3[2:1],
{4}2,2,1/2,,
{4}7,7,7/8,,
{4}2,2,1/2,8,
{4}7,7,7/8,,
{4}6,6,5/6,,
{4}3,3,4<7[2:1],,
{1},
{4}7,7,7/8,,
{4}2,2,1/3,,
{4}7,7,6/8,,
{4}2,2,1/3,8,
{4}7,7,6/8,,
{1}1w5[4:5],
{1},
{4}6,6,5/6,,
{4}3,3,3-8[8:5]/4-7[8:5],,
{1},
{1}7,
{1}6,
{2}5,4,
{1}3,
{1}4,
{1}5h[1:1],
{1},
{4}6,5,5/6,4>1[8:5],
{1},
{4}7,8,7/8,1>4[8:5],
{1},
{4}6,5,5/6,,
{4}3,4,3/4,,
{4}6,5,5/6,4,
{4}3,4,3/5,,
{4}3,4,3/4,5<8[8:5],
{1},
{4}2,1,1/2,8<5[8:5],
{1},
{4}3,4,3/4,,
{4}6,5,5/6,,
{4}3,4,3/4,5,
{4}6,5,4/6,,
{1}7h[2:1]/8h[2:1],
{1}1h[2:1]/2h[2:1],
{1}1h[4:3]/8h[4:3],
{1},
{1}7/8,
{1}5/6,
{1}3/4,
{1}4/5,
{1}5,
{1}4,
{1}5h[1:1],
{1}4-8[4:3],
{2},7,
{1}7-3[4:3],
{2},2,
{1}2-6[4:3],
{2},7,
{1}8-5[4:3],
{2},4,
{1}4h[1:1]/5h[1:1],
{1},
{4}5,4,6,7/8,
{4},8,1,2,
{4}4,5,3,1/2,
{4},1,8,7,
{4}5/6,7>4[8:7],,,
{1},
{4}6,5/6,4/7,3,
{4}4,3/4,2/5,,
{4}4,5,3,1/2,
{4},1,8,7,
{4}5,4,6,7/8,
{4},8,1,2,
{1}2<4[1:1],
{1},
{4}2,1/2,7,7/8,
{4}1,1/8,8pp4[4:5]*qq4[4:5],,
{1},
{2},3/5,
{4}3h[4:1],4,6h[4:1],5,
{4}3h[4:1],4,2/5,1<4[1:1],
{1},
{2},3/4,
{4}3h[4:1],4,2/5,6,
{4}6h[4:1],5,4/7,,
{4}3,3,2/4,,
{4}6,6,5/7,,
{4}3,4,5,6,
{1}7-3[8:3],
{4}2,1/2,3,4,
{1}3>8[2:1],
{4}7,7/8,6,5,
{1}6<1[2:1],
{4}3,3/4,2,1,
{1}2>5[2:1],
{4}6,5/6,7,8,
{1}7<4[2:1],
{4}1/2,3,4/5,6,
{4}5,5/6,4/7,,
{4}7/8,6,4/5,3,
{4}4,3/4,2/5,,
{1}4bqq8[8:11],
{1},
{2}7,6,
{2}3,4,
{2}5,4,
{2}5h[8:7],4h[8:3],
{1},
{1},
{1},
E
&inote_4=
(210){1},
{1},
{8}3/7h[8:3],,,6h[8:3],,,5h[2:1],,
{4},4,3,2,
{8}1h[8:3]/8,,,2h[8:3],,,3h[2:1],,
{4},4,5,6,
{8}7/8,,1-5[8:3],1,,,,,
{8}6h[8:3],,,7h[8:3],,,8,,
{1}4qq1[16:9]/8qq5[16:9],
{8}2b/6b,,,,4/5,4/5,3/6,,
{8}4/7,,5/6,5/6,,3/4,,1<5[4:1]/2,
{8},,,,,3,4,3,
{8}2/5,,3/4,3/4,,5/6,,7h[8:3]/8,
{8},,1,1,,3/4,,1/2h[8:3],
{8},,8,8,,5/6,,7h[8:3]/8,
{16},,,,2,,2,,,,3/4,,,,4,5,
{1}4>5[4:3],
{4},,4/6,3/5,
{8}4/5,,5/6,4h[4:1],,5,6h[1:1],,
{4}5,7,8,1,
{8}4/5,,3/4,5h[4:1],,4,3h[1:1],,
{4}4,2,1,8,
{16}5/7,,,4/5,,,2/4,,,,,,2/4,,,4/5,
{16},,5/7,,,,,,7/8,,,4/5,,,1/2,,
{8}3,3,4,3,6,6,5,6,
{8}4/5,4/5,3/6,3/6,2/7,2/7,1/8,1/8,
{1}1bpp4[4:3]/8b,
{1}7qq4[4:3],
{1}8pp4[4:3]*qq4[4:3],
{2},4,
{1}8qq5[4:3],
{1}2pp5[4:3],
{1}1-5[2:1],
{16}5b,,,,,,,,4,5,4,,3/6,,,,
{8}4/5,,3/5,2h[4:1]/4,,1,2/8,,
{4}2/4,1/3,6/8,5/7,
{8}4/5,,4/6,5/7h[4:1],,8,1/7,,
{4}5/7,6/8,1/3,2/4,
{8}4/5,,1/8,1h[8:9]/8>7[8:7],,,,,
{1},
{8}7/8,,6,6h[4:1],,5,,2,
{8}1/2,,3,3h[4:1],,4,3/4,,
{8}4/5,,4/6,5/7h[4:1],,8,1/7,,
{4}5/7,6/8,1/3,2/4,
{8}4/5,,3/5,2h[4:1]/4,,1,2/8h[4:1],,
{12}4,,,6,5,6,5-2[8:1],,,,,,
{1}1<2[4:5]/8h[2:3],
{1},
{16}2h[16:3],,,3h[16:3],,,4,,7h[16:3],,,6h[16:3],,,5,,
{8}4/5,4/5,3/6,3/6,2/7,,1b/8b,,
{1}7h[4:3]/8b<3[2:1],
{1}1b>6[2:1]/2h[4:3],
{8}5h[4:1]/7b,,,2b/4h[4:1],,,1b>8[1:3]/8b<1[1:3],,
{1},
{1},
{1},
{1},
{8}5h[4:1],,,5h[4:1],,,4/5,,
{8}4h[4:1],,,4h[4:1],,,4/5,,
{8}5h[4:1]/6h[4:1],,,5h[4:1]/6h[4:1],,,5/6,,
{8}3h[4:1]/4h[4:1],,,3h[4:1]/4h[4:1],,,3/4,,
{1}3/6qq3[4:3],
{8},,,,,3,4,5,
{1}3pp6[4:3]/6,
{12},,,,,,4,5,4,5,,,
{1}4>6[4:3]/5,
{1}5<3[4:3],
{2}4>1[4:1],5<8[4:1],
{16}2,,2,,7,,7,,1,8,1,8,1,8,1,8,
{1}1w5[2:1],
{16}3b/7b,,,,,,,,4,5,4,,3/6,,,,
{8}1/8,,2/8,1/3h[4:1],,4,3-7[8:1]/5,,
{4}8-4[8:1],2-6[8:1],7-4[8:1],8,
{8}1/8,,1/7,6h[4:1]/8,,5,4/6-2[8:1],,
{4}1-5[8:1],7-3[8:1],2-5[8:1],1,
{8}3/6,,1/8>7[1:1],1h[8:3]/8,,,,,
{4}1,1,1,1,
{8}1h[4:1]/2,,3,3h[4:1],,5,,6,
{8}7/8h[4:1],,6,6h[4:1],,4,4/5,,
{8}1/8,,1/7,6h[4:1]/8,,5,4/6-2[8:1],,
{4}1-5[8:1],7-3[8:1],2-5[8:1],1,
{8}1/8,,2/8,1/3h[4:1],,4,2/5,,
{12}1/8,,,3,4,3,4-7[8:1],,,,,,
{1}1<2[4:5]/8h[4:3],
{4}8,8,8,8,
{16}7h[16:3]/8,,,6h[16:3],,,5,,1/2h[16:3],,,3h[16:3],,,4,,
{8}4/5,4/5,3/6,3/6,2/7,,1b/8b,,
{8}1h[4:1]/6b,,,3b/8h[4:1],,,2b-5[8:1]/7b-4[8:1],,
{4},3/6,2/7,1/8,
{8}2/4h[4:1],,3,2h[4:1]/5,,1,3/8-4[8:1],,
{4}3-1[8:1],5-7[8:1],8-4[8:1],6<5[4:3],
{1}1h[4:3],
{4}1/5,4/7,2/5,4/8,
{8}2h[4:1]/5,,1,1h[4:1],,8h[4:1],,6,
{8}6-2[8:1],,,,3,3,2/4,,
{8}5h[4:1]/7,,6,4/7h[4:1],,8,1-5[8:1]/6,,
{4}6-8[8:1],4-2[8:1],1-5[8:1],3,
{8}4/6,4/6,3/5,3/5,4/7,4/7,2/5,2/5,
{16}1b/6b,,,,,,,,4,5,4,,3/6,,,,
{8}2-4[8:1],2,1-5[8:1],1,3<6[8:1],,8-4[8:1],,
{16}1,,,,,,,,4h[16:3],,,5h[16:3],,,6,,
{8}7-5[8:1],7,8-4[8:1],8,6>3[8:1],,1-5[8:1],,
{16}8,,,,,,,,5h[16:3],,,4h[16:3],,,3,,
{8}2-4[8:1],2,1-5[8:1],1,3qq5[8:3],,8<5[8:1],,
{16},,,,,,,,3/4h[16:3],,,5h[16:3],,,6,,
{8}7-5[8:1],7,8-4[8:1],8,6pp4[8:3],,1>4[8:1],,
{8},,,,1/8,1/8,2b/7b,,
{8}1/2,3,4,5/6,7,8,1/2,3,
{4}4-8[8:1],7-5[8:1],1-3[8:1],8b,
{8}7/8,6,5,3/4,2,1,7/8,6,
{16}4/5,,,,3/6,,,,2,7,2,7,1,8,1,8,
{1}1bw5[4:5],
{1},
{8}5/6h[8:5],,5,5,,5,5/6,,
{8}3h[8:5]/4,,4,4,,4,3/4,,
{8}5/6h[4:1],,5,5h[4:1]/6,,6,5/6,,
{8}3h[4:1]/4,,4,3/4h[4:1],,3,3<5[8:1]/4,,
{1},
{1},
{1},
E
&inote_5=
(210){1},
{16},,,,,,,,,,,,4,5,4,5,
{8}3h[8:3],,,4q2[8:7],,,3h[2:1],,
{4},,4,4,
{8}5h[8:3],,,4p6[8:7],,,5h[2:1],,
{4},,5,4,
{8}3h[1:1],,4,4,,,5,,
{24}6,5h[3:1],,,,,,,,4h[8:3],,,,,,,,,6<3[4:3],,,,,,
{1}5h[4:3],
{16}2v1[8:1]/7v8[8:1],,,,,,,,2/7,3/6,4/5,,2b/7b,,,,
{8}4/7,,3/5,3/5-8[8:1],,2-5[8:1],,1,
{8},8,7,1/6-3[8:1],,1,1,2,
{8}3/5,,4/6,4-1[8:1]/6,,7-4[8:1],,8,
{8},1,2,3-6[8:1]/8,,7-2[8:1],,4h[8:3],
{8},,6,6-1[8:1],,3-6[8:1],,8h[8:3],
{16},,,,4,,2-5[8:1]/6-1[8:1],,,,,,,,4/8,3/7,
{1}2h[4:3]/6>8[2:1],
{48}1,,,,1,,,,1,,,,8,,,,8,,,,8,,,,1/7,,,2/6,,,3/5,,,,,,1b/7b,,,,,,,,,,,,
{8}1-5[8:1],8,7,6-2[8:1],7,8,1,,
{4}3/7-5[8:1],1-3[8:1]*-7[8:1]/7,1-5[8:1],1/6,
{8}8-4[8:1],1,2,3-7[8:1],2,1,8,,
{16}1/6,,2,,3/7,,6,,2/5,,3,4,3,4,3,4,
{16}2h[16:3]/5b,,,1,,,3/8,,,,,,1b/6h[16:3],,,5,
{96},,,,,,,,,,,,4/7,,,,,,,,,,,,,,,,,,,,,,,,,,,,,,,,,,,,1b,8h[1:0],,,,,,,,,,,,,,,,,2h[1:0]/7,,,,,,,,,,,,,,,,,,3/6h[1:0],,,,,,,,,,,,
{16}4b/5,3,2,1,4,5,6,7,1,2,3,4,1,8,7,6,
{16}4b/5,3,2,1,7/8,6,5,4,1b,2,3,4,5/6,7,8,1,
{1}2b>2[2:7]/3,
{1}2h[1:0],
{1}8h[1:0],
{1}6h[1:0],
{2}2h[4:3]/4,4h[4:3],
{2}3h[4:3],6h[4:1],
{1}5-1[32:25]/6h[4:3],
{96}6,,,5-1[32:3],,,,,,,,,,,,,,,,,,,,,,,,,,,,,,,,,,,,,,,,,,,,,2/8,,,,3/7,,,,4/6,,,,5,,,,,,,,,,,,3b/7b,,,,,,,,,,,,,,,,,,,,,,,,
{8}1-5[8:1],5V31[4:1],1,7,7,6,2/5,,
{4}3/8-5[8:1],2-4[8:1]*-8[8:1]/8,2-6[8:1],2/6,
{8}8-4[8:1],4V68[4:1],8,2,2,3,4/7,,
{4}1-4[8:1]/6,1/7-1[8:1]*-5[8:1],7-3[8:1],3/7,
{16}1,2,3,4,8,7,6,5,8,1,2,3,1,8,7,6,
{16}2/5,3,4,5,6,7,8,1,2/6,5,4,3,2,1,8,7,
{8}3-8[8:1]/6,,6,6-3[8:1],,1-5[8:1],,6,
{8},4,3/5,2-6[8:1]/6,,1/2,,,
{8}7-3[8:1],3V57[4:1],7,1,1,2,3/8,,
{4}2>5[8:1]/6,2/8<6[8:1]*>2[8:1],8-4[8:1],4/8,
{8}2-6[8:1],6V42[4:1],2,8,8,7,1/6,,
{12}4/8<4[4:1],,,3,2,1,8,,,1/5,,,
{12}3/7b,6,5,1/4,2,3,4/8,7,6,2/5,3,4,
{12}5/8,7,6,2-5[8:1]/5,,,1,,,3/7,,,
{16}7h[16:3],,,8,,,2/5,,2h[16:3],,,1,,,4/7,,
{16}6,5,6,5,8,1,8,1,4,3,4,3,2b/5b,,,,
{8}4/7b-4[8:1],,3/7,3-8[8:1],,3/7,7,6,
{8}2b>5[8:1]/5,,2/6,6<1[8:1],,2/6,2,3,
{8}4b-1[8:1],,1,7b-4[8:1],,8,2bz6[4:7],,
{1},
{1},
{8}4h[8:1]/6h[4:1],,,4h[8:1]/6h[4:1],,,4/6,,
{8}3h[4:1]/5h[8:1],,,3h[4:1]/5h[8:1],,,3/5,,
{8}5h[8:1]/6h[4:1],,,5h[4:1]/6h[8:1],,,5/6,,
{8}3h[8:1]/4h[4:1],,,3h[4:1]/4h[8:1],,,3/4,,
{8}4h[8:1]/6h[4:1],,,4h[4:1]/6h[8:1],,,4/6,,
{8}3h[8:1]/5h[4:1],,,3h[4:1]/5h[8:1],,,3/5<5[4:15],,
{1}4h[1:0],
{1}2h[1:0],
{1}8h[1:0],
{1}6<1[2:1],
{16}3h[4:1],,,,4,,,3,3,4,,,5/6,,,,
{16}2h[4:1],,,,4,,,2,2,4,,,3/5,,,,
{16}6h[4:1],,,,5,,,6,6,5,,,3/4,,,,
{16}5/7h[4:1],,,,5,,,7,7,5,,,2/4-8[1:1],,,,
{1}3h[4:3],
{96}3,,,4-8[32:3],,,,,,,,,,,,,,,,,,,,,,,,,,,,,,,,,,,,,,,,,,,,,1/7,,,,2/6,,,,3/5,,,,4,,,,,,,,,,,,1b/7b,,,,,,,,,,,,,,,,,,,,,,,,
{8}7-3[8:1],3V58[16:3],7,1,2-5[8:1],2,2/7,,
{4}3/6>4[8:1],1<6[8:1]*>4[8:1]/6,1-5[8:1],1/5,
{8}2-6[8:1],6V41[16:3],2,8,7-4[8:1],7,2/7,,
{4}3<5[8:1]/6,3/8<5[8:1]*>3[8:1],8-4[8:1],4/8,
{16}2,3,4,5,7,6,5,4,8,1,2,3,1,8,7,6,
{16}2/5,3,4,5,6,7,8,1,2/7,6,5,4,3,2,1,8,
{8}4/7-4[8:1],,3,3-8[8:1],,6-3[8:1],,1,
{24},,,1,,,2/8,,,3/7<4[8:1],,,,,,4/7,3,2,1,,,,,,
{8}1-5[8:1],5V38[48:11],1,6,7-3[8:1],7,1/7,,
{4}2>4[8:1]/5,2/7<4[8:1]*>2[8:1],7-3[8:1],3/7,
{8}1-5[8:1],5V38[16:3],1,7,7,6,1-5[8:1]/5,,
{12}1/5>1[4:1],,,8,7,6,5,,,3/7,,,
{12}2/6b,7,8,1/4,3,2,1/5,6,7,3/8,2,1,
{12}5/8,6,7,3-8[8:1]/8,,,7,,,1/6,,,
{16}7-4[8:1]/8h[16:3],,,7,8,,3,,1h[16:3]/2-5[8:1],,,2,1,,7,,
{16}6,5,6,5,8,1,8,1,4,3,4,3,7,8,7,8,
{8}1/6bz2[8:1],,2,4bz8[8:1],,8,6b,,
{4}1>4[8:1]/5,1/7<4[8:1]*>1[8:1],7-3[8:1],3/7,
{8}1-6[8:1],6V41[48:11],1,8,7-3[8:1],7,3/7,,
{4}1>4[8:1]/5,1/7<4[8:1]*>1[8:1],7-3[8:1],3/7,
{16}1,2,3,4,6,7,8,1,5,4,3,2,8,7,6,5,
{16}1/4,2,3,4,5,6,7,8,1/6,5,4,3,2,1,8,7,
{24}1q5[8:1]/6,,,,,,6,,,6<1[8:1],,,,,,2>5[8:1],,,,,,1/2,8,7,
{16}6w2[8:1],,,,,,,,4/8,7,6,5,4,3,2,1,
{8}4/8h[8:3],4,3,2h[8:3],6,5,4h[4:1],1,
{8}2,2h[4:1],4,4h[4:1],5,5h[4:1],6,6,
{16}7,8,7,8,5,4,5,4,1,2,1,2,6,5,6,5,
{24}4b-8[8:1]/7,,,,,,,,,,,,1/7,2/6,3/5,4,,,1b/7b,,,,,,
{16}2/5,,3,4,3,4,3,4,2,,7,8,7,8,7,8,
{8}6-2[8:1],6,4-8[8:1],4,7-3[8:1],7,2,2,
{16}2/5,,3,4,2,4,3,4,2,,7,8,6,8,7,8,
{16}6,,2/6,,4,,4/8,,1,5,1,5,3,7,3,7,
{16}2qq3[16:5]/6qq7[16:5],,,,2b/6b,,,,,,,,1,8,1,8,
{8}2/7p3[8:1],7,4p8[8:1],4,6q2[8:1],6,3,3,
{16}3/8,,2,1,3,1,2,1,4,,7,8,6,8,7,8,
{32}5,,1,,5,,1,,7,,3,,7,,3,,6,5,4,3,2,1,8,7,2b/6,,,,,,,,
{12}1b/5,2,3,4/8,5,6,3/7,8,1,2/6,3,4,
{12}5/8b,7,6,1/5,4,3,2/6,1,8,3/7h[4:1],,,
{16}2,5,3,4,8,7,1,6,2,1,3,8,2,1,2,1,
{32}2b,3,4,5,6,7,8,1,2,3,4,5,6,7,8,1,2/5b,4,3,2,1,8,7,6,5b-1[8:1],4,3,2,1,8,7,6,
{1}5bw1[4:5],
{1},
{8}3h[4:1]/4h[8:1],,4,3h[8:1]/4h[4:1],,3,3/4,,
{8}5h[8:1]/6h[4:1],,5,5h[4:1]/6h[8:1],,6,5/6,,
{8}3h[4:1]/5h[8:1],,5,3h[8:1]/5h[4:1],,3,3/5,,
{8}4h[8:1]/6h[4:1],,4,4h[4:1]/6h[8:1],,6,4/6-4[8:1],,
{1}3,
{1},
{1},
{1},
E
