&title=Ragnarok
&wholebpm=184
&artist=sky_delta
&des=華火職人
&shortid=760
&genre=maimai
&cabinet=SD
&version=maimai MiLK PLUS
&chartconverter=Neskol
&lv_2=7
&des_2=-
&lv_3=9
&des_3=-
&lv_4=12+
&des_4=LabiLabi
&lv_5=14
&des_5=華火職人
&des_6=
&inote_2=
(184){1},
{1},
{1},
{1}1h[2:3],
{1},
{1},
{1}8h[2:3],
{1},
{1},
{4}1,,1,1,
{4},1,1,,
{4}1,1/8,,1,
{4}8,,8,8,
{4},8,8,,
{4}8,1/8,,8,
{4}1,1,1,2,
{4}2,2,3,3,
{4}3,4h[2:1],,,
{4}5,5,5,6,
{4}6,6,7,7,
{4}7,8,8,8b,
{2}1,1,
{4}1,1,2,,
{4}2,,1/2,1/2,
{2}3,3,
{4}3,3,4,,
{4}4,,4/5,4/5,
{2}5,5,
{4}5,5,6,,
{4}6,,5/6,5/6,
{2}7,7,
{4}7,7,8,,
{2}8,1b/8b,
{4}8,8,,8,
{4}8,8,7,7,
{4},7,7,7,
{4}6,6,,6,
{4}6,6,5,5,
{4},5,5,5,
{1}4h[2:1],
{4}4,4,3h[2:1],,
{4},,3,3,
{4}2,2,2,1,
{4}1,1,8,8,
{4}8,1/8,1/8,1/8,
{1}2h[2:3]/7h[2:3],
{1},
{1},
{4}1,1,1,,
{8}1,1,1,,2,,2,,
{8}2,,,,2,2,2,,
{4}3,3,3,,
{8}3,3,3,,4,,4,,
{8}4,,,,4,4,4b,,
{4}5,5,4/5,,
{8}5,4,5,,6,,6,,
{8}5/6,,,,6,5,6,,
{1}7-3[4:5],
{1},
{4},,,1-5[4:5],
{1},
{1},
{4},,,4,
{8}4,,5,,5,,4,5,
{4}4,5,5,4/6,
{8}4/6,,5,4,5,,4h[2:1]/6h[2:1],,
{8},,,,,,4,5,
{4}4,3h[2:1]/5h[2:1],,,
{8},,5,4,5,,4,,
{8}4,,5,,5,,4,4,
{4}4/5,3,3,2,
{8}2,,1,1,1/8,,7,,
{8}7,,6,,6,,5,5,
{4}4/5,6,6,7,
{8}7,,8,8,1/8,,1h[2:1]/2h[2:1],,
{8},,,,,,3,4,
{4}3,3h[2:1]/4h[2:1],,,
{8},,6,5,6,,5h[2:1]/6h[2:1],,
{8},,,,,,7,8,
{4}7,7h[2:1]/8h[2:1],,,
{8},,1,8,1,,8,,
{4}8,1,1,2,
{4}2,3,3,4,
{8}4,,5,,5,,6,6,
{8}6,,7,7,7,,8,8,
{8}8,,1,1,1,1,1,,
{8}8,8,8,8,8,,1h[2:3]/8h[2:3],,
{1},
{1},
{4},,,1-5[4:5],
{1},
{1},
{1},
{1},
E
&inote_3=
(184){1},
{1},
{1},
{4}6h[4:3],,,5h[4:3],
{2},4h[4:3],
{4},3,,,
{4}2h[4:3],,,1h[4:3],
{2},8h[4:3],
{4},7b,,,
{4}3h[4:5],4,4,5,
{4}5,4,6h[4:5],5,
{4}5,4,4,5,
{4}2h[4:5],1,1,8,
{4}8,1,7h[4:5],8,
{4}8,1,1,8,
{4}7,7,7,8,
{4}8,8,1,1,
{4}1,2,2,2,
{8}3,3,4,,3/4,,6,6,
{8}5,,5/6,,2,2,1,,
{8}1/2,,7,7,8,,7b/8b,,
{4}1-4[4:1],,,5-8[4:1],
{4},,1,2,
{4}3,4/5,4/5,3b/6b,
{4}7-2[4:1],,,3-6[4:1],
{4},,7,8,
{4}1,1/8,2/7,3b/6b,
{4}6h[2:1],5,5,4b,
{4},,2h[2:1],1,
{4}1,7h[2:1],8,8,
{4}7-3[4:1],,,2-6[4:1],
{4},,7,8,
{4}1,2,3,4b/5b,
{4}6,6,5/7,3,
{4}3,2/4,5,6,
{4}7,8,1,1/8,
{4}2,2,1/3,7,
{4}7,6/8,1,2,
{4}3,4,5,4/5,
{8}6,6,6,,5/7,,3,3,
{4}3,2/4,1,8,
{4}7,6,5,4b/5b,
{8}2,2,2,,1/3,,7,7,
{4}7,6/8,5,4,
{4}3,2,1,1b/8b,
{4}7h[4:3],,,6h[4:3],
{2},5h[4:3],
{4},4,,,
{4}3h[2:1],,5,6h[2:1],
{4},4,3h[2:1],,
{4}5,6h[4:1],5,5b/6b,
{4}7h[2:1],,1,2h[2:1],
{4},8,7h[2:1],,
{4}1,2h[4:1],1,1b/2b,
{4}3,3,3/4,6,
{4}6,5/6,3,3,
{4}3/4,6,6,5b/7b,
{4}8-5[4:1],,,4-1[16:3],
{2},8pp5[4:3],
{4},,,4h[4:3],
{2},3h[4:3],
{4},2h[4:3],,,
{4}1b,,,7/8,
{4}1/6,1/6,1/2,3/8,
{4}3/8,1-6[4:1]/2-5[4:1],,,
{4}7-4[4:1]/8-3[4:1],,,5/6,
{4}4/7,3/8,1/2,7/8,
{4}1/2,7-4[4:1]/8-3[4:1],,,
{4}1-6[4:1]/2-5[4:1],,,3/4,
{4}2/5,2/5,5/6,4/7,
{4}4/7,5-2[4:1]/6-1[4:1],,,
{4}3-8[4:1]/4-7[4:1],,,1/2,
{4}3/8,4/7,5/6,3/4,
{4}5/6,3-8[4:1]/4-7[4:1],,,
{4}5-2[4:1]/6-1[4:1],,,8,
{4}7,6,5,4/6,
{4}3/7,8,1,2,
{4}3h[2:1],,4,5,
{4}6,7,8,1/7,
{4}2/6,5,4,3,
{8}2h[2:1],,,,1,,2,2,
{8}1,,3/8,,7,7,8,,
{4}1/6,5,4,3,
{8}2,,1,,8,,7,7,
{8}8,,1/6,,2,2,1,,
{8}3/8,,5,5,4,,3/6,,
{8}1,1,8,,2/7,,3h[4:3],,
{2},4h[4:3],
{4},5h[4:3],,,
{4}6h[4:3],,,5b,
{1},
{1},
{1},
E
&inote_4=
(184){1},
{1},
{1},
{4}1b<6[4:1]/2,3,4,5>2[4:1],
{4}6,7,8<5[4:1],1,
{4}2,3>8[4:1],4,5,
{4}1h[4:3],3,3,5h[4:3],
{4}3,3,1h[4:3],4,
{4}4,8h[2:1],5,5,
{8}1b-4[8:1]/8b,,,8-3[8:1],,,2-6[8:1],,
{8},,7,,8-5[8:1],,,1-6[8:1],
{4},7-3[8:1],,2<4[2:1],
{2},7>5[2:1],
{4},2h[1:1],4,5,
{4}6,7,2-5[8:1]/7-4[8:1],,
{4}3/6,5/7,7/8,2/8,
{4}2/3,3/5,6/7,3/4,
{1}4>1[2:1]/5<8[2:1],
{8}8,8,7,7,6,6,5,5,
{8}4,4,3,,2-6[8:1],2,,8-4[8:1],
{8}8,,1,1,1-5[8:1],,6,,
{4}8b,3/6qq3[4:3],,,
{4},1,4/5,5/7,
{1}2V85[2:1]/4h[4:3],
{8}6,6,5/7pp2[4:3],,,,,,
{8},,4,,4/5,,3,4,
{8}5,6>3[8:3],,,,,,,
{4}7/8,1-5[8:1],5s1[2:1],,
{8},,,,2/8,,3,3,
{4}2p5[2:1]/4,,7,8,
{8}6/7,,2,2,1/3q8[2:1],,,,
{4}6,5,4/6,3qq8[4:3]/7qq4[4:3],
{1},
{8}1b,,5,5h[8:3],,4,4h[2:1],,
{8}7,8,7h[4:1],,5h[8:3],,8,7h[8:3],
{8},1,2h[2:1],,4,5,4h[4:1],,
{8}1h[8:3],,6,5h[8:3],,7,8h[2:1],,
{8}5,4,5h[4:1],,4,,1/5,2/6,
{1}3/7s3[2:1],
{8}2h[8:3],,4,4h[8:3],,5,5h[2:1],,
{8}7,6,7h[4:1],,3h[8:3],,1,1h[8:3],
{8},8,8h[2:1],,6,5,6h[4:1],,
{8}2h[8:3],,6,7h[8:3],,5,4h[2:1],,
{8}1,8,1,,2,3,4,5,
{16}3/6,,3/6,,4h[8:1]/5h[8:1],,,5h[8:1]/6h[8:1],,,3h[8:1]/4h[8:1],,,,,,
{4}5>2[2:1],,,1<6[2:1],
{2},8<2[1:1],
{1},
{8}3/4,5,4,3,2/4,,6,5,
{8}6-8[8:1],,,,1/2,8,7,6,
{8}5/7,,2,1,2-4[8:1],,,,
{8}5/6,7,6,5,4,7,6,5,
{8}5-1[8:1]/6-8[8:1],,,,3/4,5,4,3,
{8}2,1,1-5[8:1]/2-4[8:1],,,,3b/6b,,
{8}4/5,6,4/5,3,4/5,6,4/5,3,
{8}4-1[8:1]/5-8[8:1],,,,1/8,2,1/8,7,
{8}1/8,2,1/8,7,1-4[8:1]/8-5[8:1],,,,
{16},,7h[8:1]/8h[8:1],,,7h[8:1]/8h[8:1],,,5h[8:1]/6h[8:1],,,5h[8:1]/6h[8:1],,,3h[8:1]/4h[8:1],,
{16},3h[8:1]/4h[8:1],,,3/4,,,,1/2,,1/2,,3/4,,3/4,,
{8}5/6,5/6,7/8,7/8,1b/2b,,1-5[1:2],,
{2},7,
{4},3,,,
{2}8,1b-5[8:1]/8b-4[8:1],
{8},2/7,2-5[8:1]/7,,6-1[8:1],,3-8[8:1],,
{8}7-4[8:1],,1,,2/7,2-5[8:1]/7-4[8:1],,,
{8},3/6h[4:1],,7h[4:1],,8,8h[4:1],,
{8}5,5-1[8:1],,8,8-4[8:1],,3,3-7[8:1],
{8},,8<5[8:1],,3,3>8[8:1],,7,
{4}7h[4:1],5h[4:1],4h[4:1],2>5[8:1],
{8}7,7>2[8:1],,3,3h[4:1],,5h[4:1],,
{8}7h[4:1],,8<5[8:1],,3,3p7[8:1],,6,
{4}6h[4:1],4h[4:1],2h[4:1],1>4[8:1],
{8}6,6q2[8:1],,3,3h[4:1],,5h[4:1],,
{4}7h[4:1],8<1[2:1],,,
{4}5<4[2:1],,,8b,
{4}7-2[8:1],3-6[8:1],8-3[8:1],4-1[8:1],
{8}7-4[8:1],,2,,6,5,4,3,
{16}2,,1,,8h[16:3],,,6h[16:3],,,5,,4/5,,,,
{4}2-5[8:1]/6-1[8:1],,1/8,3-8[8:1]/7-4[8:1],
{16},,,,6h[16:3],,,4h[16:3],,,3,,2h[16:3],,,5h[16:3],
{8},6,8-4[8:1],,,,1b/2b,1/2,
{8}1-5[8:1]/2-5[8:1],,,,7/8,7/8,7-4[8:1]/8-4[8:1],,
{8},,1/2,1/2,1-6[8:1]/2-5[8:1],,,,
{8}7/8,7/8,7-4[8:1]/8-3[8:1],,,,1/8<5[8:1],1,
{8}2,2,3,3,4>1[8:1]/5,5,6,6,
{16}7,,7,,1h[8:1]/8h[8:1],,,1h[8:1]/8h[8:1],,,1h[8:1]/8h[8:1],,,1h[8:1]/8h[8:1],,,
{16}1h[8:1]/8h[8:1],,,1h[8:1]/8h[8:1],,,1b/8b,,,,5,4,5b<4[4:11],,,,
{1},
{1},
{4},,,8b,
{1},
{1},
{1},
E
&inote_5=
(184){1},
{1},
{1},
{4}3h[4:1]/5b<4[2:5],,,5h[4:1],
{2},7h[4:1],
{4},1h[4:1],,,
{8}3,2,1,,6,5,,5,
{8},5,4h[8:1]/6h[8:1],,3b/7b,,4b/8b,1b/5b,
{8},1b/5b,4b/8b,,4-1[8:1]/8-5[8:1],1b/5b,,,
{8}6h[8:3],,5,4h[8:3],,8<5[4:1],8h[2:1],,
{8},,1,,2h[8:3],,1,8h[8:3],
{8},4>1[4:1],4h[2:1],,,,5,,
{8}6h[4:3],,5,5,,,3h[4:3],,
{8}2,2,,,8h[4:3],,7,7,
{8},,1h[2:1],,2,2,3,,
{4}1h[8:1]/5h[8:1],2h[8:1]/6h[8:1],3h[8:1]/7h[8:1],1h[8:1]/5h[8:1],
{8}4h[8:1]/8h[8:1],,3h[8:1]/7h[8:1],,2/6,2/6,4/8,4/8,
{8}2/6,2/6,1/5,1/5,8w4[8:1],,,,
{8}2/4,2/4,5/7,5/7,4/6,3/5,2/4,2/4,
{16}6-3[8:1]/8-3[8:1],,6/8,,,,,,5b/7b,,1,8,1,,2b/4b,,
{16}8,1,8,,3/7,,2/6,,1h[8:1]/5h[8:1],,,,2/6,3/7,4/8,1/5,
{8}2b-7[8:1]/6b-3[8:1],,2/6,,3-8[8:1]/7-4[8:1],4/8,,,
{16},,1,2,3/4,,,,4-1[8:1]/8-5[8:1],,,,4/8,,,,
{24}1/5,,,2/6,,,,,,7,8,1,2-5[8:1]*-7[8:1],,,,,,,,,,,,
{8}4h[8:1]/8h[8:1],,1h[8:1]/5h[8:1],,8-4[8:1],4-8[8:1],,,
{16},,,,2b/6b,,,,5h[4:1],,,,1,1,7,7,
{16}3,3,5,5,,,3/4,,2h[16:3],,,8h[16:3],,,5,,
{8}3-8[8:1]/7-4[8:1],,3/7,,2-7[8:1]/6-3[8:1],3V57[2:1]/7V13[2:1],,,
{4},,1-6[8:1]/5-2[8:1],1/5,
{24}3/7,,,4/8,,,1h[8:3]/5h[8:1],,,,,,5,4,3,2,,,8b,,,,,,
{8}1-4[8:1]/5-8[8:1],,1/5,,4/8,3/7,,4/6,
{16}1/7,,2/5,,1/3,,5/7,,3/4,,7,8,7,,5/6,,
{48}2,,,1,,,2h[16:3],,,,,,,,,7h[16:3],,,,,,,,,5h[16:3],,,,,,,,,3h[6:1],,,,,,,,1b,,,,,,,
{16}6,5,6,,2,1,2,1,,,6/7,,,,3,3,
{16}8,,5,6,4h[8:1]/7h[8:1],,,,3,4,3,,7,8,7,8,
{16},,2/3,,,,6,6,1,,4,3,2h[8:1]/5h[8:1],,,,
{16}1,8,1,,5,4,6,3,,,2/7,,,,2,2,
{16}5,,8,7,1h[8:1]/6h[8:1],,,,4h[8:1]/5h[8:1],,,,8,3,6,2,
{48}5,,,4,,,7h[16:3],,,,,,,,,2h[16:3],,,,,,,,,4h[16:3],,,,,,,,,6h[6:1],,,,,,,,8h[48:7],,,,,,,
{16}1b>4[8:1],,6,6,1,,,,5,4,5,,7,,2,1,
{16}2,,6,5,4h[8:1]/7h[8:1],,,,8<5[8:1],,3,3,8,,,,
{16}4,5,4,,2,,7,8,7,,3,4,2h[8:1]/5h[8:1],,,,
{16}6,5,7,,3,4,2,,7/8,,1/2,,3,4,2,,
{16}6,5,7,,1/2,,7/8,,6,5,7,5,8,,3,4,
{16}2,4,1,,6/7,6/7,,2/3,2/3,,1/8,1/8,,,2h[16:1]/6h[16:1],,
{1}3p1[4:9]/7p5[4:9],
{1},
{1},
{8}5/6<8[8:1],5,6,4,,4,6,3,
{16}6,,3,,5,5,4,,3>1[8:1]/4,,4,,3,,5,,
{16},,5,,3,,6,,3,,6,,4,4,5,,
{8}6/7>1[8:1],6,7,4,,4,7,4,
{16}7,,4,,5,5,4,,2<8[8:1]/3,,3,,2,,6,,
{8}5,6,,5,2bp5[8:1]/6b,,,,
{8}6/7h[8:1],6,7h[8:1],5,7h[8:1],5,7h[8:1],4,
{16}7h[8:1],,4,,3/7,6,5,4,2h[8:1]/3,,3,,2h[8:1],,4,,
{16}2h[8:1],,4,,2h[8:1],,5,,2h[8:1],,5,,2/6,3,4,5,
{16},,3h[8:1]/4h[8:1],,,7h[8:1]/8h[8:1],,,1h[8:1]/2h[8:1],,,5h[8:1]/6h[8:1],,,2h[8:1]/3h[8:1],,
{16},6h[8:1]/7h[8:1],,,1b/8b,,,,3/7,,3/7,,4/8,,4/8,,
{16}1/5,,1/5,,2/6,,2/6,,2/6qq3[16:21],1/5,4/8,3/7,2qq7[16:17]/6,,,,
{1},
{4},4<7[8:3]/8>3[8:3],,,
{4}4b/8b,,,4b/8b<5[8:1],
{24}4-8[8:1]/8,3,2,1,,,4,,,,,,1<5[8:1],,,5>2[8:1],,,1,,,,,,
{24}1b,,,,,,1,,,,,,2/8,3/7,4/6,5>1[8:1]*<1[8:1],,,,,,5,,,
{8},3-5[8:1]/8-6[8:1],,3/8,,4,1b/5b<8[8:1],,
{24}1-5[8:1]/5,2,3,4,,,1,,,,,,8>4[8:1],,,4<7[8:1],,,8,,,,,,
{24}8b,,,,,,4/5h[8:1],,,1,8,7,6h[8:1],,,8,7,6,5-2[8:1],,,,,,
{4}4-7[8:1]/5,4/5-1[8:1],4/5,2b/6b>3[8:1],
{24}2-6[8:1]/6,1,8,7,,,2,,,,,,7>3[8:1],,,3<6[8:1],,,7,,,,,,
{24}7b,,,,,,8,1,2,3,,,8,7,6,5,,,8-5[8:1],1,2,3,,,
{4}8-3[8:1],8-4[8:1],8,3b<6[8:1]/7b,
{24}3/7-3[8:1],8,1,2,,,7,,,,,,2<6[8:1],,,6>3[8:1],,,2,,,,,,
{24}2b,,,,,,2/4,,,5,6,7,8,,,4,3,2,1,,,5,6,7,
{32}8,1,2,3,4,5,6,7,8,1,2,3,4,5,6,7,8,1,2,3,4,5,6,7,8h[8:3],,,,,,,,
{8}1,2h[4:1],,6h[4:3],5,,3,,
{16}1,,,,8,7,1,6,7/8,,2,1,3,8,1/2,,
{32}1,,8,,2,,7,,3/6,,,,3,2,1,8,7,,,,4/5,,,,6,,2,,6,,2,,
{48}7,,,3,,,7,,,3,,,4/8,,,,,,1<6[8:1]/5,,,,,,,,,,,,5,,4,,3,,2,,,,,,5,,,,,,
{16}4h[8:1]/6h[8:1],,,,7h[8:1]/8h[8:1],,,,5,2,7,3,6,1,5h[16:3],,
{48},,,7h[16:3],,,,,,,,,1h[16:3],,,,,,,,,3h[6:1],,,,,,,,5h[48:7],,,,,,,4b>1[8:1],,,,,,7,,,7,,,
{16}4,,,,8,8,1,,5/6,,3,4,3,,7,8,
{16}1h[8:1]/6h[8:1],,,,5<8[8:1],,2,2,5,,,,1,1,8,,
{16}3,,6,5,6,,2,1,3h[8:1]/8h[8:1],,,,6,5,7,,
{16}3,4,2,,6/8,,4/5,,3,4,1,,6,5,8,,
{16}1/3,,4/5,,2h[16:3]/3b,,,1b,,,6b/7h[16:3],,,8b,,,
{16}1h[1:0]/5b,,,4h[1:0]/8b,,,2b/7b,,,,8,1,8b-4[1:1]*V24[1:1],,,,
{1},
{4},3b-7[1:1]*V57[1:1]/7b,,,
{4},,,6b,
{1},
{1},
{1},
E
